
//----- song ID: woen -----//
#TITLE:The World Ends Now;
#ARTIST:Akira Complex;
#BANNER:The World Ends Now.png;
#BACKGROUND:The World Ends Now-bg.png;
#CDTITLE:./CDTitles/DDR A20.png;
#MUSIC:The World Ends Now.ogg;
#SAMPLESTART:87.598;
#SAMPLELENGTH:15;
#BPMS:0=200;
#NOTES:
     dance-single:
     :
     Beginner:
     4:
     :
0000
0000
0000
0000
,
0000
0000
0000
0000
,
0000
0000
0000
0000
,
0000
0000
0000
0000
,
0000
0000
0000
0000
,
0010
0010
0000
0000
,
1000
0000
1000
0000
,
0001
0000
0001
0000
,
0100
0000
0100
0000
,
0010
0010
0000
0000
,
1000
0000
1000
0000
,
0001
0000
0001
0000
,
0100
0000
0100
0000
,
0010
0010
0000
0000
,
0100
0000
0100
0000
,
0001
0000
0001
0000
,
1000
0000
1000
0000
,
0010
0000
0010
0000
,
0100
0000
0100
0000
,
0001
0000
0001
0000
,
1000
1000
1000
0000
,
0100
0000
0100
0000
,
0010
0000
0010
0000
,
0001
0001
0001
0000
,
1001
0000
0000
0000
,
1000
0000
1000
0000
,
0001
0000
0001
0000
,
0010
0000
0010
0000
,
0100
0000
0100
0000
,
0010
0000
0010
0000
,
0001
0000
0001
0000
,
1000
0000
1000
0000
,
1001
0000
0000
0000
,
0100
0000
0100
0000
,
0100
0100
0100
0000
,
0010
0000
0010
0000
,
1000
0000
0001
0000
,
1001
0000
0000
0000
,
1001
0000
0000
0000
,
0001
0000
1000
0000
,
0010
0000
0100
0000
,
0001
0000
0001
0000
,
0010
0000
0010
0000
,
0100
0000
0100
0000
,
1000
0000
1000
0000
,
0001
0001
0001
0000
,
0010
0010
0010
0000
,
0100
0100
0100
0000
,
1001
0000
0000
0000
,
0020
0000
0000
0000
,
0030
0000
0000
0000
,
0200
0000
0000
0000
,
0300
0000
0000
0000
,
0002
0000
0000
0000
,
0003
0000
0000
0000
,
2000
0000
0000
0000
,
3000
0000
0000
0000
,
0100
0000
1000
0000
,
0100
0000
1000
0000
,
0010
0000
0100
0000
,
0010
0000
0100
0000
,
0001
0000
0010
0000
,
0001
0000
0010
0000
,
0100
0000
0010
0000
,
0100
0000
0010
0000
,
0001
0000
0001
0000
,
0010
0000
0010
0000
,
0100
0000
0100
0000
,
1000
0000
1000
0000
,
0010
0010
0010
0000
,
0100
0100
0100
0000
,
0001
0001
0001
0000
,
1001
0000
0000
0000
,
1001
0000
0010
0000
,
0100
0000
0010
0000
,
0100
0000
0001
0000
,
0100
0000
0001
0000
,
0010
0000
0100
0000
,
0010
0000
0100
0000
,
1000
0000
0010
0000
,
1001
0000
0000
0000
,
1000
0000
0100
0000
,
1000
0000
0100
0000
,
0010
0000
0001
0000
,
0010
0000
0001
0000
,
1001
0000
0000
0000
,
1001
0000
0000
0000
,
0010
0000
0100
0000
,
0010
0010
0010
0000
,
0100
0000
0000
0000
,
0000
0000
0000
0000
;
#NOTES:
     dance-single:
     :
     Challenge:
     18:
     :
0000
0000
0000
0000
,
0000
0000
0000
0000
,
0000
0000
0000
0000
,
0000
0000
0000
0000
,
0000
0000
0000
0000
0000
1100
0101
0000
,
0110
0000
1001
0000
1000
0100
0010
0001
,
0000
0000
0001
0000
0100
0000
0000
0000
0001
0000
0100
0000
0010
0000
1000
0010
,
0100
0000
0010
0000
1010
0000
0000
0000
0101
0000
0000
0000
1000
0100
0010
0001
,
1000
0000
0010
0000
0100
0010
1000
0001
0100
0000
0010
0000
0000
0000
0110
0000
,
1001
0000
0000
0000
0110
0000
0000
0000
1000
0100
0010
0000
0001
0000
0100
0000
,
0000
0010
0100
0000
1000
0010
0100
0000
,
0001
0010
0001
0000
1000
0100
1000
0000
0010
0000
0100
0000
0010
1000
0020
0000
,
0000
0130
0001
1000
0001
0110
1001
0000
,
1010
0000
0000
0000
0011
0000
0000
0000
0001
0010
0001
0000
0100
1000
0100
0000
,
0010
1000
0001
0000
0001
0010
1000
0010
,
0110
0000
0000
0000
1100
0000
0000
0000
0101
0000
0000
0000
0010
1000
0100
0010
,
0001
0100
0110
0000
1001
0120
0000
1030
,
0001
0010
0001
0000
1000
0010
1000
0000
0001
0100
0001
0000
1000
0100
1000
0000
,
0001
0100
1000
0000
0100
0001
0010
0000
0001
0010
1000
0000
0010
0001
0100
0000
,
0010
1000
0100
0000
1000
0100
0001
0000
0100
1000
0010
0000
1000
0010
0001
0000
,
0010
1000
0010
0100
0001
0010
0100
1000
0002
0000
0000
0000
0000
0000
0000
0000
,
0103
0001
0100
0001
1000
0010
1000
0010
1000
0100
1000
0100
0010
0001
0010
0001
,
0100
0010
0100
0010
1000
0001
1000
0001
0100
0010
1000
0001
0100
0010
1000
0001
,
1000
0010
0100
0001
1000
0010
0100
0001
0010
0100
1000
0001
0010
0100
1000
0010
,
0200
0000
0000
0310
,
0010
1000
0010
0000
0100
0000
0001
0000
0010
0100
0010
0000
0001
0000
1000
0000
,
0001
0100
0001
0000
0010
0000
0100
0000
1000
0100
1000
0000
1001
0000
0000
0000
,
0010
1000
0010
1000
0001
0000
0100
0000
0001
0010
0001
0010
0100
0000
1000
0000
,
0010
1000
0001
0100
0010
0000
0100
0000
0010
0000
0010
0000
1001
0000
0000
0000
,
1000
0010
0100
0000
0001
0010
0100
0000
1000
0001
0100
0000
0001
1000
0100
0000
,
1000
0100
0010
0000
0100
1000
0010
0000
0100
0001
0010
0000
1001
0000
0000
0000
,
1010
0010
0001
1000
1100
0100
0001
0010
,
0011
0000
0000
1100
0000
0000
0101
0000
0110
0000
0000
0000
1001
0000
0000
0000
,
1000
1000
0100
0100
0010
0010
0001
0001
0100
0100
0010
0010
,
1000
1000
1000
0001
0001
0001
1000
1000
1000
0110
0000
0000
,
1000
0010
0100
0000
0001
0010
0100
0000
1000
0100
0010
0000
0001
0100
0010
0000
,
1000
0001
0010
0000
0001
1000
0010
0000
0100
0010
0100
0000
1001
0000
0000
0000
,
1010
0010
0010
0000
0101
0100
0100
0000
,
0110
0000
0000
1001
0000
0000
1100
0000
0101
0000
0000
0000
1001
0000
0000
0000
,
0010
0000
0100
0000
0001
0010
0001
0010
0100
0000
1000
0000
0010
0100
0010
0100
,
0010
0000
1000
0000
0001
0100
0001
0100
0010
0000
0000
0000
1001
0000
0000
0000
,
0001
0100
1000
0000
0100
1000
0100
0000
0010
0100
0010
0000
0100
0001
0100
0000
,
0001
0010
1000
0000
0010
1000
0010
0000
0100
0010
0100
0000
0010
0001
0010
0000
,
0001
0100
1000
0000
0001
0010
0100
0000
0001
0100
1000
0000
0100
0001
0010
0000
,
1000
0010
0001
0000
1000
0010
0001
0000
0220
0000
0000
0000
0330
0000
0000
0000
,
1000
0100
1000
0100
0010
0001
0010
0001
1000
0010
1000
0010
0100
0001
0100
0001
,
0010
0010
0100
0100
1000
1000
0010
0010
0100
0100
0001
0001
,
1000
0010
0100
0001
0010
0100
1000
0001
0010
0100
1000
0010
0100
0001
1000
0010
,
0200
0000
0000
0310
,
0000
0000
0001
0001
0001
0001
0000
0101
,
0000
0000
1000
1000
1000
1000
0000
1100
,
0000
0000
0010
0010
0010
0010
0000
0011
,
0000
0000
0100
0100
0100
0100
0000
1010
,
0000
0000
0001
0010
0001
0010
0000
1100
,
0000
0000
1000
0010
1000
0010
0000
0101
,
0000
0000
1000
0100
1000
0100
0000
0011
,
0000
0000
1100
0000
0000
0101
0000
1010
,
0101
0000
0001
0010
1000
0010
0001
0000
,
0110
0000
1000
0010
0001
0010
1000
0000
,
0110
0000
0010
1000
0100
1000
0010
0000
,
1001
0000
0100
0001
0010
0011
1001
0000
,
0110
0000
1001
0000
0001
0010
0100
1000
,
0010
0000
0100
0001
0010
1000
0001
0100
,
1000
0000
0010
0100
0010
1000
0001
0100
,
0010
0000
0100
0010
0100
0001
1000
0000
,
0002
0000
0000
0000
,
2003
0000
0000
0000
,
3020
0000
0000
0000
,
0230
0000
0000
0000
,
0301
0010
0100
0010
1000
0001
0100
0010
0100
1000
0010
0100
0010
1000
0010
0100
,
0010
0001
1000
0100
0010
0100
0001
0010
0100
0010
0001
1000
0001
0010
0001
0010
,
0100
1000
0100
1000
0010
1000
0010
1000
0001
0100
0001
0100
0010
1000
0001
0100
,
0010
0100
1001
0000
,
0001
0010
1000
0000
0010
0000
0001
0000
0100
0000
0010
0000
1000
0100
0001
0000
,
1000
0010
0001
0000
0100
0000
0010
0000
1000
0000
0100
0000
0110
0000
0010
0000
,
0001
0100
1000
0000
0100
0000
0010
0000
1000
0100
0001
0000
0100
0000
0010
0000
,
0001
0010
1000
0000
0010
0000
0100
0000
1000
0010
0001
0000
0110
0000
0000
0000
,
0010
1000
0100
0000
0010
0000
0001
0000
0100
0010
1000
0000
0100
0010
0001
0000
,
0010
0001
0100
0000
0001
0000
1000
0000
0010
1000
0001
0000
0100
0001
1000
0000
,
0100
1000
0010
0000
0011
0000
1001
0000
0100
1000
0010
0000
1010
0000
1001
0000
,
0110
0000
0000
1100
0000
0000
0101
0000
1001
0000
0000
0000
0011
0000
0000
0000
,
0001
0010
1000
0000
0010
0100
0010
0000
1000
0010
0001
0000
1000
0001
1000
0000
,
0001
0100
1000
0000
0100
0010
0100
0000
0001
0100
1000
0000
0001
0010
1000
0000
,
0010
1000
0100
0000
0010
0001
0100
0000
1000
0100
0010
0000
0001
0010
0100
0000
,
0001
0100
1000
0000
0001
0010
1000
0000
0001
0010
1000
0000
0001
0100
1000
0000
,
1001
0000
0110
0000
,
1100
0000
0000
0101
0000
0000
0110
0000
1001
0000
0000
0000
1100
0000
0000
0000
,
0101
0000
0000
0000
0010
0000
0000
0000
0100
0000
0000
0000
0001
0100
0010
1000
,
0001
0000
0010
0000
0100
0010
0001
1000
0001
0000
0000
0000
0100
0000
0010
0000
,
0200
0000
0000
0000
,
0000
0000
0000
0000
,
0000
0000
0000
0000
,
0000
0000
0000
0000
,
0000
0000
0300
0000
,
0000
0000
0000
0000
;
#NOTES:
     dance-single:
     :
     Easy:
     9:
     :
0000
0000
0000
0000
,
0000
0000
0000
0000
,
0000
0000
0000
0000
,
0000
0000
0000
0000
,
0000
0000
0000
0000
,
0110
1001
0010
0001
,
0100
0001
0100
0010
,
1000
0010
1001
0010
,
1000
0100
0010
0001
,
0110
1001
0010
0100
,
0001
1000
0100
0010
,
0001
0100
0001
1000
,
0100
0010
0001
1000
,
0110
0110
1000
0001
,
1000
0100
0010
0001
,
0110
0000
1000
0000
0110
0000
0001
0010
,
0000
1000
0010
0000
1000
0001
0100
0000
,
0001
0100
0001
0100
,
0010
1000
0010
1000
,
0100
0010
0100
0010
,
0001
1000
2002
3003
,
0110
0000
0110
0000
,
1001
0000
1001
0000
,
1000
0010
0100
0001
,
0200
0000
0000
0300
,
0001
0010
0100
1000
,
0100
1000
0001
1001
,
1000
0100
0010
0001
,
0010
0001
1000
0110
,
0010
0100
0001
1000
,
0010
0000
1000
0000
0100
0100
0100
0000
,
0110
1000
0110
0001
,
0200
0000
0310
1001
,
1000
0100
1000
0000
0001
0100
0001
0000
,
1000
0010
1000
0000
0001
0000
0001
0000
,
0100
0010
0100
0000
0001
1000
0001
0000
,
0010
0100
0010
0000
1000
0000
1000
0000
,
1001
0010
1001
0100
,
0020
0000
0130
1001
,
0010
0000
0001
0000
1000
0000
0001
0100
,
0000
0100
0001
0000
1000
0000
0110
0000
,
1001
0000
1001
0000
,
0110
0000
0110
0000
,
1001
0000
1001
0000
,
0110
0000
0220
0330
,
0010
1000
0001
0100
,
0001
1000
0010
0100
,
0001
0100
0001
0100
0001
0100
0001
0000
,
2000
0000
0000
3000
,
0020
0000
0000
0030
,
0200
0000
0000
0300
,
0002
0000
0000
0003
,
0200
0000
0000
0300
,
0020
0000
0100
0030
,
2000
0000
0001
3000
,
0200
0000
0010
0300
,
0001
0000
1000
0000
0000
0001
0000
0000
,
0100
0100
1000
1000
,
0100
0100
0010
0010
,
0001
0001
0100
0100
,
0010
0010
1000
1000
,
1001
0110
0001
0001
,
0100
0100
1000
1000
,
0010
0010
0001
0001
,
0100
0100
1000
0000
,
0100
1000
0100
1000
,
0001
0100
0001
0100
,
0010
1000
0010
1000
,
0100
1000
0020
0030
,
1000
1100
0001
0101
,
1000
1010
0001
0011
,
0100
1000
0100
1000
0100
1000
0100
0000
,
0020
0000
0000
0030
,
1000
0000
0100
0000
0010
0001
0010
0000
,
0001
0000
0010
0000
0100
1000
0100
0000
,
0010
0000
0100
0000
1000
0001
1000
0000
,
0010
0000
0100
0000
0001
1000
0001
0000
,
1000
0000
0001
0000
1000
0100
1000
0000
,
0001
0000
1000
0000
0001
0100
0001
0000
,
1000
0000
0010
0000
0100
0001
0100
0000
,
0020
0000
1030
0101
,
0010
0010
0001
0010
,
1000
0100
0010
0110
,
0001
0001
0100
0001
,
1000
0010
1000
0001
,
1000
0110
0001
0110
,
2000
0000
3010
0000
,
0100
0001
0100
0010
,
1000
0000
0100
0000
0010
0001
0010
0000
,
2002
0000
0000
0000
,
0000
0000
0000
0000
,
0000
0000
0000
0000
,
0000
0000
0000
0000
,
0000
0000
3003
0000
,
0000
0000
0000
0000
;
#NOTES:
     dance-single:
     :
     Medium:
     12:
     :
0000
0000
0000
0000
,
0000
0000
0000
0000
,
0000
0000
0000
0000
,
0000
0000
0000
0000
,
0000
0000
0000
0000
,
1001
0000
0110
0000
0010
1000
0010
1000
,
0000
1000
0010
0000
0100
0001
0100
0000
,
0001
0000
1000
0000
1001
0000
0001
0001
,
0000
0010
0010
0001
1000
0100
0000
1000
,
1000
0000
0110
0000
0001
0100
0001
0100
,
0000
0100
0001
0000
0010
1000
0010
0000
,
1000
0000
0100
0000
0010
0001
0010
0001
,
1000
0100
0000
1000
0001
0010
0001
0000
,
1001
0000
0110
0000
0010
1000
0010
1000
,
0000
1000
0010
0000
0100
0001
0010
0001
,
0101
0000
0010
0000
0110
0000
0001
0001
,
0000
1000
0100
0010
0100
1000
0000
0010
,
1000
0100
1000
0000
1000
0100
1000
0000
,
0001
0100
0001
0000
0001
0100
0001
0000
,
0100
0010
0100
0000
0100
0010
0100
0000
,
0001
0100
0001
1000
2002
0000
3003
0000
,
1001
1000
1001
0001
,
0110
0010
0110
0100
,
0001
0100
0001
0100
0010
1000
0010
1000
,
0020
0000
0000
0130
,
0100
0001
1000
0000
0100
1000
0001
0000
,
0010
0001
0100
0000
0010
1000
1010
0000
,
0010
1000
0001
0000
0010
0001
1000
0000
,
0100
1000
0010
0000
0100
0001
0101
0000
,
0010
1000
0010
0000
0100
0010
0100
0000
,
0001
0100
0001
0000
0100
0010
0110
0000
,
1001
1000
0110
0010
,
0100
0000
0000
0100
0000
0000
0100
0000
0010
0000
0000
0000
0110
0000
0000
0000
,
1000
0000
1000
0010
0000
0100
0001
0000
0001
0010
0000
0010
,
0001
0000
0001
1000
0000
0010
1000
0000
1000
0100
0000
0000
,
0001
0100
0010
1000
0100
0010
0001
0100
,
0010
0001
1000
0100
0001
0100
0110
0000
,
1001
0001
0110
0100
,
0001
0000
0000
0001
0000
0000
0001
0000
1000
0000
0000
0000
1001
0000
0000
0000
,
0100
0000
0010
0000
1000
0000
0001
0001
,
0000
1000
0010
1000
0100
0000
1010
0000
,
0011
0010
0011
0010
,
1100
0100
1100
0100
,
1001
0001
1001
0001
,
0110
0100
0220
0330
,
0001
0100
0001
0100
0010
1000
0100
0010
,
0001
0000
0010
0001
0000
0100
0010
0000
1000
0100
0000
1000
,
0010
0100
0001
0010
0100
1000
0001
0100
,
0020
0000
0000
0000
,
0230
0000
0000
0000
,
0302
0000
0000
0000
,
2003
0000
0000
0000
,
3020
0000
0000
0000
,
0230
0000
0000
0010
0000
0000
0010
0000
,
0302
0000
0000
1000
0000
0000
1000
0000
,
0023
0000
0000
0100
0000
0000
0100
0000
,
0031
0000
1001
0000
0000
0110
0000
0010
,
0010
0000
1000
0000
0000
0001
0000
0010
,
0001
0000
0100
0000
0000
0010
0000
1000
,
0100
0000
0010
0000
0000
0001
0000
0100
,
0010
0000
1000
0000
0100
0010
0010
0000
,
1001
0000
0110
0000
0000
0001
0000
1000
,
0001
0000
0010
0000
0000
0100
0000
0010
,
0001
0000
0100
0000
0000
0010
0000
1000
,
0100
0010
0001
1000
,
0001
0010
0100
0010
0001
0010
0001
0000
,
1000
0010
1000
0001
0100
0000
0010
0000
,
1000
0010
0100
0001
0010
0100
1000
0100
,
1000
0010
0100
0001
0100
1000
0100
0000
,
0001
0001
0010
0001
0010
0010
0100
0010
,
0100
0100
1000
0100
1000
1000
0010
0100
,
0001
1000
0001
1000
0010
0100
0010
0100
,
0002
0000
0000
0003
,
1000
0000
0010
0100
0001
0100
0000
0100
,
0010
0000
0010
0100
0001
0010
0110
0000
,
0100
0000
1000
0010
1000
0100
0000
0010
,
0001
0000
0001
0010
0100
1000
1010
0000
,
0001
0000
0100
0001
0100
0010
0000
0100
,
0001
0000
0001
0100
0001
0010
0110
0000
,
0001
0100
0001
0000
1000
0100
1000
0000
,
0100
0000
0000
0100
0000
0000
0100
0000
0110
0000
0000
0000
0010
0000
0000
0000
,
0001
0010
0001
1000
0000
0100
1000
0100
,
0000
1000
0001
0000
1000
0010
1010
0000
,
0100
0001
0010
0001
0000
0100
0010
0100
,
0000
0001
0100
0000
0010
1000
0001
0000
,
1000
1010
0001
0011
,
0010
0000
0000
0010
0000
0000
0010
0000
0011
0000
0000
0000
0000
0000
0000
0000
,
1000
0001
0100
0010
1000
0001
0100
0010
,
1000
0100
0001
0100
1000
0100
0000
0010
,
2002
0000
0000
0000
,
0000
0000
0000
0000
,
0000
0000
0000
0000
,
0000
0000
0000
0000
,
0000
0000
3003
0000
,
0000
0000
0000
0000
;
#NOTES:
     dance-single:
     :
     Hard:
     16:
     :
0000
0000
0000
0000
,
0000
0000
0000
0000
,
0000
0000
0000
0000
,
0000
0000
0000
0000
,
0000
0000
0000
0000
,
0110
0000
1001
0000
0001
0010
1000
0010
,
0000
0100
0010
0000
1000
0010
0001
0000
,
0100
0000
0010
0000
0110
0000
1000
1000
,
0000
0001
0100
0010
1000
1001
0000
0110
,
0101
0000
0000
0000
1010
0000
0000
0000
0001
0010
0001
0000
0100
0000
0010
0000
,
0000
0000
1000
0000
0100
0000
0000
0000
0010
0001
0010
0000
0100
0000
1000
0000
,
0001
0000
0000
0000
0100
0000
0000
0000
0010
1000
0010
0000
0100
0000
0001
0000
,
0010
0100
0000
1000
0010
0011
1100
0000
,
0110
0000
0000
0000
1001
0000
0000
0000
1000
0100
1000
0000
0010
0000
0100
0000
,
0000
0000
0001
0000
0010
0000
0000
0000
0100
1000
0100
0000
0010
0000
0001
0000
,
0110
0000
0000
0000
0011
0000
0000
0000
1100
0000
0000
0000
0010
0100
0010
0100
,
0010
0000
1000
0000
0001
0100
0010
0000
1000
0000
0001
0000
0000
0000
0100
0000
,
0100
0010
0100
0001
0100
0010
0100
1000
,
0100
0010
0100
0001
0100
1000
0100
0010
,
0010
0001
0010
0100
0010
1000
0010
0100
,
0010
0001
0010
0100
0220
0000
0330
0000
,
1000
0100
0010
0000
0001
0100
0010
0000
1000
0010
0100
0000
0001
0010
0100
0000
,
1000
0001
0100
0000
0001
1000
0100
0000
1000
0001
0010
0000
0001
1000
0010
0000
,
1000
0100
0010
0000
0001
0100
0010
0000
1000
0100
0010
0001
1000
0100
0010
0001
,
2000
0000
0000
3001
,
1000
0010
0001
0010
1000
0100
0010
0001
,
0100
0000
0010
0000
1000
0000
0100
0000
1000
0100
1000
0000
1001
0000
0000
0000
,
0001
0010
1000
0010
0001
0100
0010
1000
,
0100
1000
0100
0000
0010
0000
0001
0000
1000
0001
1000
0000
1001
0000
0000
0000
,
0010
1000
0100
0010
0001
0100
0010
1000
,
0010
0100
0010
0000
1000
0100
1000
0000
0001
0010
0001
0000
1001
0000
0000
0000
,
0011
0100
1000
0010
0101
1000
0001
0010
,
0110
0000
0000
1100
0000
0000
0110
0000
0011
0000
0000
0000
0000
0000
0000
0000
,
0001
0010
1000
0010
0001
1000
0100
0001
0100
1000
0010
0100
,
0001
1000
0100
0010
0001
0100
0010
1000
0100
0110
0000
0000
,
0001
0010
0001
0100
0010
1000
0100
1000
,
0100
1000
0001
0000
0010
0001
1000
0000
0100
1000
0001
0000
1001
0000
0000
0000
,
0110
1000
0110
0001
,
1010
0000
0000
0110
0000
0000
0011
0000
0110
0000
0000
0000
1001
0000
0000
0000
,
0010
0000
0100
0000
0001
0010
0100
0000
1000
0000
0100
0000
0010
0000
0010
0000
,
0001
0000
1000
0000
0001
1000
0100
0000
0010
0000
0000
0000
1001
0000
0000
0000
,
1010
1000
0100
0000
0011
0001
0100
0000
,
1100
1000
0010
0000
0101
0001
0010
0000
,
1010
0100
0001
0000
0011
0100
1000
0000
,
1000
0100
0010
0001
1000
0100
0010
0002
2000
0000
0000
0000
3003
0000
0000
0000
,
0001
0010
0100
0000
1000
0010
0100
0000
0001
0100
0010
0000
1000
0100
0010
0000
,
0001
0100
0010
1000
0001
0100
0010
1000
0001
0100
0010
1000
,
0001
0010
0100
0000
1000
0100
0010
0000
0100
0010
0001
1000
0010
0100
0001
1000
,
0200
0000
0000
0000
,
0320
0000
0000
0000
,
0032
0000
0000
0000
,
2003
0000
0000
0000
,
3200
0000
0000
0000
,
0320
0000
0000
0100
0000
0000
0100
0000
,
0032
0000
0000
1000
0000
0000
1000
0000
,
2003
0000
0000
0010
0000
0000
0010
0000
,
3001
0000
0110
0000
0000
1001
0000
0100
,
0100
0000
1000
0010
1000
0100
0010
0000
,
0011
0000
0001
0100
1000
0100
0001
0010
,
0100
0000
1000
0100
0010
0100
1000
0000
,
0110
0000
1000
0001
0010
0110
0110
0000
,
0011
0000
1100
0000
0010
1000
0100
0010
,
0001
0000
1000
0100
0010
0001
1000
0100
,
0010
0000
0001
1000
0100
0010
0100
1000
,
0001
0000
1000
0100
0010
0001
1000
0000
,
0010
0100
0010
0000
1000
0000
0100
0000
0010
0001
0010
0000
0100
0000
0010
0000
,
0001
0010
0001
0000
0100
0000
0010
0000
1000
0100
1000
0000
0010
0000
0100
0000
,
0001
1000
0100
0000
1000
0001
0100
0000
0001
1000
0010
0000
1000
0001
0010
0000
,
0100
0010
0001
0000
0100
0010
1000
0000
1001
0000
0000
0000
0000
0000
0000
0000
,
0100
0001
0100
0000
0010
1000
0010
0000
0100
0010
0100
0000
0001
0010
0001
0000
,
0010
0100
0010
0000
0100
1000
0100
0000
0010
0001
0010
0000
0100
0010
0100
0000
,
1000
0010
1000
0010
0100
0001
0100
0001
0100
0010
0100
0010
1000
0001
1000
0001
,
0100
0010
2002
3003
,
1000
0010
1000
0000
0100
0000
0010
0000
0001
0000
0100
0000
0001
0000
1000
0000
,
0100
1000
0100
0000
0010
0000
0001
0000
0100
0000
0010
0000
0101
0000
1000
0000
,
0100
0010
0100
0000
0010
0000
0001
0000
1000
0000
0100
0000
0010
0000
0001
0000
,
1000
0100
1000
0000
0010
0000
0100
0000
0001
0000
1000
0000
0110
0000
0000
0000
,
1000
0010
1000
0000
0100
0000
0010
0000
0001
0000
0100
0000
0010
0000
1000
0000
,
0010
0100
0010
0000
0100
0000
0001
0000
0010
0000
0100
0000
1010
0000
0100
0000
,
0110
0001
0010
0100
1001
0010
0100
0001
,
0011
0000
0000
0110
0000
0000
1100
0000
0101
0000
0000
0000
0000
0000
0000
0000
,
1000
0010
0100
0000
0010
0000
0001
0000
0010
0000
1000
0000
0100
0000
0010
0000
,
0001
0010
0100
0000
0010
0000
1000
0000
0010
0000
0001
0000
0110
0000
1000
0000
,
0010
1000
0001
0000
0100
0000
0010
0000
1000
0000
0001
0000
0010
0000
0100
0000
,
1000
0100
0010
0000
0001
0000
1000
0000
0100
0000
0010
0000
0110
0000
0000
0000
,
1000
0010
1000
0000
1010
0000
0000
0000
0001
0010
0001
0000
0011
0000
0000
0000
,
0110
0000
0000
1001
0000
0000
0110
0000
1001
0000
0000
0000
0000
0000
0000
0000
,
1000
0000
0010
0000
0100
0010
0100
0000
0001
0000
0010
0100
0010
0100
0010
0000
,
0100
0000
1000
0000
0001
0100
0010
1000
0001
0000
0100
0000
0010
0000
1000
0000
,
2002
0000
0000
0000
,
0000
0000
0000
0000
,
0000
0000
0000
0000
,
0000
0000
0000
0000
,
0000
0000
3003
0000
,
0000
0000
0000
0000
;
#NOTES:
     dance-double:
     :
     Easy:
     9:
     :
00000000
00000000
00000000
00000000
,
00000000
00000000
00000000
00000000
,
00000000
00000000
00000000
00000000
,
00000000
00000000
00000000
00000000
,
00000000
00000000
00000000
00000000
,
00001000
00010000
00001000
00010000
,
00000100
00000010
00000001
00000100
,
00001000
00010000
00001000
00010000
,
00100000
10000000
01000000
00010000
,
00001000
00000100
00000001
00001001
,
00000100
00001000
00010000
00011000
,
00010000
00100000
10000000
10010000
,
00100000
01000000
00010000
10000000
,
00110000
00011000
00000100
00001000
,
00000010
00000100
00000001
00000100
,
00001001
00000010
00000110
00001000
,
00010000
00000000
00001000
00000000
00010000
01000000
10000000
00000000
,
10000000
00100000
01000000
00010000
,
10000000
01000000
00010000
00001000
,
00000100
00000001
00000010
00000001
,
00000100
00001000
00020000
00030000
,
00001000
00010000
00100000
10000000
,
01000000
00010000
00001000
00000100
,
00000001
00000010
00000100
00001000
,
00000200
00000000
00000000
00000300
,
00001000
00000001
00000100
00000001
,
00000010
00000000
00001000
00000000
00010000
00001000
00010000
00000000
,
00100000
10000000
01000000
10000000
,
00100000
00000000
00010000
00000000
00001000
00010000
00001000
00000000
,
01000000
00001000
00010000
00000100
,
00001000
00000000
00000010
00000000
00000100
00000010
00000100
00000000
,
00011000
00001000
00011000
00010000
,
00000200
00000000
00001300
00011000
,
01000000
00100000
01000000
00000000
10000000
01000000
10000000
00000000
,
00100000
10000000
01000000
00010000
,
00001000
00010000
00001000
00000000
00000100
00000010
00000100
00000000
,
00000001
00000100
00000001
00000000
00000010
00000000
00000110
00000000
,
00001001
00000100
00011000
00010000
,
00002000
00000000
01003000
01100000
,
00010000
00000000
10000000
00000000
01000000
00000000
00010000
00001000
,
00000000
00001000
00010000
00000000
00001000
00000100
00000001
00000000
,
00001001
00000000
00001001
00000000
,
00001100
00000000
00011000
00000000
,
00110000
00000000
01100000
00000000
,
01100000
00000000
02200000
03300000
,
00100000
10000000
01000000
00010000
,
00001000
00000010
00000001
00000100
,
00001000
00010000
00001000
00010000
00001000
00010000
00001000
00000000
,
02000000
00000000
00000000
03000000
,
00200000
00000000
00000000
00300000
,
00020000
00000000
00000000
00030000
,
00002000
00000000
00000000
00003000
,
00000200
00000000
00000000
00000300
,
00000020
00000000
00001000
00000030
,
00002000
00000000
00000001
00003000
,
00000020
00000000
00001000
00000030
,
00010000
00000000
00011000
00000000
00000000
00011000
00000000
00001000
,
01000000
00000000
00100000
00000000
00000000
10000000
00000000
01000000
,
00000000
00000000
00100000
00000000
00000000
00010000
00000000
01000000
,
00000000
00000000
00100000
00000000
00000000
00010000
00000000
00001000
,
00000000
00000000
00010000
00000000
00000000
00001000
00001000
00000000
,
00011000
00000000
00011000
00000000
00000000
00000100
00000000
00000010
,
00000000
00000000
00001000
00000000
00000000
00000001
00000000
00000100
,
00000000
00000000
00000010
00000000
00000000
00000100
00000000
00000001
,
00000000
00000000
00000100
00000000
00000000
00001000
00000000
00010000
,
00001000
00010000
00001000
00010000
,
01000000
10000000
01000000
10000000
,
00100000
10000000
01000000
00010000
,
00001000
00000100
00000020
00000030
,
00010000
00001100
00000001
00001100
,
00010000
00001100
00000001
00001100
,
00010000
00001000
00100000
00010000
01000000
00010000
10000000
00000000
,
02000000
00000000
00000000
03000000
,
10000000
00000000
01000000
00000000
00100000
00010000
00100000
00000000
,
00010000
00000000
01000000
00000000
00010000
01000000
00010000
00000000
,
10000000
00000000
01000000
00000000
00010000
00001000
00010000
00000000
,
00001000
00000000
00010000
00000000
00001000
00010000
00001000
00000000
,
00010000
00000000
00000100
00000000
00001000
00000010
00001000
00000000
,
00000001
00000000
00000100
00000000
00000010
00001000
00000010
00000000
,
00001000
00000000
00000100
00000000
00010000
00001000
00010000
00000000
,
00002000
00000000
00103000
00101000
,
00010000
10000000
00100000
10000000
,
01000000
00010000
00001000
00011000
,
00010000
00010000
00001000
00001000
,
00000100
00000010
00001000
00001001
,
00000001
00000100
00000010
00000000
00000100
00000010
00010000
00000000
,
00002000
00000000
01003000
00000000
,
00100000
10000000
01000000
00100000
,
00001000
00010000
00001000
00000000
00010000
00001000
00010000
00000000
,
00022000
00000000
00000000
00000000
,
00000000
00000000
00000000
00000000
,
00000000
00000000
00000000
00000000
,
00000000
00000000
00000000
00000000
,
00000000
00000000
00033000
00000000
,
00000000
00000000
00000000
00000000
;
#NOTES:
     dance-double:
     :
     Medium:
     13:
     :
00000000
00000000
00000000
00000000
,
00000000
00000000
00000000
00000000
,
00000000
00000000
00000000
00000000
,
00000000
00000000
00000000
00000000
,
00000000
00000000
00000000
00000000
,
10010000
00000000
01100000
00000000
00100000
10000000
00100000
10000000
,
00000000
10000000
01000000
00000000
00010000
00001000
00010000
00000000
,
00001000
00000000
00000100
00000000
00000110
00000000
00000001
00000001
,
00000000
00000100
00000100
00001000
00010000
01000000
00000000
00100000
,
00100000
00000000
01100000
00000000
00010000
01000000
00010000
01000000
,
00000000
01000000
00100000
00000000
00010000
00001000
00010000
00000000
,
00001000
00000000
00000010
00000000
00000100
00000001
00000100
00000001
,
00000010
00000100
00000000
00000010
00000001
00000100
00001000
00000000
,
00011000
00000000
01010000
00000000
10000000
00010000
10000000
00010000
,
00000000
01000000
00100000
00000000
10000000
01000000
00010000
00001000
,
00011000
00000000
01000000
00000000
00011000
00000000
00000100
00000100
,
00000000
00001000
00000100
00000001
00000100
00001000
00000010
00000000
,
00010000
00001000
00010000
00000000
00100000
00010000
00100000
00000000
,
00010000
01000000
00010000
00000000
00100000
10000000
00100000
00000000
,
10000000
00010000
01000000
00000000
00100000
10000000
01000000
00000000
,
00010000
00001000
00010000
00000100
00002000
00000000
00003000
00000000
,
00001001
00000010
00001001
00000100
,
00001100
00010000
00011000
00001000
,
00010000
00001000
01000000
00010000
00100000
00010000
10000000
01000000
,
00200000
00000000
00000000
01300000
,
10000000
00100000
01000000
00000000
00010000
01000000
00001000
00000000
,
00100000
00001000
00010000
00000000
00001000
00010000
00011000
00000000
,
00000100
00010000
00001000
00000000
00010000
00000010
00001000
00000000
,
00000100
00001000
00000001
00000000
00000100
00000001
00000101
00000000
,
00001000
00000010
00001000
00000000
00000100
00001000
00000100
00000000
,
00010000
00001000
00010000
00000000
00001000
00010000
00011000
00000000
,
01010000
00100000
01100000
10000000
,
01000000
00000000
00000000
01000000
00000000
00000000
01000000
00000000
00100000
00000000
00000000
00000000
01100000
00000000
00000000
00000000
,
10000000
00000000
10000000
01000000
00000000
01000000
00010000
00000000
00010000
00001000
00000000
00010000
,
00001000
00000000
00001000
00000100
00000000
00000100
00000001
00000000
00000001
00000010
00000000
00000000
,
00000001
00000100
00000010
00001000
00000100
00010000
00001000
01000000
,
00010000
10000000
00100000
01000000
00010000
01000000
01100000
00000000
,
10010000
01000000
01010000
00001000
,
00010000
00000000
00000000
00010000
00000000
00000000
00010000
00000000
00001000
00000000
00000000
00000000
00011000
00000000
00000000
00000000
,
00000100
00000000
00000010
00000000
00000001
00000000
00001000
00001000
,
00000000
00000100
00001000
00000100
00010000
00000000
00011000
00000000
,
00110000
00100000
10100000
10000000
,
11000000
01000000
01010000
00010000
,
00011000
00001000
00001100
00000100
,
00000110
00001001
00000220
00000330
,
00000010
00000100
00000001
00000100
00001000
00010000
01000000
10000000
,
00100000
00000000
10000000
01000000
00000000
00100000
00010000
00000000
01000000
00001000
00000000
00010000
,
00000100
00001000
00000100
00000010
00000001
00000100
00001000
00010000
,
00002000
00000000
00000000
00000000
,
00023000
00000000
00000000
00000000
,
00230000
00000000
00000000
00000000
,
20300000
00000000
00000000
00000000
,
32000000
00000000
00000000
00000000
,
03020000
00000000
00000000
00001000
00000000
00000000
00001000
00000000
,
00030200
00000000
00000000
00001000
00000000
00000000
00001000
00000000
,
00002300
00000000
00000000
00000010
00000000
00000000
00000010
00000000
,
00003001
00000000
00001001
00000000
00000000
00000110
00000000
00000100
,
00000100
00000000
00000001
00000000
00000000
00000100
00000000
00001000
,
00010000
00000000
01000000
00000000
00000000
00100000
00000000
00010000
,
10000000
00000000
00100000
00000000
00000000
10000000
00000000
00010000
,
01000000
00000000
00100000
00000000
00010000
00001000
00001000
00000000
,
00011000
00000000
00001100
00000000
00000000
00000010
00000000
00001000
,
00000001
00000000
00000100
00000000
00000000
00000001
00000000
00000010
,
00000100
00000000
00001000
00000000
00000000
00000100
00000000
00010000
,
00001000
00010000
01000000
00100000
,
00010000
10000000
01000000
10000000
00100000
10000000
01000000
00000000
,
00010000
00001000
00000100
00000010
00000100
00000000
00000001
00000000
,
00000010
00000001
00001000
00000100
00010000
00001000
01000000
00010000
,
10000000
01000000
00100000
01000000
10000000
01000000
00010000
00000000
,
00001000
00001000
00010000
00001000
00010000
00010000
00000100
00010000
,
00000100
00000100
00001000
00000100
00001000
00001000
00000010
00000100
,
00000001
00000100
00001000
00010000
00000100
00010000
00001000
00100000
,
00020000
00000000
00000000
00030000
,
10000000
00000000
00100000
01000000
00010000
01000000
00000000
00100000
,
10000000
00000000
10000000
01000000
00000000
10000000
01000000
00010000
,
00001000
00000000
00000100
00000001
00001000
00000001
00000000
00000010
,
00000001
00000000
00000001
00000100
00000000
00000001
00000100
00001000
,
00010000
00000000
00001000
00100000
00010000
01000000
00000000
00010000
,
01000000
00000000
00100000
10000000
00000000
01000000
10000000
01000000
,
10000000
01000000
00100000
00000000
00100000
00010000
01000000
00001000
,
00010000
00000000
00000000
00010000
00000000
00000000
00010000
00000000
00011000
00000000
00000000
00000000
00010000
00000000
00000000
00000000
,
00001000
00010000
00000100
00001000
00000000
00000010
00001000
00000010
,
00000000
00001000
00000001
00000000
00000100
00000001
00000101
00000000
,
00000100
00000001
00000010
00000001
00000000
00000100
00000001
00000100
,
00000000
00000001
00000100
00000000
00001000
00010000
00001000
00000000
,
00100000
00011000
00000010
00011000
,
00001000
00000000
00000000
00001000
00000000
00000000
00001000
00000000
00011000
00000000
00000000
00000000
00000000
00000000
00000000
00000000
,
00010000
00001000
00100000
00010000
01000000
00100000
10000000
01000000
,
00010000
00001000
00010000
00000100
00001000
00000010
00000000
00000100
,
00000220
00000000
00000000
00000000
,
00000000
00000000
00000000
00000000
,
00000000
00000000
00000000
00000000
,
00000000
00000000
00000000
00000000
,
00000000
00000000
00000330
00000000
,
00000000
00000000
00000000
00000000
;
#NOTES:
     dance-double:
     :
     Hard:
     16:
     :
00000000
00000000
00000000
00000000
,
00000000
00000000
00000000
00000000
,
00000000
00000000
00000000
00000000
,
00000000
00000000
00000000
00000000
,
00000000
00000000
00000000
00000000
,
01100000
00000000
10010000
00000000
00010000
00100000
00010000
00001000
,
00000000
00000100
00000010
00000000
00001000
00000010
00000001
00000000
,
00000100
00000000
00000010
00000000
00000110
00000000
00000010
00000100
,
00000000
00000001
00000100
00000010
00001000
00001100
00000000
00011000
,
00101000
00000000
00000000
00000000
01010000
00000000
00000000
00000000
00100000
01000000
00100000
00000000
10000000
00000000
01000000
00000000
,
00000000
00000000
00100000
00000000
00001000
00000000
00000000
00000000
00010000
00001000
00010000
00000000
00000100
00000000
00000010
00000000
,
00000001
00000000
00000000
00000000
00001000
00000000
00000000
00000000
00000010
00000100
00000010
00000000
00001000
00000000
00000100
00000000
,
00010000
00001000
00000000
00100000
00001000
00011000
00110000
00000000
,
01100000
00000000
00000000
00000000
10010000
00000000
00000000
00000000
00100000
00001000
00010000
00000000
00001000
00000000
00000100
00000000
,
00000000
00000000
00000010
00000000
00001000
00000000
00000000
00000000
00000100
00000010
00000100
00000000
00001000
00000000
00000001
00000000
,
00000110
00000000
00000000
00000000
00000011
00000000
00000000
00000000
00001100
00000000
00000000
00000000
00000001
00001000
00000001
00001000
,
00000001
00000000
00000100
00000000
00000001
00000010
00000100
00000000
00001000
00000000
00000100
00000000
00000000
00000000
00010000
00000000
,
00001000
00010000
00001000
00100000
00001000
01000000
00001000
00010000
,
00000100
00010000
00001000
00010000
00000010
00010000
00001000
00010000
,
00001000
01000000
00001000
00100000
00001000
00010000
00001000
00100000
,
00001000
00010000
00001000
00010000
00022000
00000000
00033000
00000000
,
00001000
00010000
00000100
00000000
00001000
00000100
00000010
00000000
00000001
00000100
00000010
00000000
00000100
00000010
00001000
00000000
,
00000100
00010000
00001000
00000000
00010000
00001000
00100000
00000000
00010000
01000000
00100000
00000000
01000000
00100000
10000000
00000000
,
01000000
10000000
01000000
10000000
01000000
00100000
01000000
00100000
00010000
00100000
00010000
00100000
00001000
00010000
00001000
00010000
,
00000200
00000000
00000000
00001300
,
00000001
00000010
00001000
00000010
00000001
00000100
00000010
00001000
,
00000100
00000000
00010000
00000000
00001000
00000000
01000000
00000000
00010000
00100000
00010000
00000000
10010000
00000000
00000000
00000000
,
10000000
00100000
00010000
00100000
10000000
01000000
00100000
00001000
,
00010000
00001000
00010000
00000000
00001000
00000000
00000100
00000000
00000010
00000100
00000010
00000000
00000110
00000000
00000000
00000000
,
00000100
00000001
00000010
00001000
00010000
01000000
10000000
00100000
,
01000000
00100000
01000000
00000000
00100000
10000000
00100000
00000000
01000000
00010000
01000000
00000000
10010000
00000000
00000000
00000000
,
00110000
01000000
10000000
00000000
10100000
01000000
00010000
00000000
,
00011000
00000000
00000000
01010000
00000000
00000000
00011000
00000000
00001100
00000000
00000000
00000000
00000000
00000000
00000000
00000000
,
00001000
00000010
00000100
00000010
00001000
00000100
00010000
00001000
00100000
00010000
10000000
00100000
,
01000000
00010000
10000000
01000000
00100000
00001000
00010000
00001000
00010000
00011000
00000000
00000000
,
00001000
00010000
00001000
00000100
00000010
00001000
00000001
00000100
,
00000001
00001000
00000100
00000000
00010000
00000100
00001000
00000000
00000100
00010000
00001000
00000000
00011000
00000000
00000000
00000000
,
00110000
01000000
00011000
00000100
,
00000110
00000000
00000000
00000011
00000000
00000000
00000110
00000000
00001100
00000000
00000000
00000000
00011000
00000000
00000000
00000000
,
00001000
00000000
00100000
00000000
00010000
00100000
01000000
00000000
10000000
00000000
00100000
00000000
01000000
00000000
01000000
00000000
,
00010000
00000000
00100000
00000000
01000000
10000000
00100000
00000000
01000000
00000000
00000000
00000000
10010000
00000000
00000000
00000000
,
10100000
10000000
00100000
00000000
01010000
00010000
00100000
00000000
,
00011000
00010000
00000100
00000000
00001100
00000100
00000010
00000000
,
00000101
00000010
00001000
00000000
00001100
00010000
00001000
00000000
,
00010000
00001000
00010000
00001000
00100000
00010000
00100000
00020000
00200000
00000000
00000000
00000000
00330000
00000000
00000000
00000000
,
10000000
00100000
10000000
00000000
00010000
01000000
00010000
00000000
00100000
00001000
00100000
00000000
00001000
00010000
00000100
00000000
,
00001000
00000100
00000010
00000001
00000100
00000010
00010000
00001000
01000000
00010000
10000000
00100000
,
01000000
00100000
10000000
00000000
01000000
00100000
00010000
00000000
00100000
00001000
00010000
00000000
00001000
00010000
00001000
00010000
,
00002000
00000000
00000000
00000000
,
00003020
00000000
00000000
00000000
,
00000032
00000000
00000000
00000000
,
00000203
00000000
00000000
00000000
,
00002300
00000000
00000000
00000000
,
00023000
00000000
00000000
00100000
00000000
00000000
00100000
00000000
,
00230000
00000000
00000000
10000000
00000000
00000000
10000000
00000000
,
20300000
00000000
00000000
00100000
00000000
00000000
00100000
00000000
,
31000000
00000000
01010000
00000000
00000000
00011000
00000000
00000010
,
00000010
00000000
00001000
00000010
00000100
00000010
00000001
00000000
,
00000011
00000000
00000010
00001000
00000100
00000010
00000001
00000100
,
00001000
00000000
00010000
00001000
00010000
01000000
10000000
00000000
,
01100000
00000000
10000000
00010000
00100000
00101000
00101000
00000000
,
00011000
00000000
00001100
00000000
00000010
00001000
00000100
00000010
,
00000001
00000000
00000001
00000100
00001000
00010000
01000000
10000000
,
00010000
00000000
00100000
00001000
00010000
00001000
01000000
00100000
,
10000000
00000000
00010000
01000000
00100000
10000000
00010000
00000000
,
00100000
01000000
00100000
00000000
00010000
00000000
01000000
00000000
00100000
10000000
00100000
00000000
01000000
00000000
00010000
00000000
,
10000000
01000000
10000000
00000000
00100000
00000000
00010000
00000000
00001000
00010000
00001000
00000000
00010000
00000000
00000100
00000000
,
00000010
00000001
00001000
00000000
00000100
00000000
00010000
00000000
00000100
00010000
00001000
00000000
00100000
00000000
00001000
00000000
,
01000000
00010000
10000000
00000000
00100000
00000000
01000000
00000000
00010000
10000000
00010000
00000000
10010000
00000000
00000000
00000000
,
00100000
10000000
00100000
00000000
01000000
00010000
01000000
00000000
00001000
00100000
00001000
00000000
00010000
00001000
00010000
00000000
,
00000100
00001000
00000100
00000000
00000010
00000100
00000010
00000000
00000001
00000100
00000001
00000000
00000010
00000100
00000010
00000000
,
00000001
00000000
00001000
00000000
00000001
00000000
00000100
00000000
00000010
00001000
00000010
00001000
00000100
00010000
00001000
00010000
,
00001000
00010000
02020000
03030000
,
01000000
00100000
01000000
00000000
00001000
00000000
00010000
00000000
00001000
00000000
00000100
00000000
00000010
00000000
00001000
00000000
,
00000001
00000010
00000100
00000000
00000010
00000000
00000001
00000000
00000100
00000000
00000010
00000000
00000110
00000000
00001000
00000000
,
00000100
00010000
00001000
00000000
00010000
00000000
01000000
00000000
10000000
00000000
00100000
00000000
00010000
00000000
00100000
00000000
,
10000000
01000000
10000000
00000000
00100000
00000000
01000000
00000000
00010000
00000000
00100000
00000000
00011000
00000000
00000000
00000000
,
00001000
00010000
00001000
00000000
00000100
00000000
00000010
00000000
00001000
00000000
00000100
00000000
00000010
00000000
00000001
00000000
,
00000100
00000010
00000100
00000000
00000010
00000000
00001000
00000000
00000100
00000000
00010000
00000000
00010100
00000000
00000000
00000000
,
00001100
00001000
00000100
00010000
00011000
00001000
00100000
00010000
,
01010000
00000000
00000000
01100000
00000000
00000000
10100000
00000000
00110000
00000000
00000000
00000000
00000000
00000000
00000000
00000000
,
10000000
00100000
01000000
00000000
10000000
00000000
01000000
00000000
00010000
00000000
00100000
00000000
00001000
00000000
00010000
00000000
,
00001000
00000100
00000010
00000000
00001000
00000000
00000001
00000000
00000010
00000000
00000100
00000000
00001100
00000000
00001000
00000000
,
00000100
00010000
00001000
00000000
00100000
00000000
00010000
00000000
00100000
00000000
10000000
00000000
00010000
00000000
01000000
00000000
,
10000000
01000000
00100000
00000000
00010000
00000000
10000000
00000000
00100000
00000000
01000000
00000000
01010000
00000000
00000000
00000000
,
00010000
00100000
00010000
00000000
00101000
00000000
00000000
00000000
00010000
00001000
00010000
00000000
00010100
00000000
00000000
00000000
,
00011000
00000000
00000000
00001100
00000000
00000000
00000110
00000000
00001001
00000000
00000000
00000000
00000000
00000000
00000000
00000000
,
00000001
00000000
00000100
00000000
00000010
00000100
00000010
00000000
00001000
00000000
00000100
00010000
00000100
00010000
00000100
00000000
,
00010000
00000000
00001000
00000000
01000000
00010000
01000000
00100000
10000000
00000000
00010000
00000000
00100000
00000000
01000000
00000000
,
02200000
00000000
00000000
00000000
,
00000000
00000000
00000000
00000000
,
00000000
00000000
00000000
00000000
,
00000000
00000000
00000000
00000000
,
00000000
00000000
03300000
00000000
,
00000000
00000000
00000000
00000000
;
#NOTES:
     dance-double:
     :
     Challenge:
     18:
     :
00000000
00000000
00000000
00000000
,
00000000
00000000
00000000
00000000
,
00000000
00000000
00000000
00000000
,
00000000
00000000
00000000
00000000
,
00000000
00000000
00000000
00000000
00000000
00000101
00001100
00000000
,
00000110
00000000
00011000
00000000
00001000
00100000
00010000
01000000
,
00000000
00000000
01000000
00000000
00100000
00000000
00000000
00000000
01000000
00000000
00100000
00000000
10000000
00000000
01000000
00100000
,
00010000
00000000
00100000
00000000
00101000
00000000
00000000
00000000
00011000
00000000
00000000
00000000
00000100
00001000
00000001
00000010
,
00000100
00000000
00001000
00000010
00000100
00000001
00001000
00000000
00000010
00000000
00010000
00000000
00000000
00000000
00010010
00000000
,
00011000
00000000
00000000
00000000
01001000
00000000
00000000
00000000
00010000
01000000
00100000
00000000
10000000
00000000
01000000
00000000
,
00000000
00100000
01000000
00000000
10000000
00100000
01000000
00000000
,
00001000
00010000
00001000
00000000
00010000
00000100
00010000
00000000
00000100
00000000
00000010
00000000
00000100
00001000
00000200
00000000
,
00000000
00000310
00000001
00001000
00000001
00000110
00001001
00000000
,
00000011
00000000
00000000
00000000
00000101
00000000
00000000
00000000
00000001
00000100
00000001
00000000
00000010
00001000
00000010
00000000
,
00000001
00000100
00001000
00000000
00001000
00010000
00100000
01000000
,
01100000
00000000
00000000
00000000
11000000
00000000
00000000
00000000
01010000
00000000
00000000
00000000
00100000
10000000
01000000
00100000
,
00010000
01000000
01100000
00000000
00011000
00012000
00000000
00013000
,
00000100
00001000
00000100
00000000
00000010
00000001
00000010
00000000
00000001
00000100
00000001
00000000
00001000
00000010
00001000
00000000
,
00000010
00010000
00001000
00000000
00100000
00001000
00010000
00000000
01000000
10000000
00010000
00000000
01000000
00100000
10000000
00000000
,
00100000
01000000
00001000
00000000
00010000
00000100
00001000
00000000
00000100
00000010
00000001
00000000
00000100
00000001
00000010
00000000
,
00000001
00000100
00000001
00001000
00000100
00010000
00001000
00100000
00020000
00000000
00000000
00000000
00000000
00000000
00000000
00000000
,
10030000
00100000
10000000
00100000
01000000
00010000
01000000
00010000
00100000
00001000
00100000
00001000
00010000
00000100
00010000
00000100
,
00001000
00000010
00001000
00000010
00000100
00000001
00000100
00000001
00000010
00000100
00000010
00000100
00001000
00000010
00001000
00000010
,
00001000
00000100
00010000
00001000
00100000
00010000
01000000
00100000
10000000
00100000
01000000
00010000
00100000
00001000
00010000
00001000
,
00020000
00000000
00000000
00031000
,
00001000
00000010
00001000
00000000
00000010
00000000
00000001
00000000
00000100
00000010
00000100
00000000
00000001
00000000
00000100
00000000
,
00001000
00000000
00010000
00000000
01000000
00000000
10000000
00000000
00010000
01000000
00010000
00000000
10010000
00000000
00000000
00000000
,
10000000
00100000
10000000
00100000
01000000
00000000
00010000
00000000
00100000
01000000
00100000
01000000
00010000
00000000
00001000
00000000
,
00000010
00000100
00001000
00000001
00000100
00000000
00000010
00000000
00000100
00000000
00000100
00000000
00001001
00000000
00000000
00000000
,
00000001
00000010
00000100
00000000
00001000
00000010
00000100
00000000
00001000
00010000
00001000
00000000
01000000
00010000
00100000
00000000
,
01000000
10000000
00010000
00000000
01000000
00100000
00010000
00000000
00001000
00010000
00001000
00000000
00011000
00000000
00000000
00000000
,
00001010
00000010
00000001
00001000
00001100
00000100
00000001
00000010
,
00000110
00000000
00000000
00001010
00000000
00000000
00011000
00000000
01010000
00000000
00000000
00000000
01100000
00000000
00000000
00000000
,
10000000
10000000
01000000
01000000
00100000
00100000
00001000
00001000
00010000
00010000
00000100
00000100
,
00001000
00001000
00001000
00000001
00000001
00000001
00001000
00001000
00001000
00000110
00000000
00000000
,
00001000
00000010
00000100
00000000
00000001
00000100
00001000
00000000
00010000
00000100
00001000
00000000
00000100
00010000
00001000
00000000
,
01000000
00010000
00100000
00000000
01000000
10000000
00010000
00000000
01000000
00000000
01000000
00000000
10010000
00000000
00000000
00000000
,
10100000
10000000
10000000
00000000
01010000
00010000
00010000
00000000
,
01001000
00000000
00000000
00011000
00000000
00000000
00010100
00000000
00001100
00000000
00000000
00000000
00001001
00000000
00000000
00000000
,
00000010
00000000
00000100
00000000
00000001
00000010
00000001
00000010
00000100
00000000
00001000
00000000
00000010
00000100
00000010
00000100
,
00000010
00010000
00001000
00001000
00001000
00000000
00011000
00000000
,
00010000
00100000
10000000
00000000
00100000
10000000
00100000
00000000
10000000
01000000
10000000
00000000
01000000
00100000
01000000
00000000
,
00010000
00001000
00000010
00000000
00000001
00000010
00000001
00000000
00000100
00000010
00000100
00000000
00000010
00001000
00000010
00000000
,
00000100
00001000
00010000
00000000
00100000
01000000
00010000
00000000
00100000
01000000
10000000
00000000
01000000
00010000
00001000
00000000
,
00000010
00000001
00000100
00000000
00000010
00001000
00000100
00000000
00000220
00000000
00000000
00000000
00000330
00000000
00000000
00000000
,
00000001
00000100
00000001
00000100
00000010
00001000
00000010
00001000
00000100
00010000
00000100
00010000
00001000
00010000
00001000
00010000
,
00001000
00001000
01000000
01000000
00010000
00010000
10000000
10000000
00100000
00100000
01000000
01000000
,
00010000
10000000
01000000
00100000
00010000
01000000
00001000
00010000
00000010
00001000
00000001
00000010
00000100
00001000
00000010
00000100
,
00000002
00000000
00000000
00001003
,
00000000
00000000
00000010
00000010
00000010
00000010
00000000
00001010
,
00000000
00000000
00010000
00010000
00010000
00010000
00000000
00011000
,
00000000
00000000
01000000
01000000
01000000
01000000
00000000
11000000
,
00000000
00000000
00100000
00100000
00100000
00100000
00000000
00011000
,
00000000
00000000
00000010
00001000
00000010
00001000
00000000
00000101
,
00000000
00000000
00001000
00000100
00001000
00000100
00000000
00011000
,
00000000
00000000
01000000
00010000
01000000
00010000
00000000
10100000
,
00000000
00000000
01010000
00000000
00000000
00011000
00000000
00001100
,
00000011
00000000
00001000
00000010
00000001
00000010
00001000
00000000
,
00000110
00000000
00001000
00010000
00100000
00010000
00001000
00000000
,
00011000
00000000
01000000
10000000
00100000
10000000
01000000
00000000
,
10010000
00000000
00100000
00001000
00010000
00011000
00010010
00000000
,
00000110
00000000
00001001
00000000
00000001
00000010
00000100
00001000
,
00010000
00000000
00100000
10000000
00010000
01000000
10000000
00100000
,
00010000
00000000
00001000
00000100
00000010
00000100
00000001
00000010
,
00000100
00000000
00000001
00000100
00000010
00000100
00010000
00000000
,
00002000
00000000
00000000
00000000
,
02003000
00000000
00000000
00000000
,
03200000
00000000
00000000
00000000
,
20300000
00000000
00000000
00000000
,
30100000
01000000
00010000
10000000
01000000
00100000
00001000
00010000
00000100
00001000
00000010
00000100
00000001
00000010
00001000
00000010
,
00000001
00000100
00000010
00001000
00000100
00000010
00001000
00010000
01000000
00100000
00010000
01000000
00100000
10000000
00010000
01000000
,
00100000
10000000
00100000
10000000
01000000
00100000
01000000
00100000
00001000
00010000
00001000
00010000
00000010
00001000
00000001
00000100
,
00000010
00000100
00001001
00000000
,
00000001
00000010
00001000
00000000
00000010
00000000
00000001
00000000
00000100
00000000
00000010
00000000
00001000
00000100
00000001
00000000
,
00000100
00010000
00001000
00100000
01000000
10000000
10010000
00010000
,
01000000
10000000
01000000
00000000
00010000
00000000
00100000
00000000
01000000
00000000
00010000
00000000
01000000
10000000
00100000
00000000
,
00010000
00000000
00001000
00000000
00000100
00000000
00000001
00000000
00001000
00000100
00000001
00000000
00000110
00000000
00000000
00000000
,
00000010
00000001
00000100
00000000
00000010
00000000
00001000
00000000
00000100
00010000
00001000
00000000
00100000
00010000
01000000
00000000
,
00100000
10000000
01000000
00000000
00010000
00000000
01000000
00000000
10000000
00010000
00100000
00000000
01100000
00000000
01000000
00000000
,
00100000
00001000
00010000
00000000
00011000
00000000
00010010
00000000
00001000
00000001
00000010
00000000
00000011
00000000
00001001
00000000
,
00000110
00000000
00000000
00010100
00000000
00000000
00010010
00000000
00011000
00000000
00000000
00000000
01100000
00000000
00000000
00000000
,
00010000
00100000
10000000
00000000
00100000
01000000
00100000
00000000
10000000
00100000
00010000
00000000
00001000
00000000
00000100
00000000
,
00001000
00000100
00000001
00000000
00000100
00000010
00000100
00000000
00000001
00000100
00001000
00000000
00010000
00000000
00100000
00000000
,
00010000
01000000
00100000
00000000
10000000
01000000
00100000
00000000
00001000
00010000
00000010
00000000
00000100
00000001
00000010
00000000
,
00001000
00000010
00000001
00000000
00000010
00001000
00010000
00000000
01000000
10000000
00100000
00000000
00010000
00100000
10000000
00000000
,
10010000
00000000
01100000
00000000
,
00101000
00000000
00000000
00011000
00000000
00000000
00010010
00000000
00000110
00000000
00000000
00000000
00001001
00000000
00000000
00000000
,
00001010
00000000
00000000
00000000
00000100
00000000
00000000
00000000
00000010
00000000
00000000
00000000
00000100
00000001
00001000
00000010
,
00010000
00000000
00001000
00000000
00100000
00010000
10000000
01000000
00100000
00000000
00000000
00000000
00001000
00000000
00010000
00000000
,
00002000
00000000
00000000
00000000
,
00000000
00000000
00000000
00000000
,
00000000
00000000
00000000
00000000
,
00000000
00000000
00000000
00000000
,
00000000
00000000
00003000
00000000
,
00000000
00000000
00000000
00000000
;
