
//----- song ID: ligh -----//
#TITLE:The Light;
#ARTIST:W&W ft. Kizuna AI;
#BANNER:The Light.png;
#BACKGROUND:The Light-bg.png;
#CDTITLE:./CDTitles/DDR A20.png;
#MUSIC:The Light.ogg;
#SAMPLESTART:37.495;
#SAMPLELENGTH:15;
#BPMS:0=160;
#NOTES:
     dance-single:
     :
     Beginner:
     2:
     :
0000
0000
0000
0000
,
0000
0000
0000
0000
,
0000
0000
0000
0000
,
0000
0000
0000
0000
,
0000
0000
0000
0000
,
1000
0000
0000
0000
,
0001
0000
0000
0000
,
1000
0000
0000
0000
,
0001
0000
0000
0000
,
0020
0000
0030
0000
,
0010
0010
0000
0000
,
0020
0000
0030
0000
,
0010
0010
0000
0000
,
0100
0000
0100
0000
,
0200
0000
0300
0000
,
1000
0000
0001
0000
,
2000
0000
3000
0000
,
0001
0000
0000
0000
,
0010
0000
0000
0000
,
1000
0000
0000
0000
,
0100
0000
0000
0000
,
0001
0000
0001
0000
,
1000
0000
1000
0000
,
0001
0000
1000
0000
,
2002
0000
3003
0000
,
0010
0000
0010
0000
,
1000
0000
0000
0000
,
0010
0000
0010
0000
,
0001
0000
0000
0000
,
0100
0000
0100
0000
,
1000
0000
0000
0000
,
0100
0000
0100
0000
,
0001
0000
0000
0000
,
1000
1000
1000
0000
,
0001
0000
1000
0000
,
0001
0001
0001
0000
,
1000
0000
0001
0000
,
0010
0010
0010
0000
,
0100
0000
0010
0000
,
0100
0100
0100
0000
,
0010
0000
0000
0000
,
0002
0000
0003
0000
,
0010
0000
0010
0000
,
2000
0000
3000
0000
,
0010
0000
0010
0000
,
0002
0000
0003
0000
,
0100
0000
0100
0000
,
2000
0000
3000
0000
,
0100
0000
0000
0000
,
0001
0000
0000
0000
,
0010
0000
0000
0000
,
0100
0000
0000
0000
,
1000
0000
0000
0000
,
1000
0000
0000
0000
,
0010
0000
0000
0000
,
0100
0000
0000
0000
,
0001
0000
0000
0000
,
2000
0000
3000
0000
,
0002
0000
0003
0000
,
2000
0000
3000
0000
,
0002
0000
0003
0000
,
0020
0000
0030
0000
,
0200
0000
0300
0000
,
0020
0000
0030
0000
,
0200
0000
0300
0000
,
1001
0000
0000
0000
,
0000
0000
0000
0000
;
#NOTES:
     dance-single:
     :
     Easy:
     5:
     :
0000
0000
0000
0000
,
0000
0000
0000
0000
,
0000
0000
0000
0000
,
0000
0000
0000
0000
,
0000
0000
0000
0000
,
0020
0000
0030
0000
,
2000
0000
3000
0000
,
0200
0000
0300
0000
,
0002
0000
0003
0000
,
2000
0000
3000
0000
,
0010
0010
0000
0000
,
0002
0000
0003
0000
,
0010
0010
0000
0000
,
1000
0000
0001
0000
,
2000
0000
3000
0000
,
0001
0000
1000
0000
,
0002
0000
0003
0000
,
1000
1000
1000
0000
,
0010
0010
0010
0000
,
0001
0001
0001
0000
,
0100
0100
0100
0000
,
1000
0000
0010
0000
,
0001
0000
0100
0000
,
1000
0000
0010
0000
,
0001
0001
0001
0000
,
1000
1000
0010
0000
,
1000
0100
1000
0100
,
0001
0001
0010
0000
,
0001
0100
0001
0100
,
0010
0010
0100
0000
,
0001
1000
0001
1000
,
0100
0100
0010
0000
,
0100
0000
1001
0000
,
0001
0010
0001
0010
,
0001
0100
0010
0000
,
1000
0010
1000
0010
,
1000
0100
0010
0000
,
0001
0100
0001
0100
,
0001
0010
0100
0000
,
1000
0100
1000
0100
,
1000
0010
0100
0000
,
0010
0010
0010
0000
,
0002
0000
0000
0003
,
2000
3000
0002
0003
,
2000
0000
0000
3000
,
0010
0010
0010
0000
,
2000
0000
0000
3000
,
0002
0003
2000
3000
,
0002
0000
0000
0003
,
0100
0100
0010
0000
,
1000
0000
0001
0000
,
0010
0010
0100
0000
,
1000
0000
0010
0000
,
0010
0010
0100
0000
,
0001
0000
1000
0000
,
0100
0100
0010
0000
,
0001
0000
0100
0000
,
0020
0000
0030
0000
,
2000
0000
3000
0000
,
0200
0000
0300
0000
,
0002
0000
0003
0000
,
0020
0000
0030
0000
,
0002
0000
0003
0000
,
0200
0000
0300
0000
,
2000
0000
3000
0000
,
1001
0000
0000
0000
,
0000
0000
0000
0000
;
#NOTES:
     dance-single:
     :
     Medium:
     9:
     :
0000
0000
0000
0000
,
0000
0000
0000
0000
,
0000
0000
0000
0000
,
0000
0000
0000
0000
,
0000
0000
0000
0000
,
0010
0000
0000
1000
0000
0000
0100
0000
,
0000
0010
0000
0000
0001
0000
0001
0000
,
0100
0000
0000
0010
0000
0000
1000
0000
,
0000
0100
0000
0000
0010
0000
0010
0000
,
0001
0000
1000
0001
0000
0001
0000
0000
,
0100
0200
0000
0300
,
0010
0000
1000
0010
0000
0010
0000
0000
,
0100
0200
0000
0300
,
0010
0000
1000
0001
0000
0010
0000
2200
,
0000
0000
0000
3300
,
0001
0010
0000
0010
0000
1000
0000
0110
,
0000
1001
0000
0110
0000
1001
0000
0000
,
0001
0000
1000
0000
0100
0010
0001
0000
,
2000
0010
0010
0010
,
3002
0010
2003
0010
,
3002
0010
0010
0013
,
1000
1000
0010
0010
,
0001
0001
0100
0100
,
1000
0100
0010
0000
0001
0100
0010
0000
,
1000
1000
1000
0110
,
0001
0000
0001
0000
0010
0001
0100
0010
,
1000
0000
1000
0000
0001
0100
0001
1000
,
0001
0000
0001
0000
1000
0100
0010
0001
,
0100
0000
0100
0000
0010
1000
0100
0000
,
1000
0000
1000
0000
0001
1000
0100
1000
,
0001
0000
0001
0000
0010
0100
1000
0010
,
0100
0000
0100
0000
0001
1000
0001
0010
,
0000
0110
0000
1000
0001
1000
0001
0000
,
1000
0000
1000
0000
0010
1000
0100
0010
,
0001
0000
0001
0000
1000
0100
1000
0001
,
1000
0000
1000
0000
0001
0100
0010
1000
,
0100
0000
0100
0000
0010
0001
0100
0000
,
0001
0000
0001
0000
1000
0001
0100
0001
,
1000
0000
1000
0000
0010
0100
0001
0010
,
0100
0000
0100
0000
1000
0001
1000
0010
,
0000
0110
0000
0001
1000
0001
1000
0000
,
0001
0000
1000
0000
0100
0010
0001
0000
,
2000
0010
0010
0010
,
3002
0010
2003
0010
,
3002
0010
0010
0013
,
1000
0000
0001
0000
0010
0100
1000
0000
,
0002
0100
0100
0100
,
2003
0000
0100
0000
3002
0000
0103
0001
,
0000
0001
0000
0001
0100
0010
1000
0000
,
0100
1000
0110
0000
,
0001
0000
1100
0000
,
0010
0001
0110
0000
,
0001
0000
0000
1000
0000
0000
0001
0000
0010
0000
0000
0000
0000
0000
0000
0000
,
0100
0001
0110
0000
,
1000
0000
0101
0000
,
0010
1000
0110
0000
,
1000
0000
0000
0001
0000
0000
1000
0000
0010
0000
0000
0000
0000
0000
0000
0000
,
0100
0000
0000
1000
0000
0000
0010
0000
,
0000
0100
0000
0000
0001
0000
0001
0000
,
0010
0000
0000
0100
0000
0000
1000
0000
,
0000
0010
0000
0000
0100
0000
0100
0000
,
0010
0000
0000
1000
0000
0000
0100
0000
,
0000
0010
0000
0000
0001
0000
0001
0000
,
0100
0000
0000
0010
0000
0000
1000
0000
,
0000
0100
0000
0000
0010
0000
0100
0000
,
1001
0000
0000
0000
,
0000
0000
0000
0000
;
#NOTES:
     dance-single:
     :
     Hard:
     13:
     :
0000
0000
0000
0000
,
0000
0000
0000
0000
,
0000
0000
0000
0000
,
0000
0000
0000
0000
,
0000
0000
0000
0000
,
0010
0000
0000
0001
0000
1000
0020
0000
,
0000
0230
0000
0310
1000
0001
1000
0000
,
0100
0000
0000
0001
0000
1000
0200
0000
,
0000
0320
0000
0130
1000
0000
0001
0100
,
0010
0000
1000
0010
0000
0010
0000
1000
,
0100
0000
0200
0000
0000
0000
0300
0100
,
0010
0000
0001
0010
0000
0010
0000
0001
,
0100
0000
0200
0000
0000
0000
0300
0100
,
0010
1000
0001
1000
0000
1100
0000
0202
,
0000
0000
0000
0000
0000
0000
0303
0010
,
1000
0010
0000
0110
0000
1001
0000
0101
,
0000
1100
0000
1010
0000
0011
0000
0000
,
1000
0000
1000
0010
0100
0010
1000
0000
,
0200
0000
0010
0000
0010
0000
0310
0001
,
2000
0010
3002
0010
,
0203
0010
0010
0310
,
0001
0010
0001
0010
0100
1000
0100
1000
,
0001
0100
0001
0100
0010
1000
0010
1000
,
0001
0100
0010
1000
0100
0010
0001
1000
,
0001
0001
0001
0110
,
1000
0000
0000
0000
1000
0000
0001
0010
0001
0000
1000
0000
0001
0000
0100
0000
,
1000
0000
0100
0000
0001
0000
1000
0001
1000
0000
0100
0000
0010
0000
0001
0000
,
1000
0000
0000
0000
1000
0000
0001
0100
0001
0000
1000
0000
0001
0000
0010
0000
,
1000
0000
0010
0000
0001
0000
1000
0001
1000
0000
0010
0000
0100
0000
0000
0000
,
0001
0000
0000
0000
0001
0000
1000
0010
1000
0000
0001
0000
1000
0000
0100
0000
,
0001
0000
0100
0000
1000
0000
0001
1000
0001
0000
0100
0000
0010
0000
1000
0000
,
0001
0000
0000
0000
0001
0000
1000
0100
1000
0000
0001
0000
1000
0000
1010
0000
,
0000
0000
0110
0000
0000
0000
0001
0100
0001
0000
0001
0000
0001
0000
0001
0000
,
1000
0000
0001
0000
1000
0000
0010
0100
0010
0000
1000
0000
0010
0000
0001
0000
,
0010
0000
1000
0000
0001
0000
0010
0001
0010
0000
0100
0000
1000
0000
0010
0000
,
1000
0000
0001
0000
1000
0000
0100
0010
0100
0000
1000
0000
0100
0000
0001
0000
,
0100
0000
1000
0000
0001
0000
0100
0001
0100
0000
0010
0000
1000
0000
0000
0000
,
0001
0000
1000
0000
0001
0000
0010
0100
0010
0000
0001
0000
0010
0000
1000
0000
,
0010
0000
0001
0000
1000
0000
0010
1000
0010
0000
0100
0000
0001
0000
0010
0000
,
0001
0000
1000
0000
0001
0000
0100
0010
0100
0000
0001
0000
0100
0000
0101
0000
,
0000
0000
1100
0000
0000
0000
1000
0100
1000
0000
1000
0000
1000
0000
1000
0000
,
0001
0000
0001
0010
0100
0010
0001
0000
,
0200
0000
0010
0000
0010
0000
0310
1000
,
0002
0010
2003
0010
,
3200
0000
0310
0000
0100
0100
0100
0100
,
1000
0000
1000
0010
0100
0010
1000
0000
,
0200
0000
0010
0000
0010
0000
0310
0001
,
2000
0000
0010
0000
3002
0000
0013
0011
,
0000
0000
1100
0000
0000
0000
0010
0001
1000
0000
0001
0000
1000
0000
0001
0000
,
0100
0001
1001
0000
,
0020
0030
0110
0000
,
0100
1000
1001
0000
,
0010
0000
0000
0010
0000
0000
0010
0000
0110
0000
0000
0000
0000
0000
0000
0000
,
0001
1000
1010
0000
,
0002
0003
1100
0000
,
0010
0100
1001
0000
,
0100
0000
0000
0100
0000
0000
0100
0000
0110
0000
0000
0000
0000
0000
0000
0000
,
0010
0000
0000
1000
0000
0001
0020
0000
,
0000
0230
0000
0310
0001
1000
0001
0000
,
0100
0000
0000
1000
0000
0001
0200
0000
,
0000
0320
0000
0130
0001
0000
1000
0100
,
0010
0000
0000
0001
0000
1000
0020
0000
,
0000
0230
0000
0310
1000
0001
1000
0000
,
0100
0000
0000
0001
0000
1000
0200
0000
,
0000
0320
0000
0130
1000
0000
0001
0100
,
0010
0000
0000
0000
,
0000
0000
0000
0000
;
#NOTES:
     dance-double:
     :
     Easy:
     5:
     :
00000000
00000000
00000000
00000000
,
00000000
00000000
00000000
00000000
,
00000000
00000000
00000000
00000000
,
00000000
00000000
00000000
00000000
,
00000000
00000000
00000000
00000000
,
00002000
00000000
00003000
00000000
,
00020000
00000000
00030000
00000000
,
00002000
00000000
00003000
00000000
,
00020000
00000000
00030000
00000000
,
00000020
00000000
00000030
00000000
,
00001000
00001000
00000000
00000000
,
00000002
00000000
00000003
00000000
,
00000100
00000100
00000000
00000000
,
00001000
00000000
00010000
00000000
,
00002000
00000000
00003000
00000000
,
00010000
00000000
00001000
00000000
,
00020000
00000000
00030000
00000000
,
00100000
00100000
00100000
00000000
,
10000000
10000000
10000000
00000000
,
01000000
01000000
01000000
00000000
,
00010000
00010000
00010000
00000000
,
00001000
00000000
00000010
00000000
,
00000001
00000000
00000100
00000000
,
00000010
00000000
00001000
00000000
,
00002002
00000000
00003003
00000000
,
00000001
00000001
00000100
00000000
,
00001000
00010000
00001000
00010000
,
00100000
00100000
10000000
00000000
,
00010000
01000000
00010000
00000000
,
10000000
10000000
01000000
00000000
,
00010000
00001000
00010000
00001000
,
00000010
00000010
00000001
00000000
,
00001000
00000001
00001001
00000000
,
00000001
00000100
00000010
00010000
,
00001000
00100000
00010000
00000000
,
10000000
01000000
00100000
00001000
,
00010000
00000010
00001000
00000000
,
00000001
00000010
00000100
00010000
,
00001000
01000000
00010000
00000000
,
10000000
00100000
01000000
00001000
,
00010000
00000100
00001000
00000000
,
00000010
00000010
00000010
00000000
,
00020000
00000000
00000000
00030000
,
00002000
00003000
00200000
00300000
,
00020000
00000000
00000000
00030000
,
00100000
00100000
00100000
00000000
,
00002000
00000000
00000000
00003000
,
00020000
00030000
00000020
00000030
,
00002000
00000000
00000000
00003000
,
00000100
00000100
00000010
00000000
,
00000001
00000000
00000100
00000000
,
00001000
00001000
00010000
00000000
,
00100000
00000000
10000000
00000000
,
01000000
01000000
00100000
00000000
,
10000000
00000000
01000000
00000000
,
00010000
00010000
00001000
00000000
,
00000010
00000000
00000001
00000000
,
00002000
00000000
00003000
00000000
,
00000002
00000000
00000003
00000000
,
00000200
00000000
00000300
00000000
,
00002000
00000000
00003000
00000000
,
00020000
00000000
00030000
00000000
,
02000000
00000000
03000000
00000000
,
20000000
00000000
30000000
00000000
,
00200000
00000000
00300000
00000000
,
10010000
00000000
00000000
00000000
,
00000000
00000000
00000000
00000000
;
#NOTES:
     dance-double:
     :
     Medium:
     9:
     :
00000000
00000000
00000000
00000000
,
00000000
00000000
00000000
00000000
,
00000000
00000000
00000000
00000000
,
00000000
00000000
00000000
00000000
,
00000000
00000000
00000000
00000000
,
00100000
00000000
00000000
10000000
00000000
00000000
01000000
00000000
,
00000000
00010000
00000000
00000000
00001000
00000000
00010000
00000000
,
00001000
00000000
00000000
00000100
00000000
00000000
00000001
00000000
,
00000000
00000010
00000000
00000000
00000100
00000000
00000010
00000000
,
00000001
00000000
00001000
00000001
00000000
00000100
00000000
00000000
,
00001000
00020000
00000000
00030000
,
00001000
00000000
00010000
00100000
00000000
10000000
00000000
00000000
,
00010000
02000000
00000000
03000000
,
00100000
00000000
10000000
01000000
00000000
00100000
00000000
00220000
,
00000000
00000000
00000000
00330000
,
00001000
00010000
00000000
00000100
00000000
00001000
00000000
00000110
,
00000000
00001001
00000000
00000110
00000000
00001001
00000000
00000000
,
00000010
00000000
00000010
00000000
00000001
00000100
00000010
00000000
,
00020000
00000010
00030200
00000010
,
00020300
00000010
00030200
00000010
,
00020300
00000010
00031000
00010000
,
00001000
00010000
00100000
10000000
,
01000000
00010000
00001000
00000100
,
00000010
00001000
00000100
00000000
00000010
00000001
00000100
00000000
,
00000010
00000010
00000010
00001001
,
00000100
00000000
00000100
00000000
00000001
00000100
00000000
00001100
,
00000000
00011000
00000000
00001000
00100000
00010000
01000000
00000000
,
00100000
00000000
00100000
00000000
10000000
00100000
00000000
01010000
,
00000000
10100000
00000000
00010000
10000000
00010000
01000000
00000000
,
00100000
00000000
00100000
00000000
10000000
01000000
00000000
00110000
,
00000000
00011000
00000000
00000010
00001000
00000001
00000100
00000000
,
00000001
00000000
00000001
00000000
00001000
00000100
00000000
00000110
,
00000000
00001001
00000000
00000100
00000010
00001000
00000010
00000000
,
00000001
00000000
00000100
00000000
00001000
00010000
00000000
01000000
,
00000000
10000000
00000000
00010000
01000000
00100000
01000000
00000000
,
10000000
00000000
01000000
00000000
00010000
00001000
00000000
00000100
,
00000000
00000001
00000000
00001000
00000100
00000010
00000100
00000000
,
00000001
00000000
00000010
00000000
00001000
00010000
00000000
00100000
,
00000000
10000000
00000000
00010000
00100000
00010000
10000000
00000000
,
00100000
00000000
00100000
00000000
10000000
00010000
00000000
01010000
,
00000000
00011000
00000000
00000010
00001000
00000001
00001000
00000000
,
00000010
00000000
00000010
00000000
00000001
00000100
00000010
00000000
,
00020000
00000010
00030200
00000010
,
00020300
00000010
00030200
00000010
,
00020300
00000010
00031000
00010000
,
00100000
00000000
00100000
00000000
10000000
01000000
00100000
00000000
,
00002000
00100000
02003000
00100000
,
03002000
00000000
00100000
00000000
02003000
00000000
03100000
01000000
,
00000000
01000000
00000000
00010000
00100000
01000000
10000000
00000000
,
00100000
10000000
01000000
00000000
,
00010000
00000000
00011000
00000000
,
00000010
00000001
00000100
00000000
,
00000001
00000000
00000000
00001000
00000000
00000000
00000001
00000000
00000100
00000000
00000000
00000000
00000000
00000000
00000000
00000000
,
00001000
00010000
00001000
00000000
,
00100000
00000000
01100000
00000000
,
10000000
00010000
00100000
00000000
,
00010000
00000000
00000000
10000000
00000000
00000000
00010000
00000000
01000000
00000000
00000000
00000000
00000000
00000000
00000000
00000000
,
00100000
00000000
00000000
10000000
00000000
00000000
01000000
00000000
,
00000000
00010000
00000000
00000000
00001000
00000000
00010000
00000000
,
00001000
00000000
00000000
00000100
00000000
00000000
00000001
00000000
,
00000000
00000010
00000000
00000000
00000100
00000000
00000100
00000000
,
00000010
00000000
00000000
00000001
00000000
00000000
00000100
00000000
,
00000000
00001000
00000000
00000000
00010000
00000000
00001000
00000000
,
00010000
00000000
00000000
01000000
00000000
00000000
10000000
00000000
,
00000000
00100000
00000000
00000000
01000000
00000000
00100000
00000000
,
10010000
00000000
00000000
00000000
,
00000000
00000000
00000000
00000000
;
#NOTES:
     dance-double:
     :
     Hard:
     13:
     :
00000000
00000000
00000000
00000000
,
00000000
00000000
00000000
00000000
,
00000000
00000000
00000000
00000000
,
00000000
00000000
00000000
00000000
,
00000000
00000000
00000000
00000000
,
00000010
00000000
00000000
00001000
00000000
00000001
00000020
00000000
,
00000000
00002030
00000000
00013000
00100000
10000000
00010000
00000000
,
01000000
00000000
00000000
10000000
00000000
01000000
00020000
00000000
,
00000000
00230000
00000000
01300000
00010000
00000000
00001000
00000100
,
00000010
00000000
00001000
00000010
00000000
00000100
00000000
00000001
,
00000100
00000000
00000200
00000000
00000000
00000000
00000300
00001000
,
00010000
00000000
01000000
10000000
00000000
00010000
00000000
10000000
,
00100000
00000000
00200000
00000000
00000000
00000000
00300000
01000000
,
00001000
00010000
00001000
01000000
00000000
00011000
00000000
00002200
,
00000000
00000000
00000000
00000000
00000000
00000000
00003300
00000010
,
00000001
00000100
00000000
00001010
00000000
00000101
00000000
00001100
,
00000000
00011000
00000000
00110000
00000000
11000000
00000000
00000000
,
00010000
00000000
00010000
01000000
00100000
10000000
01000000
00000000
,
00200000
00001000
02300000
00010000
,
03200000
00001000
00320000
00001000
,
00030020
00000100
00000032
00000103
,
00001000
00000010
00001000
00000010
00000100
00000001
00000100
00000001
,
00000010
00000001
00000010
00000001
00001000
00000100
00001000
00000100
,
00000010
00000001
00000100
00001000
00010000
01000000
10000000
00010000
,
10000000
10000000
10000000
01100000
,
00010000
00000000
00000000
00000000
10010000
00000000
00100000
01000000
00100000
00000000
10000000
00000000
00000000
00000000
10200000
00000000
,
00000000
00000000
00310000
00000000
00000000
00000000
00001000
00010000
00000010
00000000
00000100
00000000
00000010
00000000
00001000
00000000
,
00000001
00000000
00000000
00000000
00000011
00000000
00000100
00001000
00000100
00000000
00000010
00000000
00000000
00000000
00002010
00000000
,
00000000
00000000
00013000
00000000
00000000
00000000
00001000
01000000
00010000
00000000
10000000
00000000
00100000
00000000
01000000
00000000
,
00100000
00000000
00000000
00000000
10100000
00000000
10000000
01000000
10000000
00000000
00010000
00000000
00000000
00000000
12000000
00000000
,
00000000
00000000
03010000
00000000
00000000
00000000
00001000
00010000
00000100
00000000
00000010
00000000
00000001
00000000
00000100
00000000
,
00000010
00000000
00000000
00000000
00000110
00000000
00000100
00000001
00000100
00000000
00000010
00000000
00000000
00000000
00000201
00000000
,
00000000
00000000
00001300
00000000
00000000
00000000
00010000
00001000
00010000
00000000
00001000
00000000
00010000
00000000
00001000
00000000
,
00100000
00000000
00010000
00000000
00100000
00000000
01000000
00100000
01000000
00000000
00100000
00000000
00010000
00000000
10000000
00000000
,
01000000
00000000
00100000
00000000
00010000
00000000
00001000
00010000
00001000
00000000
00000100
00000000
00000010
00000000
00000000
00000000
,
00000001
00000000
00001000
00000000
00000001
00000000
00000100
00000010
00000100
00000000
00000001
00000000
00000010
00000000
00000100
00000000
,
00000010
00000000
00001000
00000000
00010000
00000000
00001000
00010000
00001000
00000000
01000000
00000000
00010000
00000000
00000000
00000000
,
10000000
00000000
01000000
00000000
10000000
00000000
00010000
00100000
00010000
00000000
10000000
00000000
00010000
00000000
01000000
00000000
,
00001000
00000000
00010000
00000000
00000010
00000000
00001000
00000010
00001000
00000000
00000001
00000000
00000100
00000000
00000000
00000000
,
00000010
00000000
00001000
00000000
00000100
00000000
00000010
00000001
00000010
00000000
00000100
00000000
00000000
00000000
00001100
00000000
,
00000000
00000000
00011000
00000000
00000000
00000000
00010000
00001000
00010000
00000000
00001000
00000000
00010000
00000000
00001000
00000000
,
01000000
00000000
00010000
01000000
00100000
10000000
01000000
00000000
,
00200000
00001000
02300000
00010000
,
03200000
00001000
00320000
00001000
,
00030020
00000000
00000100
00000000
00000031
00000100
00000001
00000100
,
00000001
00000000
00001000
00000100
00000010
00000001
00000100
00000000
,
00000020
00010000
00000230
00001000
,
00000320
00000000
00010000
00000000
00002030
00000000
00013000
00011000
,
00000000
00000000
01010000
00000000
00000000
00000000
00100000
01000000
00100000
00000000
10000000
00000000
00010000
00000000
01000000
00000000
,
00100000
10000000
10010000
00000000
,
01000000
00000000
00011000
00000000
,
00000100
00000001
00001001
00000000
,
00000010
00000000
00000000
00001000
00000000
00000000
00010000
00000000
00011000
00000000
00000000
00000000
00000000
00000000
00000000
00000000
,
01000000
10000000
10010000
00000000
,
00100000
00000000
00011000
00000000
,
00000010
00000001
00001001
00000000
,
00000100
00000000
00000000
00001000
00000000
00000000
00010000
00000000
00011000
00000000
00000000
00000000
00000000
00000000
00000000
00000000
,
00100000
00000000
00000000
00010000
00000000
10000000
00200000
00000000
,
00000000
00320000
00000000
00031000
00000010
00000001
00001000
00000000
,
00000100
00000000
00000000
00000001
00000000
00000100
00002000
00000000
,
00000000
00003020
00000000
00000130
00001000
00000000
00010000
01000000
,
10000000
00000000
00000000
00010000
00000000
01000000
20000000
00000000
,
00000000
32000000
00000000
03010000
00001000
00000010
00000100
00000000
,
00000010
00000000
00000000
00001000
00000000
00000001
00000020
00000000
,
00000000
00000230
00000000
00010300
00001000
00000000
00100000
00010000
,
10000000
00000000
00000000
00000000
,
00000000
00000000
00000000
00000000
;
