
//----- song ID: hist -----//
#TITLE:The History of the Future;
#ARTIST:BEMANI Sound Team"U1×TAG";
#BANNER:The History of the Future.png;
#BACKGROUND:The History of the Future-bg.png;
#CDTITLE:./CDTitles/DDR A20.png;
#MUSIC:The History of the Future.ogg;
#SAMPLESTART:79.169;
#SAMPLELENGTH:15;
#BPMS:0=100,34=200,224=100,256=200;
#STOPS:34=0.9,95=0.9,316=2.4;
#NOTES:
     dance-single:
     :
     Beginner:
     5:
     :
0000
0000
0000
0000
,
0000
0000
0000
0000
,
0000
0000
0000
0000
,
0000
0000
0000
0000
,
0000
0000
0000
0000
,
0001
0000
0001
0000
,
1000
0000
1000
0000
,
0001
1000
0001
1000
,
2002
0000
3003
0000
,
0001
0000
0001
0000
,
0100
0000
1000
0000
,
1000
0000
1000
0000
,
0010
0000
0001
0000
,
0001
0000
0001
0000
,
0010
0000
1000
0000
,
1000
0000
1000
0100
,
0100
0100
0000
2002
,
0000
0000
0000
3003
,
0000
0000
0000
2002
,
0000
0000
0000
3003
,
0000
0000
0000
0220
,
0000
0000
0000
0330
,
0000
0000
0000
0220
,
0000
0000
0000
0330
,
0000
0001
0000
0001
,
0000
1000
0000
1000
,
0000
0010
0000
0010
,
0000
0100
0000
0100
,
0000
0001
0000
0010
,
0000
1000
0000
0010
,
0000
0001
0000
0100
,
0000
1000
0000
0100
,
0001
0001
0001
0000
,
0010
0000
0100
0000
,
1000
1000
1000
0000
,
0010
0000
0100
0000
,
0010
0010
0010
0000
,
1000
0000
0001
0000
,
0100
0100
0100
0000
,
0001
0000
1000
0000
,
1001
0000
0000
0000
,
1001
0000
0000
0000
,
1001
0000
0000
0000
,
0110
0000
0000
0000
,
1001
0000
0000
0000
,
1001
0000
0000
0000
,
1001
0000
0000
0000
,
0110
0000
0000
0000
,
0001
0100
0001
0000
,
0010
0001
0010
0000
,
0100
1000
0100
0000
,
1000
0010
1000
0000
,
0001
0010
0100
0000
,
1000
0010
0100
0000
,
2002
0000
0000
0000
,
3003
0000
0000
0000
,
1000
0000
1000
0000
,
0100
0000
0100
0000
,
0010
0000
0010
0000
,
0001
0000
0001
0000
,
1000
0001
1000
0000
,
0001
1000
0001
0000
,
1000
0000
0001
0000
,
2002
0000
3003
0000
,
0010
0000
0010
0000
,
1000
0100
0100
0000
,
1000
0000
0010
0000
,
0001
0000
0100
0000
,
0010
0000
0010
0000
,
0001
0100
0100
0000
,
0001
0000
0100
0000
,
1000
0000
0010
0000
,
1000
1000
1000
0000
,
0010
0010
0010
0000
,
0100
0100
0100
0000
,
0001
0001
0001
0000
,
0001
1000
0010
0000
,
1000
0001
0010
0000
,
0001
0000
1000
0000
,
1001
0000
0000
0000
,
0000
0000
0000
0000
;
#NOTES:
     dance-single:
     :
     Easy:
     9:
     :
0000
0000
0000
0000
,
0000
0000
0000
0000
,
0000
0000
0000
0000
,
0000
0000
0000
0000
,
0000
0000
0000
0000
,
1000
1000
0001
0001
,
1000
1000
0001
0001
,
0100
0010
0100
0000
0010
0100
0010
0000
,
0220
0000
0330
0000
,
1000
0001
1000
0000
,
0010
0100
0001
0000
,
0001
1000
0001
0000
,
0010
0100
1000
0000
,
0010
0100
0010
0000
,
1000
0100
0010
0000
,
0100
0010
0100
0010
,
0010
0010
0000
2002
,
0000
3003
0000
0220
,
0000
0330
0000
2002
,
0000
3003
0000
0220
,
0000
0330
0000
0022
,
0000
0033
0000
0202
,
0000
0303
0000
2020
,
0000
3030
0000
0000
,
0000
0001
0000
0001
,
1000
0100
1000
0100
,
0000
1000
0000
1000
,
0001
0100
0001
0100
,
0000
0010
0000
0010
,
1000
0100
0010
0100
,
0000
0010
0000
0010
,
0001
0100
0010
0100
,
0001
0010
0100
1000
,
0010
0000
0100
0000
0001
1000
0001
0000
,
1000
0100
0010
0001
,
0100
0000
0010
0000
1000
0001
1000
0000
,
0001
0010
0110
0000
,
1000
0010
0110
0000
,
0001
0100
1000
0100
,
0001
0001
0001
0001
,
0000
0010
0010
0010
,
0000
1000
1000
1000
,
0000
0100
0100
0100
,
0000
0001
0100
0100
,
0000
0001
0001
0001
,
0000
0100
0100
0100
,
0000
1000
1000
1000
,
0000
0010
1000
1000
,
0001
0100
1000
0100
,
0001
0010
0001
1001
,
1000
0100
0001
0100
,
1000
0010
1000
1001
,
0010
1000
0100
0010
,
0001
0000
0100
0000
0010
0100
0010
0000
,
2002
0000
0000
0000
,
0000
0000
3003
0000
,
1000
0100
1000
0100
,
0010
0001
0020
0030
,
0001
0100
0001
0100
,
0010
1000
0020
0030
,
0100
0100
0010
0010
,
0100
0100
0010
0010
,
1000
0001
1000
0000
0001
1000
0001
0000
,
2002
0000
3003
0000
,
0010
0010
0010
0000
,
1000
0000
0001
0000
1000
1000
1000
0000
,
0001
0010
0100
1000
,
0100
0000
0010
0000
0001
1000
0001
0000
,
0010
1000
0001
0100
,
1000
0000
0010
0000
0100
0100
0100
0000
,
0001
0010
0001
0010
,
0100
0000
1000
0000
0001
0001
0001
0000
,
0100
0010
1000
0100
,
0010
0001
0100
0010
,
1000
0010
1000
0000
0001
0010
0001
0000
,
0100
0010
0100
0010
0100
0000
0100
0000
,
0001
0000
0010
0000
0001
0100
0001
0000
,
1000
0000
0010
0000
1000
0100
1000
0000
,
0001
1000
0001
1000
0001
1000
0001
0000
,
1001
0000
0000
0000
,
0000
0000
0000
0000
;
#NOTES:
     dance-single:
     :
     Medium:
     14:
     :
0000
0000
0000
0000
,
0000
0000
0000
0000
,
0000
0000
0000
0000
,
0000
0000
0000
0000
,
0000
0000
0000
0000
,
0001
1000
0001
0000
0001
0100
0001
0000
,
1000
0001
1000
0000
1000
0100
1000
0000
,
0001
0010
0100
1000
0001
0010
0100
1000
,
0001
0000
0100
0000
0010
0000
0000
0000
1000
0000
0100
0000
0010
0000
0000
0000
0002
0003
0000
0000
0000
0000
0000
0000
1000
0000
0000
0000
0100
0000
0000
0000
,
1000
0010
0100
0001
0010
0000
0001
0100
,
1000
0100
0001
1000
0001
0000
0010
0001
,
0100
0001
0010
0100
1000
0000
0001
0010
,
1000
0010
0001
0000
1001
0000
0001
0100
,
0001
0010
0100
1000
0010
0000
1000
0100
,
0001
0100
1000
0001
1000
0000
0010
1000
,
0010
1000
0100
0010
0100
0010
0001
1000
,
0001
0000
0100
0000
0001
0000
0000
0001
0000
0000
0001
0000
2000
0000
0000
0000
,
0000
3200
0000
0310
,
0000
2002
0000
0000
3003
0000
0002
0000
,
0000
0203
0000
0310
,
0000
2002
0000
0000
3003
0000
0020
0000
,
0000
0230
0000
0301
,
0000
0220
0000
0000
0330
0000
2000
0000
,
0000
3200
0000
0300
,
1000
0100
1000
0100
0001
0100
1000
0010
,
0100
1000
0100
1000
0100
0001
1000
0000
,
0001
0100
0001
0100
1000
0100
0001
0010
,
0100
0001
0100
0010
0100
1000
0001
0000
,
1000
0010
0100
0010
1000
0100
0010
0100
,
1000
0001
0010
0001
0100
0001
1000
0000
,
0001
0010
0100
0010
0001
0100
0010
0100
,
0001
1000
0010
1000
0100
1000
0001
0000
,
1000
0000
0000
0000
0010
0000
1000
0001
1000
0000
0100
0000
0100
0000
0000
0000
,
1000
0010
0001
1000
0100
0001
1000
0000
,
0001
0000
0000
0000
0010
0000
0001
1000
0001
0000
0100
0000
0100
0000
0000
0000
,
0001
0010
1000
0001
0100
1000
0001
0000
,
1000
0100
0010
0000
2002
0000
3003
0000
,
0001
0010
0100
0000
2002
0000
3003
0000
,
0001
1000
0100
0000
0010
0001
0100
0000
,
0001
1000
0001
0000
1000
0001
1000
0000
0010
0000
0000
0010
0000
0000
0010
0000
,
0000
0000
0000
0000
1000
0000
0000
0000
1000
0000
0000
1000
0000
0000
1000
0000
,
0000
0000
0000
0000
0100
0000
0000
0000
0100
0000
0000
0100
0000
0000
0100
0000
,
0000
0000
0000
0000
0010
0000
0000
0000
0010
0000
0000
0010
0000
0000
0010
0000
,
0000
0000
0000
0000
0010
0000
0000
0000
0001
0000
0000
0001
0000
0000
0010
0000
,
0000
0000
0000
0000
0001
0000
0000
0000
0001
0000
0000
0001
0000
0000
0001
0000
,
0000
0000
0000
0000
0100
0000
0000
0000
0100
0000
0000
0100
0000
0000
0100
0000
,
0010
1000
0010
1000
0100
0010
0100
0010
,
0001
1000
0001
0000
1000
0001
1000
0000
0010
0000
0000
0010
0000
0000
0010
0000
,
1000
0100
0001
0100
0010
0100
1000
0100
,
0010
0000
0001
0000
0010
0000
1000
0000
0010
0000
0100
0000
0010
0001
0010
0000
,
0001
0100
1000
0100
0010
0100
0001
0100
,
0010
0000
1000
0000
0010
0000
0001
0000
0010
0000
0100
0000
0010
0100
0010
0000
,
1000
0100
0001
0100
1000
0010
0001
1000
,
0100
0001
0010
1000
0010
0001
0100
0000
,
2002
0000
0000
0000
,
0000
0000
3003
0000
,
0001
0000
1001
0000
0010
1000
0100
0000
,
1000
0000
1001
0000
0010
0001
0100
0000
,
0010
0000
1001
0000
0001
1000
0100
0000
,
0010
0000
1001
0000
0010
0100
0010
0000
,
1000
0100
0001
0000
1000
0100
0010
0000
,
0001
0100
1000
0000
0001
0100
0010
0000
,
1000
0100
1000
0001
0100
0010
1000
0001
,
0010
0100
0010
0000
0001
1000
0001
0000
2002
0000
0000
0000
0000
0000
3003
0000
,
0001
0010
0100
1000
0001
0010
0100
1000
,
0001
0000
0100
0100
0010
0010
1000
0000
,
1000
0100
1000
0100
0010
0001
0010
0001
,
1000
0010
0100
0001
0100
0100
0100
0000
,
0001
0010
0100
1000
0010
0100
0001
0010
,
0100
1000
0010
0010
0100
0100
0001
0000
,
1000
0100
0010
0001
0100
0010
1000
0010
,
0100
0001
0100
0001
1000
1000
1000
0000
,
0010
1000
0010
0100
0010
1000
0010
0100
,
0001
0010
0100
0010
0001
0010
0100
1000
,
0010
0100
0001
0010
0100
1000
0010
0100
,
0001
0010
1000
0010
0001
0100
0001
0000
,
1000
0001
0100
0010
1000
0001
0010
0100
,
1000
0001
0010
0000
0001
0100
0010
0000
,
1000
0010
1000
0010
0100
0001
0100
0001
,
2002
3003
0000
0000
0000
0000
0000
0000
0000
0000
0000
0000
0000
0000
0000
0000
0000
0000
0000
0000
0000
0000
0000
0000
0000
0000
0000
0000
0000
0000
0000
0000
,
0000
0000
0000
0000
;
#NOTES:
     dance-single:
     :
     Hard:
     17:
     :
0000
0000
0000
0000
,
0000
0000
0000
0000
,
0000
0000
0000
0000
,
0000
0000
0000
0000
,
0000
0000
0000
0000
,
0001
1000
0001
1000
0010
0100
0010
1000
,
0100
0010
0100
0010
0001
1000
0001
1000
,
0010
0100
0010
0100
0001
1000
0001
1000
0001
0100
0001
0100
0010
1000
0010
1000
,
0100
1000
0010
0100
0010
0100
0001
0010
0100
0010
0100
1000
0010
0100
0010
0100
0002
0003
0000
0000
0000
0000
0000
0000
1000
0000
0000
0000
0010
0000
0000
0000
,
0100
0000
0001
0000
1000
0001
1000
0001
1000
0000
0000
0000
0100
0000
0010
0000
,
0001
0000
0100
0010
0100
0000
0010
0000
0110
0000
0000
0000
1000
0000
0001
0000
,
0100
0010
1000
0100
0010
0001
0100
0001
,
1000
0100
1000
0001
1000
0000
1000
0100
,
0010
0000
0001
0000
1000
0001
1000
0001
1000
0000
0000
0000
0010
0000
1000
0000
,
0100
0000
0010
0100
0010
0000
0100
0000
0110
0000
0000
0000
0001
0000
0010
0000
,
0001
0000
0010
0000
0100
0000
1000
0000
0100
0000
1000
0000
0010
1000
0010
0000
,
0100
0001
0100
0000
0010
0000
0100
0010
0000
0100
0010
0000
1000
0000
0100
0000
,
1000
0000
0010
1000
0010
0000
1000
0000
,
0001
0011
0000
0000
1100
0000
0001
0100
,
0001
0000
0010
0001
0010
0000
0001
0000
,
1000
1010
0000
0000
1001
0000
1000
0000
,
1000
0001
0001
1000
,
1000
0001
0001
0010
,
0010
0100
0100
0000
,
0010
0100
1000
0001
0100
0010
1010
0000
,
0001
0100
0001
0000
1000
0000
0001
0010
0100
0000
1000
0000
0001
0000
0000
0000
,
0010
0100
1000
0001
0100
0010
1010
0000
,
0001
0100
0001
0000
1000
0000
0010
0100
0001
0000
1000
0000
0001
0000
0000
0000
,
1000
0010
1000
0001
0010
0100
0011
0000
,
0100
0010
1000
0000
0001
0000
1000
0010
0100
0000
0001
0000
1000
0000
0000
0000
,
0001
0100
0001
1000
0100
0010
1100
0000
,
0010
0100
0001
0000
1000
0000
0001
0100
0010
0000
1000
0000
0001
0000
0000
0000
,
0010
0000
0000
0000
0001
0000
0100
1000
0100
0000
0001
0000
0001
0000
0000
0000
,
1000
0100
1000
0100
0010
0000
0001
0000
0101
0000
1000
0000
1100
0000
0000
0000
,
0010
0000
0000
0000
1000
0000
0100
0001
0100
0000
1000
0000
1000
0000
0000
0000
,
0001
0010
0001
0010
0100
0000
1000
0000
1100
0000
0001
0000
0101
0000
0000
0000
,
1000
0100
0001
0100
1000
0010
0100
0000
0000
1001
0000
0000
,
0010
1000
0100
0010
0000
0000
0001
0000
0000
0110
0000
0000
,
1000
0000
0000
0000
0001
0000
0010
1000
0010
0000
0001
0000
0001
0000
0000
0000
,
1000
0100
0010
0000
0001
0100
0010
0000
1000
0000
0010
0100
0000
0100
0010
0000
,
0000
0000
0000
0000
0110
0000
0000
0000
0110
0000
0000
0110
0000
0000
0110
0000
,
0000
0000
0000
0000
0011
0000
0000
0000
0011
0000
0000
0011
0000
0000
0011
0000
,
0000
0000
0000
0000
1001
0000
0000
0000
1001
0000
0000
1001
0000
0000
1001
0000
,
0000
0000
0000
0000
0110
0000
0000
0000
1010
0000
0000
1010
0000
0000
1001
0000
,
0000
0000
0000
0000
1001
0000
0000
0000
1001
0000
0000
1001
0000
0000
1001
0000
,
0000
0000
0000
0000
0101
0000
0000
0000
0101
0000
0000
0101
0000
0000
0101
0000
,
0000
0000
0000
0000
0110
0000
0000
0000
0110
0000
0000
0110
0000
0000
0110
0000
,
1000
0100
0010
0000
0001
0010
0100
0000
1000
0000
0010
0100
0000
0001
1000
0000
,
0010
0000
0100
0000
0001
0010
0100
0000
1000
0000
0010
0000
0100
0010
0100
0000
,
0001
0000
0010
0000
0100
1000
0001
0000
0100
0000
1000
0000
0001
0010
0100
0000
,
0001
0000
1000
0000
0100
1000
0001
0000
0100
0000
0010
0000
1000
0001
1000
0000
,
0100
0000
1000
0000
0010
0100
0001
0000
0010
0000
1000
0000
0001
0100
0010
0000
,
0001
0000
1000
0000
0010
0100
0001
0000
1000
0000
0100
0000
0010
0001
0010
0000
,
0100
0000
1000
0000
0010
0100
0001
0000
0010
0000
1000
0000
0001
0100
0010
0000
,
0001
0010
0001
0010
0100
0010
0100
1000
0100
1000
0001
1000
,
0001
0010
0001
0010
0100
1000
0100
0010
0001
0000
0000
0000
0000
0000
0000
0000
,
1000
0000
0010
0000
1001
0000
0010
0100
0000
0000
0001
0000
1001
0000
0001
0010
,
0100
0000
1000
0000
1001
0000
0100
0010
0000
0000
1000
0000
1001
0000
0001
1000
,
0001
0000
1000
0000
1001
0000
0001
0100
0000
0000
0100
0000
1001
0000
0010
0100
,
0010
0000
0100
0000
1001
0000
1000
0100
0000
0000
0010
0000
0001
0000
1000
0001
,
1000
0001
1000
0001
0100
0010
0100
0001
,
0010
0100
0010
0100
1000
0001
1000
0001
,
0100
0010
0100
0010
1000
0001
1000
0001
1000
0010
1000
0010
0100
0001
0100
0001
,
0100
0010
1000
0010
1000
0010
1000
0010
0100
0001
0010
0001
0010
0001
0010
0001
0100
0010
1000
0000
0010
0100
0001
0000
0100
0000
0001
0010
0000
0100
0010
0000
,
0100
1000
0100
1000
0100
0000
1000
0010
1000
0010
1000
0000
0001
0100
0001
0000
,
0010
0001
0100
0000
0010
0000
0010
0000
1000
0000
0001
0000
1000
0000
0000
0000
,
0001
0010
0100
0010
0001
0000
0000
0000
1000
0010
0100
0010
1000
0000
0000
0000
,
0001
0100
1000
0100
0001
0001
0001
0000
,
0001
0010
0100
0010
0100
0000
0000
0000
1000
0010
1000
0010
0100
0000
0000
0000
,
0001
0010
0001
0000
0100
0000
0100
0000
0010
0000
1000
0000
0001
0000
0000
0000
,
0001
0010
0001
0010
0100
0000
1000
0010
0100
0010
0100
0000
0001
1000
0001
0000
,
1000
0100
0010
0001
1000
0000
0000
0000
0001
0000
0001
0000
0001
0000
0000
0000
,
0010
0001
1000
0000
0010
1000
0001
0000
0100
0001
1000
0000
0100
1000
0001
0000
,
0100
0010
1000
0000
0100
0010
0001
0000
0010
0100
1000
0000
0010
1000
0001
0000
,
1000
0010
0100
0001
1000
0010
0100
0000
0001
0010
0100
1000
0001
0010
0100
0000
,
1000
0010
0001
0000
1000
0100
0001
0000
1000
0000
0000
0000
1001
0000
0000
0000
,
0100
0001
0010
0000
0001
0000
1000
0000
0100
1000
0010
0000
1000
0000
0001
0000
,
0100
0000
1000
0001
0000
0010
1000
0000
0100
0000
0001
1000
0000
0010
0001
0000
,
1000
0100
0010
0001
0100
0010
1000
0100
0010
0001
0100
0010
1000
0100
0010
0001
,
2000
3000
0000
0000
0000
0000
0000
0000
0000
0000
0000
0000
0000
0000
0000
0000
0000
0000
0000
0000
0000
0000
0000
0000
0000
0000
0000
0000
0000
0000
0000
0000
,
0000
0000
0000
0000
;
#NOTES:
     dance-double:
     :
     Easy:
     9:
     :
00000000
00000000
00000000
00000000
,
00000000
00000000
00000000
00000000
,
00000000
00000000
00000000
00000000
,
00000000
00000000
00000000
00000000
,
00000000
00000000
00000000
00000000
,
00000001
00000001
00000010
00000010
,
00000100
00000100
00001000
00001000
,
00010000
00010000
00100000
00100000
,
02200000
00000000
03300000
00000000
,
10000000
01000000
10000000
00000000
,
10000000
01000000
00100000
00000000
,
00001000
00010000
00001000
00000000
,
00001000
00010000
00000010
00000000
,
00000100
00000001
00000100
00000000
,
00000100
00000010
00001000
00000000
,
00000100
00010000
00001000
00010000
,
00010000
00010000
00000000
00022000
,
00000000
00033000
00000000
00220000
,
00000000
00330000
00000000
22000000
,
00000000
33000000
00000000
02200000
,
00000000
03300000
00000000
02002000
,
00000000
03003000
00000000
00022000
,
00000000
00033000
00000000
00002200
,
00000000
00003300
00000000
00000000
,
00000000
00000010
00000000
00000010
,
00000001
00001000
00000001
00000000
,
00000000
00001000
00000000
00001000
,
00000100
00010000
00001000
00000000
,
00000000
00100000
00000000
00100000
,
01000000
10000000
00010000
00000000
,
00000000
01000000
00000000
01000000
,
00001000
00010000
00001000
00000000
,
00000010
00000001
00000100
00000010
,
00001000
00000000
00000100
00000000
00010000
00001000
00010000
00000000
,
00001000
00100000
00010000
01000000
,
00100000
00000000
10000000
00000000
01000000
00100000
01000000
00000000
,
00010000
00001000
00011000
00000000
,
00000100
00000001
00000101
00000000
,
00000001
00000100
00000010
00001000
,
00010000
01000000
00100000
10000000
,
00000000
01000000
01000000
01000000
,
00000000
00010000
00010000
00010000
,
00000000
00000100
00000100
00000100
,
00000000
00000010
00000100
00000100
,
00000000
00000010
00000010
00000010
,
00000000
00010000
00010000
00010000
,
00000000
00100000
00100000
00100000
,
00000000
01000000
00100000
00100000
,
10000000
01000000
00100000
00010000
,
01000000
00100000
00010000
00011000
,
00001000
00000100
00000010
00001000
,
00000100
00000010
00000001
00001001
,
00000001
00000010
00001000
00000010
,
00001000
00000000
00010000
00000000
01000000
10000000
01000000
00000000
,
20020000
00000000
00000000
00000000
,
00000000
00000000
30030000
00000000
,
10000000
00010000
10000000
00010000
,
00001000
00010000
00002000
00003000
,
00000001
00001000
00000001
00001000
,
00010000
00001000
00020000
00030000
,
10000000
10000000
00100000
00100000
,
01000000
01000000
00010000
00010000
,
00001000
00001000
00000100
00000100
,
00000010
00000010
00000001
00000000
,
00000001
00000100
00000001
00000000
,
00000010
00000000
00000100
00000000
00010000
00010000
00010000
00000000
,
00001000
00100000
01000000
10000000
,
00010000
00000000
00100000
00000000
01000000
00100000
01000000
00000000
,
10000000
00100000
00010000
00001000
,
00000100
00000000
00000001
00000000
00000010
00000010
00000010
00000000
,
00000001
00000010
00000001
00000010
,
00000100
00000000
00010000
00000000
00001000
00001000
00001000
00000000
,
00100000
00010000
10000000
01000000
,
00100000
00010000
01000000
00100000
,
00010000
00001000
00010000
00000000
00001000
00000010
00001000
00000000
,
00000010
00000100
00000010
00000100
00000010
00000000
00000000
00000000
,
00000001
00000000
00001000
00000000
00000010
00000100
00000010
00000000
,
00010000
00000000
00001000
00000000
01000000
00010000
01000000
00000000
,
00100000
01000000
00100000
01000000
00100000
01000000
00100000
00000000
,
10010000
00000000
00000000
00000000
,
00000000
00000000
00000000
00000000
;
#NOTES:
     dance-double:
     :
     Medium:
     14:
     :
00000000
00000000
00000000
00000000
,
00000000
00000000
00000000
00000000
,
00000000
00000000
00000000
00000000
,
00000000
00000000
00000000
00000000
,
00000000
00000000
00000000
00000000
,
10000000
01000000
10000000
00000000
10000000
01000000
00100000
00000000
,
00001000
00010000
00001000
00000000
00010000
00000010
00000100
00000000
,
00000001
00000010
00000001
00000010
00000100
00010000
00000100
00010000
,
00001000
00000000
00100000
00000000
00010000
00000000
00000000
00000000
00100000
00000000
00010000
00000000
01000000
00000000
00000000
00000000
00200000
00300000
00000000
00000000
00000000
00000000
00000000
00000000
10000000
00000000
00000000
00000000
01000000
00000000
00000000
00000000
,
10000000
01000000
00100000
00010000
00100000
00000000
01000000
00010000
,
00001000
00000000
00000010
00000001
00000100
00000000
00000001
00000100
,
00000001
00000100
00000010
00001000
00000010
00000000
00000100
00001000
,
00010000
00000000
00100000
10000000
01000000
00000000
10000000
00100000
,
01000000
00100000
00010000
00001000
00010000
00000000
00000010
00001000
,
00000100
00000000
00000010
00000001
00000100
00000000
00000001
00000010
,
00000100
00000010
00001000
00010000
00001000
00000000
00100000
01000000
,
00100000
00000000
01000000
00000000
10000000
00000000
00000000
10000000
00000000
00000000
10000000
00000000
02000000
00000000
00000000
00000000
,
00000000
03020000
00000000
00032000
,
00000000
00003020
00000000
00002030
,
00000000
00023000
00000000
00230000
,
00000000
00320000
00000000
00032000
,
00000000
00003200
00000000
00002300
,
00000000
00023000
00000000
02030000
,
00000000
23000000
00000000
30000000
,
10000000
01000000
10000000
01000000
00100000
00010000
01000000
00000000
,
00100000
00010000
00001000
00000000
00010000
00001000
00000100
00000000
,
00000001
00000010
00000001
00000010
00000100
00001000
00000100
00000000
,
00000010
00001000
00010000
00000000
00001000
00010000
01000000
00000000
,
10000000
00100000
01000000
00100000
10000000
01000000
00010000
00000000
,
00001000
00000010
00000001
00000000
00001000
00000100
00000010
00000000
,
00000001
00000010
00000100
00000010
00000001
00000100
00001000
00000000
,
00010000
00100000
10000000
00000000
00010000
00100000
01000000
00000000
,
10000000
00000000
00000000
00000000
00010000
00000000
00100000
01000000
10000000
00000000
00010000
00000000
00010000
00000000
00000000
00000000
,
10000000
00100000
00010000
00001000
00000100
00000001
00001000
00000000
,
00000001
00000000
00000000
00000000
00001000
00000000
00000010
00000100
00000001
00000000
00001000
00000000
00000001
00000000
00000000
00000000
,
00000001
00000010
00001000
00010000
01000000
10000000
00010000
00000000
,
10000000
00100000
01000000
00000000
00002000
00000000
00023000
00000000
,
00030100
00000010
00000001
00000000
00002002
00000000
00003003
00000000
,
00000001
00000010
00000001
00000000
00000100
00000010
00001000
00000000
,
00000100
00000000
00010000
00000000
00001000
00000000
00100000
00000000
00001000
00000000
00000000
00001000
00000000
00000000
00001000
00000000
,
00000000
00000000
00000000
00000000
00100000
00000000
00000000
00000000
00100000
00000000
00000000
00100000
00000000
00000000
00100000
00000000
,
00000000
00000000
00000000
00000000
01000000
00000000
00000000
00000000
01000000
00000000
00000000
01000000
00000000
00000000
01000000
00000000
,
00000000
00000000
00000000
00000000
00001000
00000000
00000000
00000000
00001000
00000000
00000000
00001000
00000000
00000000
00001000
00000000
,
00000000
00000000
00000000
00000000
00010000
00000000
00000000
00000000
00000010
00000000
00000000
00001000
00000000
00000000
00000100
00000000
,
00000000
00000000
00000000
00000000
00000010
00000000
00000000
00000000
00000010
00000000
00000000
00000010
00000000
00000000
00000010
00000000
,
00000000
00000000
00000000
00000000
00000100
00000000
00000000
00000000
00000100
00000000
00000000
00000100
00000000
00000000
00000100
00000000
,
00000010
00000001
00000100
00000001
00000010
00000100
00001000
00000010
,
00000100
00000000
00001000
00000000
00010000
00000000
00100000
00000000
10000000
00000000
00000000
10000000
00000000
00000000
10000000
00000000
,
00100000
10000000
01000000
00010000
01000000
00100000
00010000
00001000
,
00000100
00000000
00000010
00000000
00001000
00000000
00000010
00000000
00000001
00000000
00000100
00000000
00000001
00001000
00000001
00000000
,
00000100
00000001
00000010
00000100
00001000
00010000
00100000
01000000
,
10000000
00000000
00100000
00000000
00010000
00000000
00100000
00000000
01000000
00000000
00010000
00000000
10000000
00010000
10000000
00000000
,
01000000
00100000
00001000
00010000
00001000
00000010
00000100
00001000
,
00000001
00000100
00001000
01000000
00010000
10000000
00100000
00000000
,
20020000
00000000
00000000
00000000
,
00000000
00000000
30030000
00000000
,
00100000
00000000
10010000
00000000
10000000
01000000
00100000
00000000
,
00001000
00000000
00011000
00000000
00010000
00001000
00010000
00000000
,
00000010
00000000
00001001
00000000
00000001
00000100
00000010
00000000
,
00010000
00000000
00011000
00000000
00001000
00010000
00001000
00000000
,
00100000
01000000
00100000
01000000
10000000
00010000
10000000
00010000
,
01000000
00100000
01000000
00100000
00010000
00001000
00010000
00000000
,
00001000
00000100
00001000
00000100
00000001
00001000
00000001
00001000
,
00000010
00000100
00000010
00000000
00000100
00000010
00000100
00000000
00000220
00000000
00000000
00000000
00000000
00000000
00000330
00000000
,
00000001
00000010
00000100
00001000
00000010
00000100
00000001
00000010
,
00000100
00000000
00010000
00010000
00001000
00001000
00100000
00000000
,
00010000
00100000
00010000
00100000
01000000
10000000
01000000
10000000
,
00100000
10000000
00100000
01000000
00001000
00001000
00001000
00000000
,
00010000
00000100
00000010
00000001
00000100
00000010
00001000
00000001
,
00000010
00000100
00010000
00010000
00001000
00001000
01000000
00000000
,
00100000
10000000
00010000
01000000
00010000
00100000
01000000
10000000
,
00010000
01000000
00010000
00100000
00001000
00010000
00001000
00000000
,
00010000
00000100
00010000
00000100
00001000
00000001
00001000
00000001
,
00000100
00000010
00000100
00000010
00001000
00000100
00010000
00001000
,
00100000
00010000
01000000
00100000
10000000
01000000
00100000
00010000
,
01000000
00100000
10000000
01000000
00100000
00001000
00010000
00000000
,
00001000
00000010
00000001
00000010
00000001
00000100
00001000
00000100
,
00001000
00010000
00001000
00000000
00010000
10000000
00010000
00000000
,
10000000
01000000
00100000
00010000
00001000
00000100
00000010
00000001
,
00002002
00003003
00000000
00000000
00000000
00000000
00000000
00000000
00000000
00000000
00000000
00000000
00000000
00000000
00000000
00000000
00000000
00000000
00000000
00000000
00000000
00000000
00000000
00000000
00000000
00000000
00000000
00000000
00000000
00000000
00000000
00000000
,
00000000
00000000
00000000
00000000
;
#NOTES:
     dance-double:
     :
     Hard:
     17:
     :
00000000
00000000
00000000
00000000
,
00000000
00000000
00000000
00000000
,
00000000
00000000
00000000
00000000
,
00000000
00000000
00000000
00000000
,
00000000
00000000
00000000
00000000
,
00000001
00000010
00000001
00000010
00000100
00010000
00001000
00010000
,
00001000
00100000
00001000
00100000
00010000
10000000
01000000
00100000
,
01000000
00100000
00010000
00000000
00100000
00001000
00010000
00000000
00000100
00001000
00000010
00000000
00000100
00000001
00001000
00000000
,
00000010
00001000
00000100
00001000
00000100
00010000
00001000
01000000
00100000
01000000
00100000
10000000
01000000
00100000
01000000
00100000
00020000
00030000
00000000
00000000
00000000
00000000
00000000
00000000
10000000
00000000
00000000
00000000
01000000
00000000
00000000
00000000
,
00100000
00000000
00001000
00000000
00010000
00001000
00010000
00001000
00010000
00000000
00000000
00000000
00000100
00000000
00001000
00000000
,
00000001
00000010
00000100
00001000
00000010
00000000
00000100
00000001
,
00000010
00000100
00010000
00001000
00100000
00010000
01000000
00100000
,
10000000
01000000
00010000
00001000
00010000
00000000
01000000
10000000
,
00100000
00000000
01000000
00000000
00001000
00010000
00001000
00010000
00001000
00000000
00000000
00000000
00010000
00000000
00000100
00000000
,
00001000
00000010
00001000
00000001
00000100
00000000
00000001
00000010
,
00000100
00000000
00000000
00000000
00001000
00000000
00010000
00000000
00100000
00000000
00000000
00000000
01000000
10000000
01000000
00000000
,
00100000
00010000
00100000
00000000
00001000
00000000
00010000
00001000
00000000
00010000
00001000
00000000
00000010
00000000
00000001
00000000
,
00000010
00000000
00000001
00000100
00000001
00000000
00000100
00001000
,
00000100
00000000
00001000
00010000
00001000
00000000
00010000
01000000
,
00010000
00000000
01000000
10000000
01000000
00000000
10000000
00100000
,
10000000
00000000
00100000
00010000
00100000
00000000
00010000
00000010
,
00001000
00000000
00000001
00000010
00000100
00000000
00010000
00001000
,
01000000
00000000
00010000
10000000
00100000
00000000
10000000
01000000
,
00100000
00010000
00001000
00000100
00000010
00000001
00000000
00000000
,
00000001
00000100
00000010
00001000
00000100
00010000
00011000
00000000
,
00100000
00001000
01000000
00010000
00100000
01000000
10010000
00000000
,
10000000
00100000
01000000
00001000
00010000
01000000
01100000
00000000
,
00010000
00001000
00000010
00000001
00000100
00000010
00001001
00000000
,
00000010
00000100
00000001
00000010
00000100
00010000
00001100
00000000
,
00010000
00001000
00100000
01000000
10000000
00010000
01100000
00000000
,
10000000
01000000
00100000
00001000
01000000
00010000
00101000
00000000
,
00010000
00000100
00000010
00000001
00000100
00001000
00000110
00000000
,
00001000
00000000
00000000
00000000
00000001
00000000
00000010
00000100
00000010
00000000
00001000
00000000
00010000
00000000
00000000
00000000
,
00100000
01000000
00100000
00000000
10000000
00000000
01000000
00000000
00010000
00000000
01000000
00000000
10010000
00000000
00000000
00000000
,
00010000
00000000
00000000
00000000
10000000
00000000
01000000
00100000
01000000
00000000
00010000
00000000
00001000
00000000
00000000
00000000
,
00000010
00000100
00000010
00000000
00000001
00000000
00000100
00000000
00001000
00000000
00000100
00000000
00001001
00000000
00000000
00000000
,
00000001
00000010
00000100
00001000
00000100
00010000
00001000
00000000
00000000
00011000
00000000
00000000
,
00100000
00010000
10000000
01000000
00000000
00000000
00100000
00000000
00000000
10010000
00000000
00000000
,
10000000
00000000
00000000
00000000
01000000
00000000
00010000
00001000
00010000
00000000
00001000
00000000
00000010
00000000
00000000
00000000
,
00000001
00000100
00000010
00000000
00001000
00000100
00000010
00000000
00000100
00000000
00010000
00001000
00000000
00010000
00001000
00000000
,
00000000
00000000
00000000
00000000
00100000
00000000
00000000
00000000
01100000
00000000
00000000
01100000
00000000
00000000
01100000
00000000
,
00000000
00000000
00000000
00000000
10000000
00000000
00000000
00000000
10100000
00000000
00000000
10100000
00000000
00000000
10100000
00000000
,
00000000
00000000
00000000
00000000
00001000
00000000
00000000
00000000
00011000
00000000
00000000
00011000
00000000
00000000
00011000
00000000
,
00000000
00000000
00000000
00000000
00000010
00000000
00000000
00000000
00001100
00000000
00000000
00001100
00000000
00000000
00001001
00000000
,
00000000
00000000
00000000
00000000
00000101
00000000
00000000
00000000
00000101
00000000
00000000
00000101
00000000
00000000
00000101
00000000
,
00000000
00000000
00000000
00000000
00001010
00000000
00000000
00000000
00001010
00000000
00000000
00001010
00000000
00000000
00001010
00000000
,
00000000
00000000
00000000
00000000
00011000
00000000
00000000
00000000
00011000
00000000
00000000
00011000
00000000
00000000
00011000
00000000
,
00100000
00010000
00100000
00000000
01000000
10000000
01000000
00000000
10000000
00000000
00010000
10000000
00000000
00010000
10000000
00000000
,
01000000
00000000
00100000
00000000
00001000
00010000
00001000
00000000
00010000
00000000
00000010
00000000
00000100
00000001
00001000
00000000
,
00000100
00000000
00000010
00000000
00000001
00000010
00000001
00000000
00000100
00000000
00001000
00000000
00010000
00000100
00001000
00000000
,
00000100
00000000
00010000
00000000
00001000
00100000
00001000
00000000
00010000
00000000
01000000
00000000
10000000
01000000
00100000
00000000
,
00010000
00000000
01000000
00000000
00100000
10000000
00100000
00000000
01000000
00000000
00001000
00000000
00010000
00000100
00001000
00000000
,
00000010
00000000
00000100
00000000
00000001
00001000
00000001
00000000
00000100
00000000
00000010
00000000
00001000
00000100
00010000
00000000
,
00001000
00000000
00100000
00000000
01000000
00100000
01000000
00000000
10000000
00000000
00010000
00000000
00100000
00000000
01000000
00000000
,
10000000
01000000
00100000
01000000
00100000
00010000
00100000
00001000
00010000
00001000
00010000
00000100
,
00001000
00000100
00000010
00000000
00000100
00000010
00000001
00000000
00001000
00000000
00000000
00000000
00000000
00000000
00000000
00000000
,
00000001
00000000
00000010
00000000
00000100
00000000
00000010
00000001
00001000
00000000
00000010
00000000
00010000
00000000
00001000
00000000
,
00100000
00000000
00010000
00000000
01000000
00000000
00100000
10000000
00010000
00000000
00100000
00000000
01000000
00000000
10000000
01000000
,
10000000
00000000
00100000
00000000
01000000
00000000
00001000
00100000
00010000
00000000
00100000
00000000
00001000
00000000
00010000
00000000
,
00000100
00000000
00000010
00000000
00000001
00000000
00000100
00000010
00000100
00000000
00001000
00000000
00010000
00000000
00100000
00000000
,
10000000
01000000
10000000
01000000
00100000
00001000
00010000
00001000
,
00000100
00000010
00000100
00000001
00000010
00000100
00010000
00001000
,
00000010
00000001
00000010
00000000
00000100
00001000
00000100
00000000
00001000
00000100
00010000
00000000
00001000
01000000
00100000
00000000
,
01000000
00100000
10000000
00100000
10000000
00100000
10000000
00100000
01000000
00010000
00100000
00010000
00100000
00001000
00010000
00000000
00001000
00010000
00001000
00000000
00100000
00001000
00100000
00000000
00010000
00000000
00100000
01000000
00000000
10000000
01000000
00000000
,
10000000
01000000
10000000
01000000
10000000
00000000
00010000
00100000
00010000
00100000
00010000
00000000
00100000
00001000
00100000
00000000
,
00001000
00010000
00000100
00000100
00000010
00000001
00000010
00000000
,
00000100
00001000
00000100
00000000
00000010
00000000
00000000
00000000
00001000
00010000
00001000
00000000
01000000
00000000
00000000
00000000
,
00010000
00100000
10000000
00100000
00010000
00010000
00010000
00000000
,
10000000
01000000
00100000
01000000
00100000
00000000
00000000
00000000
00010000
00100000
00010000
00100000
00001000
00000000
00000000
00000000
,
00010000
00001000
00010000
00000000
00000100
00000000
00000100
00000000
00000010
00000000
00000001
00000000
00000010
00000000
00000000
00000000
,
00000001
00000010
00000100
00000010
00000001
00000000
00001000
00000100
00000010
00000100
00001000
00000000
00000100
00010000
00001000
00000000
,
00100000
00010000
00100000
01000000
00100000
00000000
00000000
00000000
01000000
00000000
01000000
00000000
01000000
00000000
00000000
00000000
,
10000000
01000000
00100000
00000000
01000000
10000000
00100000
00000000
01000000
00001000
00010000
00000000
00001000
00010000
00000010
00000000
,
00001000
00000010
00000100
00000000
00000001
00000010
00000100
00000000
00001000
00000010
00000100
00000000
00000001
00000100
00000010
00000000
,
00001000
00000100
00001000
00000100
00010000
00001000
00010000
00000000
00001000
00100000
00001000
00100000
00010000
00100000
00010000
00000000
,
00100000
00010000
01000000
00000000
00100000
10000000
01000000
00000000
00100000
00000000
01000000
00000000
00100000
00000000
00000000
00000000
,
01000000
00010000
00001000
00000010
00000001
00001000
00000100
00000010
,
00001000
00000000
00000000
00010000
00000000
00000000
00001000
00000000
00100000
00000000
01000000
00000000
01100000
00000000
00000000
00000000
,
10000000
01000000
00100000
00010000
01000000
00001000
00100000
00001000
00010000
00000100
00001000
00000010
00000100
00000001
00000010
00000100
,
00002000
00003000
00000000
00000000
00000000
00000000
00000000
00000000
00000000
00000000
00000000
00000000
00000000
00000000
00000000
00000000
00000000
00000000
00000000
00000000
00000000
00000000
00000000
00000000
00000000
00000000
00000000
00000000
00000000
00000000
00000000
00000000
,
00000000
00000000
00000000
00000000
;
