
//----- song ID: swet -----//
#TITLE:スイーツはとまらない♪;
#ARTIST:日向美ビタースイーツ♪;
#TITLETRANSLIT:Sweets wa tomaranai;
#ARTISTTRANSLIT:Hinatabi Bitter Sweets♪;
#BANNER:Sweets wa tomaranai.png;
#BACKGROUND:Sweets wa tomaranai-bg.png;
#CDTITLE:./CDTitles/DDR A20.png;
#MUSIC:Sweets wa tomaranai.ogg;
#SAMPLESTART:58.423;
#SAMPLELENGTH:15;
#BPMS:0=204;
#NOTES:
     dance-single:
     :
     Beginner:
     2:
     :
0000
0000
0000
0000
,
0000
0000
0000
0000
,
0000
0000
0000
0000
,
0000
0000
0000
0000
,
0000
0000
0000
0000
,
0000
0000
0000
0000
,
0000
0000
0000
0000
,
0000
0000
0000
0000
,
0000
0000
0000
0000
,
0000
0000
0000
0000
,
0001
0000
0000
0000
,
0001
0000
0000
0000
,
0001
0000
0000
0000
,
0000
0000
0000
0000
,
1000
0000
0000
0000
,
1000
0000
0000
0000
,
1000
0000
0000
0000
,
0000
0000
0000
0000
,
0001
0000
0000
0000
,
0010
0000
0000
0000
,
0001
0000
0000
0000
,
0000
0000
0000
0000
,
0001
0000
0000
0000
,
0100
0000
0000
0000
,
0001
0000
0000
0000
,
0000
0000
0000
0000
,
1000
0000
0000
0000
,
0010
0000
0000
0000
,
1000
0000
0000
0000
,
0000
0000
0000
0000
,
1000
0000
0000
0000
,
0100
0000
0000
0000
,
1000
0000
0000
0000
,
0000
0000
0000
0000
,
0001
0000
0001
0000
,
0001
0000
0000
0000
,
1000
0000
1000
0000
,
1000
0000
0000
0000
,
0001
0000
0001
0000
,
0001
0000
0000
0000
,
0200
0000
0000
0000
,
0300
0000
0000
0000
,
1000
0000
1000
0000
,
1000
0000
0000
0000
,
0001
0000
0001
0000
,
0001
0000
0000
0000
,
1000
0000
1000
0000
,
1000
0000
0000
0000
,
0200
0000
0000
0000
,
0300
0000
0000
0000
,
0001
0000
0000
0000
,
0100
0000
0000
0000
,
0001
0000
0000
0000
,
0100
0000
0000
0000
,
0001
0000
0000
0000
,
0010
0000
0000
0000
,
0002
0000
0000
0000
,
0003
0000
0000
0000
,
1000
0000
0000
0000
,
0100
0000
0000
0000
,
1000
0000
0000
0000
,
0100
0000
0000
0000
,
1000
0000
0000
0000
,
0010
0000
0000
0000
,
2000
0000
0000
0000
,
3000
0000
0000
0000
,
0001
0000
0000
0000
,
0000
0000
0000
0000
,
0010
0000
0000
0000
,
0000
0000
0000
0000
,
1000
0000
0000
0000
,
0000
0000
0000
0000
,
0100
0000
0000
0000
,
0000
0000
0000
0000
,
1000
0000
0000
0000
,
0000
0000
0000
0000
,
0010
0000
0000
0000
,
0000
0000
0000
0000
,
0001
0000
0000
0000
,
0000
0000
0000
0000
,
0100
0000
0000
0000
,
0000
0000
0000
0000
,
0001
0000
0010
0000
,
0001
0000
0000
0000
,
0001
0000
0100
0000
,
0001
0000
0000
0000
,
0001
0000
0010
0000
,
0001
0000
0000
0000
,
0002
0000
0000
0000
,
0003
0000
0000
0000
,
1000
0000
0010
0000
,
1000
0000
0000
0000
,
1000
0000
0100
0000
,
1000
0000
0000
0000
,
1000
0000
0010
0000
,
1000
0000
0000
0000
,
2000
0000
0000
0000
,
3000
0000
0000
0000
,
0000
0000
0000
0000
;
#NOTES:
     dance-single:
     :
     Easy:
     4:
     :
0000
0000
0000
0000
,
0000
0000
0000
0000
,
0000
0000
0000
0000
,
0000
0000
0000
0000
,
0000
0000
0000
0000
,
0000
0000
0000
0000
,
0000
0000
0000
0000
,
0000
0000
0000
0000
,
0000
0000
0000
0000
,
0000
0000
0000
0000
,
0001
0000
1000
0000
,
0001
0000
0000
0000
,
1000
0000
0001
0000
,
1000
0000
0000
0000
,
0010
0000
0100
0000
,
0010
0000
0000
0000
,
0220
0000
0000
0000
,
0330
0000
0000
0000
,
1000
0000
1000
0000
,
0100
0000
0100
0000
,
1000
0000
0100
0000
,
1000
0000
0000
0000
,
0001
0000
0001
0000
,
0100
0000
0100
0000
,
0001
0000
0100
0000
,
0001
0000
0000
0000
,
1000
0000
0010
0000
,
1000
0000
0010
0000
,
0100
0000
0001
0000
,
0100
0000
0000
0000
,
0001
0000
0010
0000
,
0001
0000
0010
0000
,
0100
0000
1000
0000
,
1001
0000
0000
0000
,
1000
0000
0100
0000
,
1000
0000
0100
0000
,
0001
0000
0100
0000
,
0001
0000
0100
0000
,
1000
0000
0100
0000
,
0001
0000
0100
0000
,
1000
0000
0100
0000
,
0220
0000
0330
0000
,
0001
0000
0010
0000
,
0001
0000
0010
0000
,
1000
0000
0010
0000
,
1000
0000
0010
0000
,
0001
0000
0010
0000
,
1000
0000
0010
0000
,
0001
0000
0010
0000
,
0220
0000
0330
0000
,
1000
0000
1000
0000
,
1000
0000
0000
0000
,
1000
0000
0100
0000
,
0001
0000
0100
0000
,
1000
0000
1000
0000
,
1000
0000
0000
0000
,
1000
0000
0010
0000
,
0001
0000
0000
0000
,
0001
0000
0001
0000
,
0001
0000
0000
0000
,
0001
0000
0100
0000
,
1000
0000
0100
0000
,
0001
0000
0001
0000
,
0001
0000
0000
0000
,
0010
0000
0100
0000
,
1001
0000
0000
0000
,
1000
0000
0100
0000
,
1000
0000
0010
0000
,
1000
0000
0100
0000
,
0010
0000
0000
0000
,
0001
0000
0100
0000
,
0001
0000
0010
0000
,
0001
0000
0100
0000
,
0010
0000
0000
0000
,
1000
0000
0010
0000
,
1000
0000
0010
0000
,
0100
0000
0001
0000
,
0010
0000
0001
0000
,
0100
0000
0001
0000
,
0100
0000
0001
0000
,
0010
0000
0100
0000
,
1000
0000
0000
0000
,
0001
0000
0100
0000
,
0001
0000
0100
0000
,
1000
0000
0100
0000
,
1000
0000
0100
0000
,
0001
0000
0100
0000
,
1000
0000
0100
0000
,
0001
0000
0100
0000
,
0220
0000
0330
0000
,
1000
0000
0010
0000
,
1000
0000
0010
0000
,
0001
0000
0010
0000
,
0001
0000
0010
0000
,
1000
0000
0010
0000
,
0001
0000
0010
0000
,
1000
0000
0010
0000
,
0220
0000
0330
0000
,
0000
0000
0000
0000
;
#NOTES:
     dance-single:
     :
     Medium:
     9:
     :
0000
0000
0000
0000
,
0000
0000
0000
0000
,
0000
0000
0000
0000
,
0000
0000
0000
0000
,
0000
0000
0000
0000
,
0000
0000
0000
0000
,
0000
0000
0000
0000
,
0000
0000
0000
0000
,
0000
0000
0000
0000
,
0000
0000
0000
0000
,
0010
0100
0010
0100
,
0010
1000
0010
0000
,
0100
0010
0100
0010
,
0100
0001
0100
0000
,
0010
0100
0010
0000
,
1000
0001
1000
0000
,
2002
0000
0000
0000
,
3003
0000
0000
0000
,
1000
0100
1000
0100
1000
0000
0000
0000
,
0001
0001
0001
0000
,
0001
0100
0001
0100
0001
0000
0000
0000
,
1000
1000
1000
0000
,
1000
0010
1000
0010
1000
0000
0000
0000
,
0001
0001
0001
0000
,
0001
0010
0001
0010
0001
0000
0000
0000
,
1000
1000
1000
0000
,
0010
1000
0100
0000
,
0010
0001
0010
0001
0010
0000
0000
0000
,
0010
0001
0100
0000
,
0010
1000
0010
1000
0010
0000
0000
0000
,
0100
0001
0010
0000
,
0100
1000
0100
1000
0100
0000
0000
0000
,
0100
1000
0010
0000
,
0220
0000
0330
0000
,
1000
0100
1000
0000
,
0001
0100
0001
0000
,
1000
0010
1000
0000
,
0001
0010
0001
0000
,
1000
0100
0010
0000
,
0001
0100
0010
0000
,
1000
0010
1000
0000
0100
0000
0000
0000
,
0001
0010
0001
0000
0100
0000
0000
0000
,
1000
1000
0100
0000
,
0001
0001
0100
0000
,
1000
1000
0010
0000
,
0001
0001
0010
0000
,
0100
0010
0100
0010
0100
0000
0000
0000
,
0010
0100
0010
0100
0010
0000
0000
0000
,
2002
0000
0000
0000
,
3003
0000
0000
0000
,
1000
0100
1000
0000
,
1000
0100
0001
0000
,
0001
0100
0001
0000
,
0001
0100
1000
0000
,
1000
0010
1000
0000
,
1000
0010
0001
0000
,
0001
0010
0001
0000
1000
0010
1000
0000
,
2002
0000
3003
0000
,
1000
0100
0010
0001
,
1000
0000
0100
0000
0010
0100
0010
0000
,
0001
0100
0010
1000
,
0001
0000
0100
0000
0010
0100
0010
0000
,
1000
0000
0010
0000
0100
0010
0100
0000
,
0001
0000
0010
0000
0100
0010
0100
0000
,
1000
0100
0010
0001
,
2002
0000
3003
0000
,
0001
0000
0100
0000
,
1000
0000
0100
0000
,
0001
0000
1000
0000
,
0100
0001
0100
0000
,
1000
0000
0010
0000
,
0001
0000
0010
0000
,
1000
0000
0001
0000
,
0010
1000
0010
0000
,
0001
0001
0001
0000
,
0100
0100
0100
0000
,
1000
1000
1000
0000
,
0010
0010
0010
0000
,
0001
0100
0001
0000
0100
0010
0100
0000
,
0010
1000
0010
0000
1000
0001
1000
0000
,
2002
0000
0000
0000
,
0000
0000
3003
0000
,
1000
0100
1000
0100
,
0010
0000
0001
0000
0010
0001
0010
0000
,
0001
0100
0001
0100
,
0010
0000
1000
0000
0010
1000
0010
0000
,
1000
0100
0001
0100
,
1000
0010
0001
0010
,
1000
0100
1000
0000
0100
0010
0100
0000
,
0220
0000
0330
0000
,
0001
0010
0001
0010
,
0100
0000
1000
0000
0100
1000
0100
0000
,
1000
0010
1000
0010
,
0100
0000
0001
0000
0100
0001
0100
0000
,
0001
0010
1000
0010
,
0001
0100
1000
0100
,
0001
1000
0001
0000
0010
0100
0010
0000
,
0220
0000
0330
0000
,
0000
0000
0000
0000
;
#NOTES:
     dance-single:
     :
     Hard:
     13:
     :
0000
0000
0000
0000
,
0000
0000
0000
0000
,
0000
0000
0000
0000
,
0000
0000
0000
0000
,
0000
0000
0000
0000
,
0000
0000
0000
0000
,
0000
0000
0000
0000
,
0000
0000
0000
0000
,
0000
0000
0000
0000
,
0000
0000
0000
0000
,
1000
0000
0010
0100
0000
0010
1000
0100
,
0000
0010
0001
0010
0001
0000
1001
0000
,
0001
0000
0100
0010
0000
0100
0001
0010
,
0000
0100
1000
0100
1000
0000
1001
0000
,
1000
0000
0001
0100
0000
0001
0010
0100
,
0000
1000
0010
1000
0010
0000
1001
0000
,
0001
0000
1000
0010
0100
0001
0100
0001
,
0000
0011
0000
0220
0000
0000
0330
0000
,
1000
0000
0001
0100
0001
0010
0001
0010
,
0000
0100
0000
1000
0001
0000
0100
0000
,
0001
0000
1000
0100
1000
0010
1000
0010
,
0000
0100
0000
0001
1000
0000
0010
0000
,
1000
0000
0001
1000
0010
0100
0010
0100
,
0000
0010
0000
1000
0100
0000
0010
0000
,
0001
0000
1000
0001
0100
0010
0100
0010
,
0000
1000
0000
0100
0000
0001
0000
0100
,
1000
0000
0001
0010
0100
1000
0001
0010
,
0000
0100
0000
1000
0001
0000
0100
0000
,
0010
0000
1000
0010
0100
0001
1000
0010
,
0000
0100
0000
0001
1000
0000
0100
0000
,
0010
0000
0001
0100
0010
1000
0001
0100
,
0000
0010
0000
1000
0001
0000
0010
0000
,
0100
1000
0001
1000
0100
1000
0001
1000
,
0100
0020
0000
0002
0000
0033
0000
0011
,
0000
0001
0100
0100
0010
1000
0000
1010
,
0000
1100
0000
0001
0100
0000
0000
0001
,
0000
1000
0100
0100
0010
0001
0000
0011
,
0000
1010
0000
0011
0000
0000
0000
1001
,
0000
1000
0010
0010
0100
0001
0000
1000
,
0000
1100
0000
1000
0001
0000
0100
0000
,
0001
0100
0001
0100
1000
0100
1000
0100
,
0000
0101
0000
0220
0000
0330
0000
0101
,
0000
0001
0010
0010
0100
1000
0000
1100
,
0000
1010
0000
0001
0010
0000
0000
0001
,
0000
1000
0010
0010
0100
0001
0000
0101
,
0000
1100
0000
0101
0000
0000
0000
1001
,
0000
1000
0100
0100
0010
0001
0010
0001
,
0000
1010
0000
0001
0010
0000
0110
0000
,
0001
0010
1000
0010
0001
0010
1000
0010
,
0001
0000
0000
0000
0001
0000
0000
0000
0001
0000
0000
0000
0001
0000
0000
1000
0000
0000
0001
0000
0000
0000
0000
0000
,
0100
0000
0010
1000
0000
0001
0010
0100
,
0000
1000
0100
1000
0100
0000
0110
0000
,
0001
0000
1000
0100
0000
0010
0100
1000
,
0000
0001
0100
0001
0100
0000
0110
0000
,
1000
0000
0001
0100
0000
0010
1000
0001
,
0000
0010
0001
0010
0001
0000
0110
0000
,
1001
0000
0001
1000
0010
0100
0010
0100
,
0000
0101
0000
1100
0000
0100
0010
0000
,
1001
0000
1000
0100
0000
0001
0100
1000
,
0000
0001
1000
0001
1000
0000
0110
0000
,
1001
0000
0001
0100
0000
1000
0100
0001
,
0000
1000
0001
1000
0001
0000
0110
0000
,
1001
0000
0001
0010
0000
1000
0010
0001
,
0000
1000
0001
1000
0001
0000
0110
0000
,
1001
0000
1000
0100
0010
0001
1000
0100
,
0010
0010
0010
0010
0000
0000
,
1000
0100
1000
0000
0001
0100
0001
0000
,
0001
0010
0000
0100
1000
0000
0010
1000
,
0010
0100
0000
0110
0000
0001
1000
0001
,
1000
0100
0000
0010
0100
0000
0010
0100
,
0010
0000
0001
0010
0001
0000
1000
0010
,
1000
0010
0000
0100
0010
0000
1000
0001
,
2000
0000
0000
0000
3020
0000
0000
0230
,
0000
0002
0000
0303
,
0001
0100
0001
0000
1000
0100
1000
0000
,
0010
0100
0000
0010
0100
0000
0001
1000
,
0001
1000
0000
1100
0000
0100
0010
0001
,
1000
0001
0000
1000
0001
0000
0100
0001
,
0100
0010
2000
0000
3002
0000
0003
0000
,
0000
0100
0000
0100
0010
0000
0010
1000
,
0001
0000
0000
1000
0200
0000
0000
0000
,
0000
0000
0000
0000
0300
0000
0000
0110
,
0000
1000
0010
0100
0001
0010
0000
0110
,
0000
1100
0000
0001
0100
0000
0000
0110
,
0000
0001
0010
0100
1000
0010
0100
0001
,
0000
0011
0000
1010
0000
0000
0000
0110
,
0000
1000
0100
0010
0001
1000
0100
0010
,
0000
0001
0000
0001
0010
0000
0110
0000
,
0001
0010
1000
0010
0001
0100
1000
0100
,
0000
0110
0000
2002
0000
3003
0000
1001
,
0000
0001
0100
0010
1000
0001
0100
0010
,
0000
1000
0000
1000
0010
0000
0000
0110
,
0000
1000
0010
0100
0001
0100
0010
1000
,
0000
0110
0000
2002
0000
3003
0000
0100
,
0000
0001
0010
0010
0100
0100
1000
0001
,
0000
0101
0000
0001
1000
0000
1100
0000
,
1000
0100
1000
0100
0010
0001
0010
0001
,
0100
0010
0100
0110
0000
0000
,
0000
0000
0000
0000
;
#NOTES:
     dance-double:
     :
     Easy:
     4:
     :
00000000
00000000
00000000
00000000
,
00000000
00000000
00000000
00000000
,
00000000
00000000
00000000
00000000
,
00000000
00000000
00000000
00000000
,
00000000
00000000
00000000
00000000
,
00000000
00000000
00000000
00000000
,
00000000
00000000
00000000
00000000
,
00000000
00000000
00000000
00000000
,
00000000
00000000
00000000
00000000
,
00000000
00000000
00000000
00000000
,
00100000
00000000
10000000
00000000
,
00100000
00000000
00000000
00000000
,
01000000
00000000
00010000
00000000
,
01000000
00000000
00000000
00000000
,
00001000
00000000
00010000
00000000
,
00001000
00000000
00000000
00000000
,
00022000
00000000
00000000
00000000
,
00033000
00000000
00000000
00000000
,
00001000
00000000
00001000
00000000
,
00000100
00000000
00000100
00000000
,
00000001
00000000
00000100
00000000
,
00000001
00000000
00000000
00000000
,
00000010
00000000
00000010
00000000
,
00001000
00000000
00001000
00000000
,
00010000
00000000
00001000
00000000
,
00010000
00000000
00000000
00000000
,
01000000
00000000
01000000
00000000
,
10000000
00000000
10000000
00000000
,
00100000
00000000
00010000
00000000
,
00100000
00000000
00000000
00000000
,
00010000
00000000
00010000
00000000
,
00001000
00000000
00001000
00000000
,
00000100
00000000
00000010
00000000
,
00000100
00000000
00000000
00000000
,
00001000
00000000
00010000
00000000
,
00200000
00000000
00300000
00000000
,
00010000
00000000
00001000
00000000
,
00000020
00000000
00000030
00000000
,
00001000
00000000
00010000
00000000
,
01000000
00000000
00100000
00000000
,
00010000
00000000
00001000
00000000
,
00022000
00000000
00033000
00000000
,
00010000
00000000
00001000
00000000
,
00000200
00000000
00000300
00000000
,
00001000
00000000
00010000
00000000
,
02000000
00000000
03000000
00000000
,
00010000
00000000
00000010
00000000
,
00000100
00000000
00001000
00000000
,
00022000
00000000
00000000
00000000
,
00033000
00000000
00000000
00000000
,
00010000
00000000
00100000
00000000
,
00010000
00000000
10000000
00000000
,
01000000
00000000
00010000
00000000
,
01000000
00000000
00000000
00000000
,
00010000
00000000
00001000
00000000
,
00010000
00000000
00000010
00000000
,
00000001
00000000
00000010
00000000
,
00000100
00000000
00000000
00000000
,
00000010
00000000
00001000
00000000
,
00000010
00000000
00010000
00000000
,
00001000
00000000
01000000
00000000
,
00001000
00000000
00000000
00000000
,
01000000
00000000
00100000
00000000
,
00010000
00000000
00001000
00000000
,
00000100
00000000
00000010
00000000
,
00000110
00000000
00000000
00000000
,
00000020
00000000
00000030
00000000
,
00002000
00000000
00003000
00000000
,
00020000
00000000
00030000
00000000
,
02000000
00000000
03000000
00000000
,
00200000
00000000
00300000
00000000
,
00020000
00000000
00030000
00000000
,
00002000
00000000
00003000
00000000
,
00000200
00000000
00000300
00000000
,
00000020
00000000
00000030
00000000
,
00000200
00000000
00000300
00000000
,
00002000
00000000
00003000
00000000
,
00020000
00000000
00030000
00000000
,
00200000
00000000
00300000
00000000
,
02000000
00000000
03000000
00000000
,
00020000
00000000
00030000
00000000
,
00022000
00000000
00033000
00000000
,
00010000
00000000
00001000
00000000
,
00010000
00000000
00100000
00000000
,
00010000
00000000
00001000
00000000
,
00000010
00000000
00001000
00000000
,
00010000
00000000
01000000
00000000
,
00010000
00000000
00001000
00000000
,
00022000
00000000
00000000
00000000
,
00033000
00000000
00000000
00000000
,
00001000
00000000
00010000
00000000
,
00001000
00000000
00000010
00000000
,
00001000
00000000
00010000
00000000
,
00100000
00000000
00010000
00000000
,
00001000
00000000
00000100
00000000
,
00001000
00000000
00010000
00000000
,
00100000
00000000
01000000
00000000
,
02200000
00000000
03300000
00000000
,
00000000
00000000
00000000
00000000
;
#NOTES:
     dance-double:
     :
     Medium:
     9:
     :
00000000
00000000
00000000
00000000
,
00000000
00000000
00000000
00000000
,
00000000
00000000
00000000
00000000
,
00000000
00000000
00000000
00000000
,
00000000
00000000
00000000
00000000
,
00000000
00000000
00000000
00000000
,
00000000
00000000
00000000
00000000
,
00000000
00000000
00000000
00000000
,
00000000
00000000
00000000
00000000
,
00000000
00000000
00000000
00000000
,
00100000
10000000
00100000
10000000
,
00010000
01000000
00010000
00000000
,
00100000
00001000
00100000
00001000
,
00010000
00001000
00010000
00000000
,
00001000
00000100
00001000
00000100
,
00000010
00000001
00000010
00000000
,
00002002
00000000
00000000
00000000
,
00003003
00000000
00000000
00000000
,
00000001
00000001
00000001
00000000
,
00000100
00000100
00000100
00000000
,
00001000
00010000
00001000
00000000
,
00010000
00100000
00010000
00000000
,
10000000
10000000
10000000
00000000
,
01000000
01000000
01000000
00000000
,
00010000
00001000
00010000
00000000
,
00001000
00000010
00001000
00000000
,
00000001
00000001
00000001
00000000
,
00000010
00000010
00000010
00000000
,
00001000
00010000
01000000
00000000
,
00010000
01000000
10000000
00000000
,
10000000
10000000
10000000
00000000
,
00100000
00100000
00100000
00000000
,
00010000
00001000
00000100
00000010
,
00000220
00000000
00000330
00000000
,
00000001
00000100
00000001
00000010
,
00000001
00000100
00000001
00000000
,
00001000
00000010
00010000
00000100
,
00001000
00000010
00010000
00000000
,
00001000
00100000
00010000
01000000
,
00001000
00100000
00010000
00000000
,
10000000
00100000
00010000
00100000
,
10000000
01000000
00100000
00000000
,
10000000
01000000
10000000
00100000
,
10000000
01000000
10000000
00000000
,
00001000
00100000
00010000
01000000
,
00001000
00100000
00010000
00000000
,
00001000
00000100
00001000
00000100
00001000
00000000
00000000
00000000
,
00000100
00000010
00000100
00000010
00000100
00000000
00000000
00000000
,
00002002
00000000
00000000
00000000
,
00003003
00000000
00000000
00000000
,
00000001
00000100
00001000
00010000
,
00100000
10000000
10010000
00000000
,
10000000
01000000
00010000
00001000
,
00000010
00000001
00001001
00000000
,
00000001
00000100
00001000
01000000
,
10000000
00010000
00100000
00010000
,
00001000
00000100
00000010
00000001
,
00002002
00000000
00003003
00000000
,
00000001
00000010
00001000
00010000
,
01000000
10000000
10010000
00000000
,
10000000
00100000
00010000
00001000
,
00000100
00000001
00001001
00000000
,
00000001
00000010
00001000
00100000
,
10000000
00100000
00001000
00010000
,
00000100
00000010
00000001
00001000
,
00002002
00000000
00003003
00000000
,
00000010
00001000
00000020
00000000
,
00001030
00010000
00002000
00000000
,
00013000
01000000
00020000
00000000
,
01030000
00100000
02000000
00000000
,
03100000
00010000
00200000
00000000
,
00310000
00001000
00020000
00000000
,
00031000
00000100
00002000
00000000
,
00003100
00000010
00000100
00000010
00000200
00000000
00000000
00000000
,
00000310
00000100
00000020
00000000
,
00000130
00001000
00000200
00000000
,
00001300
00010000
00002000
00000000
,
00013000
00100000
00020000
00000000
,
00130000
01000000
00200000
00000000
,
01300000
00010000
02000000
00000000
,
03001000
00010000
00001000
00010000
00001000
00000000
00010000
00000000
,
00022000
00000000
00033000
00000000
,
00010000
00100000
10000000
01000000
,
00100000
01000000
00010000
00011000
,
00001000
00000100
00000001
00000010
,
00000100
00000010
00001000
00011000
,
00010000
01000000
10000000
00100000
,
00001000
00000010
00000100
00000001
,
00000010
00001000
00010000
01000000
,
20020000
00000000
30030000
00000000
,
00010000
01000000
10000000
00100000
,
01000000
00100000
00010000
00011000
,
00001000
00000010
00000001
00000100
,
00000010
00000100
00001000
00011000
,
00010000
00100000
10000000
01000000
,
00001000
00000100
00000010
00000001
,
00000100
00000000
00001000
00000000
00010000
00100000
10000000
00000000
,
20020000
00000000
30030000
00000000
,
00000000
00000000
00000000
00000000
;
#NOTES:
     dance-double:
     :
     Hard:
     13:
     :
00000000
00000000
00000000
00000000
,
00000000
00000000
00000000
00000000
,
00000000
00000000
00000000
00000000
,
00000000
00000000
00000000
00000000
,
00000000
00000000
00000000
00000000
,
00000000
00000000
00000000
00000000
,
00000000
00000000
00000000
00000000
,
00000000
00000000
00000000
00000000
,
00000000
00000000
00000000
00000000
,
00000000
00000000
00000000
00000000
,
10000000
00000000
00100000
01000000
00000000
00100000
10000000
00100000
,
00000000
01000000
00001000
00010000
00001000
00000000
00011000
00000000
,
00010000
00000000
00000100
00001000
00000000
00000100
00000010
00000100
,
00000000
00000010
00000001
00001000
00000001
00000000
00001001
00000000
,
00000001
00000000
00000100
00000001
00000000
00000100
00000010
00000100
,
00000000
00000010
00010000
00001000
00010000
00000000
00011000
00000000
,
00010000
00000000
01000000
10000000
00010000
01000000
00010000
01000000
,
00000000
01100000
00000000
20020000
00000000
00000000
30030000
00000000
,
10000000
00000000
01000000
00010000
00001000
00010000
00001000
00010000
,
00000000
00000010
00000000
00000100
00000001
00000000
00000011
00000000
,
00000001
00000000
00000100
00001000
00010000
00001000
00010000
00001000
,
00000000
00100000
00000000
01000000
10000000
00000000
11000000
00000000
,
10000000
00000000
00100000
01000000
00100000
00010000
00001000
00010000
,
00000000
00011000
00000000
00000100
00000001
00000000
00001001
00000000
,
00000001
00000000
00000010
00000100
00000010
00001000
00010000
00001000
,
00000000
00011000
00000000
01010000
00000000
11000000
00000000
01000000
,
00100000
00000000
10000000
01000000
00100000
00010000
00100000
00001000
,
00000000
00011000
00000000
00001000
00000100
00000000
00000010
00000000
,
00001000
00000000
00000001
00000010
00000100
00001000
00000100
00000010
,
00000000
00000011
00000000
00000001
00000100
00000000
00000010
00000000
,
00010000
00000000
00001000
00010000
00001000
00010000
00001000
00010000
,
00000000
01000000
00000000
10000000
00010000
00000000
10010000
00000000
,
10000000
01000000
10000000
00000000
00010000
00100000
00010000
00000000
,
01000000
00002000
00000000
00020000
00000000
00033000
00000000
00011000
,
00000000
00010000
00001000
00000000
00000100
00000100
00000000
00000101
,
00000000
00000010
00000000
00000100
00000010
00000000
00000000
00000110
,
00000000
00000001
00000001
00000000
00000100
00000100
00000000
00000110
,
00000000
00001010
00000000
00011000
00000000
00000000
00000000
00001000
,
00000000
01000000
01000000
00000000
00010000
00010000
00000000
00100000
,
00000000
01100000
00000000
00100000
00010000
00000000
10000000
00000000
,
10000000
01000000
00100000
00010000
00001000
00000100
00000010
00000001
,
00000000
00000110
00000000
00002002
00000000
00003003
00000000
00000100
,
00000000
00000001
00000001
00000000
00000010
00000010
00000000
00001010
,
00000000
00001000
00000000
00010000
00001000
00000000
00000000
00010000
,
00000000
00100000
00100000
00000000
01000000
01000000
00000000
01100000
,
00000000
01000000
00000000
10010000
00000000
00000000
00000000
10010000
,
00000000
10000000
01000000
01000000
00010000
00001000
00010000
00001000
,
00000000
00001010
00000000
00000001
00000100
00000000
00000110
00000000
,
00001000
00010000
00100000
00000000
00010000
00001000
00000010
00000000
,
00001000
00000000
00010000
00000000
00001000
00000000
00022000
00000000
00000000
00033000
00000000
00000000
,
00011000
00000000
00010000
00000100
00000000
00001000
00000100
00001000
,
00000000
00000100
00000010
00000001
00001000
00000000
00001001
00000000
,
00000010
00000000
00000100
00000001
00000000
00000100
00001000
00000100
,
00000000
00001000
00010000
00100000
00010000
00000000
01100000
00000000
,
10000000
00000000
01000000
00010000
00000000
01000000
00100000
01000000
,
00000000
00001000
00010000
00001000
00010000
00000000
00011000
00000000
,
00001010
00000000
00000100
00000001
00000010
00001000
00010000
00001000
,
00000000
00011000
00000000
00022000
00000000
00000000
00033000
00000000
,
00011000
00000000
00001000
00100000
00000000
00010000
00100000
00010000
,
00000000
00100000
01000000
10000000
00010000
00000000
10010000
00000000
,
01000000
00000000
00100000
10000000
00000000
00100000
00010000
00100000
,
00000000
00010000
00001000
00000100
00001000
00000000
00000110
00000000
,
00000001
00000000
00000010
00001000
00000000
00000010
00000100
00000010
,
00000000
00010000
00001000
00010000
00001000
00000000
00011000
00000000
,
00001010
00000000
00000001
00000100
00001000
00000100
00001000
00010000
,
00100000
01000000
00100000
01100000
00000000
00000000
,
00100000
10000000
01000000
00010000
,
00001000
00000010
00000000
00001000
00010000
00000000
00100000
10000000
,
00100000
01000000
00000000
00001000
00000000
00100000
00000000
01100000
,
00000000
01000000
00000000
00100000
01000000
00000000
00100000
00010000
,
00100000
00010000
00001000
00000100
,
00000010
00000001
00000000
00000010
00001000
00000000
00010000
00001000
,
00000200
00000000
00000000
00000000
00000320
00000000
00000000
00000130
,
00000000
00002002
00000000
00003003
,
00000010
00000001
00000100
00001000
,
00010000
00100000
00000000
00010000
00001000
00000000
00000010
00000001
,
00000010
00000100
00000000
00010000
00000000
00000010
00000000
00000110
,
00000000
00000100
00000000
00000010
00000100
00000000
00000010
00001000
,
00000010
00001000
00010000
01000000
,
00100000
10000000
00000000
00100000
00010000
00000000
00001000
01000000
,
10000000
00000000
00000000
10000000
02000000
00000000
00000000
00000000
,
00000000
00000000
00000000
00000000
03000000
00000000
00000000
01100000
,
00000000
10000000
00100000
00010000
00001000
00000100
00000000
00000110
,
00000000
00000101
00000000
00001000
00000100
00000000
00000000
00000110
,
00000000
00000001
00000010
00001000
00010000
01000000
00000000
11000000
,
00000000
01100000
00000000
10010000
00000000
00000000
00000000
01100000
,
00000000
10000000
01000000
00100000
01000000
00100000
00001000
00010000
,
00000000
00011000
00000000
00001000
00000010
00000000
00000110
00000000
,
00000001
00000100
00001000
00010000
00001000
00010000
00001000
00000010
,
00000000
00000110
00000000
00002002
00000000
00003003
00000000
00000110
,
00000000
00000001
00000001
00000100
00001000
00001000
00000000
00011000
,
00000000
00110000
00000000
00100000
10000000
00000000
00000000
01100000
,
00000000
10000000
10000000
01000000
00010000
00010000
00000000
00011000
,
00000000
00001010
00000000
00000110
00000000
00000000
00000000
00001001
,
00000000
00000001
00000010
00000010
00001000
00010000
00001000
00000100
,
00000000
00000101
00000000
00000010
00000100
00000000
00000110
00000000
,
00000001
00000010
00000100
00001000
00010000
00100000
01000000
10000000
,
00100000
00010000
00001000
00011000
00000000
00000000
,
00000000
00000000
00000000
00000000
;
