
//----- song ID: sknk -----//
#TITLE:すきなことだけでいいです;
#ARTIST:ピノキオピー;
#TITLETRANSLIT:Sukina koto dakede ii desu;
#ARTISTTRANSLIT:PinocchioP;
#BANNER:Sukina koto dakede ii desu.png;
#BACKGROUND:Sukina koto dakede ii desu-bg.png;
#CDTITLE:./CDTitles/jubeat festo.png;
#MUSIC:Sukina koto dakede ii desu.ogg;
#SAMPLESTART:56.472;
#SAMPLELENGTH:15;
#BPMS:0=140;
#NOTES:
     dance-single:
     :
     Beginner:
     3:
     :
0000
0000
0000
0000
,
0000
0000
0000
0000
,
0000
0000
0000
0000
,
0000
0000
0000
0000
,
0000
0000
0000
0000
,
0001
0000
0010
0000
,
0001
0000
0100
0000
,
0001
0000
0010
0000
,
1000
0000
0000
0000
,
1000
0000
1000
0000
,
0100
0000
0100
0000
,
1000
0000
0100
0000
,
0001
0000
0000
0000
,
0001
0000
0001
0000
,
0010
0000
0010
0000
,
0001
0000
0100
0000
,
1000
0000
0000
0000
,
1000
0000
0010
0000
,
0001
0000
0000
0000
,
0001
0000
0010
0000
,
0100
0000
0000
0000
,
0001
0000
0100
0000
,
1000
0000
0000
0000
,
1000
0000
0010
0000
,
0100
0000
0000
0000
,
2000
0000
0000
0000
,
3000
0000
0000
0000
,
0002
0000
0000
0000
,
0003
0000
0000
0000
,
2000
0000
0000
0000
,
3000
0000
0000
0000
,
0002
0000
0000
0000
,
0003
0000
0000
0000
,
1001
0000
0000
0000
,
0001
0001
0001
0000
,
1001
0000
0000
0000
,
1000
1000
1000
0000
,
1001
0000
0000
0000
,
1001
0000
0000
0000
,
0001
0000
0100
0000
,
0010
0000
1000
0000
,
1001
0000
0000
0000
,
0001
0001
0001
0000
,
1001
0000
0000
0000
,
1000
1000
1000
0000
,
1001
0000
0000
0000
,
1001
0000
0000
0000
,
0001
0000
0010
0000
,
0100
0000
1000
0000
,
1000
0000
0001
0000
,
1001
0000
0000
0000
,
0001
0000
1000
0000
,
1001
0000
0000
0000
,
1000
0000
0001
0000
,
1000
0000
0000
0000
,
0001
0000
1000
0000
,
0002
0000
0000
0000
,
0003
0000
0000
0000
,
0001
0000
0010
0000
,
1000
0000
0010
0000
,
1000
0000
0001
0000
,
1001
0000
0000
0000
,
0000
0000
0000
0000
;
#NOTES:
     dance-single:
     :
     Easy:
     5:
     :
0000
0000
0000
0000
,
0000
0000
0000
0000
,
0000
0000
0000
0000
,
0000
0000
0000
0000
,
0000
0000
0000
0000
,
1000
0100
1000
0100
,
1000
0001
1000
0000
,
0001
0100
0001
0100
,
0001
1000
0001
0000
,
1000
1000
1000
0000
,
0100
0010
0001
0000
,
0001
0001
0001
0000
,
0100
0010
1000
0000
,
0001
1000
0001
0000
,
0010
0100
0010
0000
,
1000
0001
1000
0000
,
0010
0100
0010
0000
,
0001
0100
0001
0100
,
0010
0010
0010
0000
,
1000
0100
1000
0100
,
0010
0010
0010
0000
,
0001
0100
0001
0100
,
1000
1000
1000
0000
,
1000
0100
1000
0100
,
0001
0001
0001
0000
,
1001
0000
0110
0000
,
1001
0000
0110
0000
,
0001
0001
0001
0000
,
1000
1000
1000
0000
,
1001
0000
0110
0000
,
1001
0000
0110
0000
,
0001
0000
1000
0000
,
1001
1001
1001
0000
,
0001
0010
0100
1000
,
0001
0001
0100
0000
,
1000
0010
0100
0001
,
1000
1000
0100
0000
,
1000
0100
0001
0000
,
0001
0100
1000
0000
,
0001
0001
1000
1000
,
1001
0000
0000
0000
,
1000
0100
1000
0100
,
0010
0001
1000
0000
,
0001
0100
0001
0100
,
0010
1000
0001
0000
,
1000
0010
0001
0000
,
0001
0010
1000
0000
,
0001
0001
1000
1000
,
0001
1000
0001
0000
,
0001
0010
1000
0100
,
0002
0003
2000
3000
,
0001
0100
1000
0010
,
0002
0003
2000
3000
,
0010
1000
0100
0000
,
0010
0001
0100
0000
,
0010
0010
0100
0100
,
0010
0100
0010
0100
,
0001
0001
0010
0000
,
0001
0001
0100
0000
,
1000
1000
0010
0000
,
1000
1000
0100
0000
,
1001
0000
0000
0000
,
0000
0000
0000
0000
;
#NOTES:
     dance-single:
     :
     Medium:
     9:
     :
0000
0000
0000
0000
,
0000
0000
0000
0000
,
0000
0000
0000
0000
,
0000
0000
0000
0000
,
0000
0000
0000
0000
,
0001
0010
0100
0000
1000
0010
0100
0000
,
0110
1001
0110
0000
,
0100
0010
1000
0000
0100
0010
0001
0000
,
1001
0110
1001
0000
,
0001
0000
0100
0000
0010
1000
0001
0000
,
1000
0100
0010
0000
,
0100
0000
1000
0000
0001
0010
0001
0000
,
0100
0010
1000
0000
,
0010
0000
1000
0000
0100
0010
0001
0000
,
1000
0100
0001
0000
,
0100
0000
1000
0000
0001
0010
0100
0000
,
1000
0010
0100
0000
,
1000
0000
0010
0000
0100
0001
1000
0000
,
0001
0010
0100
0000
,
0010
0000
0001
0000
1000
0100
1000
0000
,
0010
0100
0001
0000
,
0100
0000
0001
0000
0010
0100
1000
0000
,
0001
0010
1000
0000
,
0010
0000
0001
0000
1000
0100
0010
0000
,
0001
0100
0010
0000
,
2000
0000
3100
0000
,
0002
0000
0103
0000
,
0020
0000
0031
0000
,
0200
0000
1300
0000
,
2000
0000
3010
0000
,
0002
0000
0013
0000
,
1001
0000
0110
0000
,
1001
0110
1001
0000
,
0001
0001
0001
0000
0010
0000
0100
0000
,
1000
1000
1000
0000
0001
0000
0100
0000
,
0010
0010
0010
0000
1000
0000
0001
0000
,
0100
0100
0100
0000
0110
0000
1001
0000
,
1000
1000
1000
0000
0100
0000
0010
0000
,
0001
0001
0001
0000
0100
0000
0010
0000
,
0100
0100
0100
0000
0010
0010
0010
0000
,
0110
0000
0110
1001
,
1000
0100
1000
0100
0010
0001
0010
0000
,
1000
0010
0001
0100
,
0001
0100
0001
0100
0010
1000
0010
0000
,
0001
0100
1000
0010
,
1000
0100
0010
0100
1000
0000
1001
0000
,
0001
0100
0010
0100
0001
0000
1001
0000
,
0010
1000
0100
0001
,
0010
0001
0100
1000
,
0001
0100
0001
0100
1000
0100
0001
0000
,
0010
0100
1000
0001
,
1000
0100
1000
0100
0001
0100
1000
0000
,
0010
0100
0001
1000
,
0010
1000
0100
1000
0010
1000
0100
0000
,
0010
0001
0100
0001
0010
0001
0100
0000
,
0001
0010
0001
0010
0100
1000
0100
1000
,
0001
0100
0010
1000
0010
0100
0010
0000
,
2002
0000
0000
3003
,
1000
0000
0100
0000
0001
1000
0001
0000
,
0010
0000
0001
0000
1000
0001
1000
0000
,
0010
0000
0100
0000
0001
1000
0001
0000
,
2002
0000
0000
0000
,
0000
0000
0000
0000
,
0000
0000
0000
0000
,
0000
0000
0000
0000
,
3003
0000
0000
0000
,
0000
0000
0000
0000
;
#NOTES:
     dance-single:
     :
     Hard:
     13:
     :
0000
0000
0000
0000
,
0000
0000
0000
0000
,
0000
0000
0000
0000
,
0000
0000
0000
0000
,
0000
0000
0000
0000
,
0001
0010
0001
0100
0001
0010
0001
0100
,
0010
1000
0100
0001
0100
0000
0100
1000
,
1000
0010
1000
0100
1000
0010
1000
0100
,
0010
0100
0010
0100
0010
0100
0010
0001
,
0000
0001
1000
0001
1000
0000
0010
1000
,
0000
1000
0001
0100
0002
0000
0000
0013
,
0000
0010
0001
1000
0001
0000
0001
0100
,
0000
0100
0010
0100
0020
0000
0000
0130
,
0000
0010
1000
0010
0100
0010
0100
0001
,
0000
1000
0100
0001
0200
0000
0000
1300
,
0000
1000
0001
0001
0100
0010
0100
0010
,
0000
0220
0000
0000
0000
0000
0330
1000
,
0000
0001
0010
0001
0010
0000
0100
1000
,
0000
0001
0100
0010
2000
0000
0000
3001
,
0000
1000
0010
1000
0010
0000
0100
0001
,
0000
1000
0100
0010
0002
0000
0000
0013
,
0000
0100
0010
0100
1000
0100
1000
0100
,
0000
0001
0100
1000
0200
0000
0000
0310
,
0000
0001
1000
0001
0100
0010
0100
0010
,
0000
0220
0000
0000
0000
0000
0330
0000
,
0010
1000
0000
0100
0010
0001
0000
0100
,
0010
1000
0000
0100
0010
0001
0000
0010
,
0100
1000
0000
0010
0100
0001
0010
0010
,
0100
1000
0001
2000
0000
0000
3000
0000
,
0010
0100
0000
0001
0010
0100
0000
1000
,
0010
0100
0000
0001
1000
0010
0000
0010
,
1000
0100
1000
0100
0010
0001
0010
0001
,
1000
0001
2000
0002
0000
0000
3003
0000
,
0001
0000
0100
0000
0010
0000
1000
0000
0100
0000
0110
0000
0000
0010
0000
0001
,
1000
0010
1000
0010
0100
0001
0001
0000
,
1000
0000
0100
0000
0010
0000
0001
0000
0100
0000
0110
0000
0000
0010
0000
1000
,
0001
0100
0001
0100
0010
0100
0010
0000
,
1000
0100
0010
0001
0010
0011
0000
0000
,
0001
0100
0010
1000
0010
1010
0000
0000
,
0001
0100
1000
0100
1000
0100
0001
1000
,
1001
0000
0000
0000
0010
0001
1000
0000
,
0001
0100
0001
0100
0001
0000
0100
0000
0010
0000
0110
0000
0000
0010
0000
1000
,
0100
0001
0100
0010
0100
1000
0100
0000
,
1000
0100
1000
0100
1000
0000
0100
0000
0010
0000
0110
0000
0000
0010
0000
0001
,
0100
1000
0100
0010
0100
0001
0100
0000
,
0001
0100
0001
0100
0001
0000
0100
0000
0010
0000
1010
0000
0000
0000
0000
0000
,
1000
0100
1000
0100
1000
0000
0100
0000
0010
0000
0011
0000
0000
0000
0000
0000
,
0001
0100
1000
0100
0001
0010
1000
0010
,
0100
0010
0100
0010
0100
0010
0001
0000
,
1000
0010
1000
0000
0001
0100
0001
0100
0010
0000
0100
0000
0000
0010
0000
1000
,
0001
0100
1000
0100
0001
1000
0001
0000
,
0001
0010
0001
0000
1000
0100
1000
0100
0010
0000
0100
0000
0000
0010
0000
0001
,
1000
0010
0001
0010
1000
0001
1000
0000
,
1000
0100
1000
0000
0001
0010
0001
0010
0100
0000
0010
0000
0000
0001
0000
1000
,
0001
0100
0001
0000
1000
0010
1000
0010
0100
0000
0010
0000
0000
0000
0000
0000
,
1000
0100
0001
0010
0001
0100
1000
0010
,
0001
0100
0001
0010
1000
0100
0010
0001
,
1000
0100
1000
0000
0001
0000
0100
0000
0010
0000
1000
0000
0010
0000
0100
0000
,
0001
0100
0001
0000
0010
0000
0100
0000
1000
0000
0001
0000
1000
0000
0100
0000
,
0010
0001
0010
0000
0001
0000
1000
0000
0010
0000
0100
0000
0001
0000
0100
0000
,
0010
1000
0010
0000
1000
0000
0100
0000
0010
0000
0001
0000
0100
0000
0000
0000
,
2002
0000
0000
0000
,
0000
0000
0000
0000
,
0000
0000
0000
0000
,
0000
0000
0000
0000
,
3003
0000
0000
0000
,
0000
0000
0000
0000
;
#NOTES:
     dance-double:
     :
     Easy:
     5:
     :
00000000
00000000
00000000
00000000
,
00000000
00000000
00000000
00000000
,
00000000
00000000
00000000
00000000
,
00000000
00000000
00000000
00000000
,
00000000
00000000
00000000
00000000
,
00010000
01000000
00001000
00010000
,
00000010
00001000
00000010
00000100
,
00000001
00001000
00000001
00000100
,
00000010
00001000
00000010
00010000
,
00001000
00000000
00100000
00000000
,
00010000
00010000
00010000
00000000
,
10000000
00000000
01000000
00000000
,
00100000
00100000
00100000
00000000
,
00001000
00000000
00010000
00000000
,
00001000
00001000
00001000
00000000
,
00010000
00000000
00000010
00000000
,
00000100
00000100
00000100
00000000
,
00000001
00000000
00000010
00000000
,
00001000
00010000
00001000
00000000
,
00010000
00000000
01000000
00000000
,
00100000
01000000
00100000
00000000
,
00010000
00000000
10000000
00000000
,
00100000
00010000
00100000
00000000
,
00010000
00000000
00001000
00000000
,
00022000
00000000
00033000
00000000
,
00001000
00000000
00100000
01000000
,
00100000
00000000
00010000
01000000
,
00001000
00000000
00010000
00001000
,
00010000
00000000
00000100
00000010
,
00000100
00000000
00000010
00000001
,
00000100
00000000
00000010
00010000
,
00001000
00000000
00010000
00000000
,
00022000
00000000
00033000
00000000
,
01000000
10000000
01000000
10000000
,
00010000
00100000
00001000
00000000
,
00010000
00000100
00001000
00000100
,
00000010
00000001
00000100
00000000
,
00000001
00000100
00000001
00000100
,
00000010
00010000
00001000
00000000
,
00010000
00000000
00001000
00000000
,
00022000
00000000
00033000
00000000
,
00001000
00000010
00000001
00000100
,
00001000
00010000
00001000
00000000
,
00010000
00100000
10000000
01000000
,
00010000
00001000
00010000
00000000
,
00001000
00000010
00001000
00001000
,
00010000
00100000
00010000
00010000
,
00011000
00000000
00011000
00000000
,
00022000
00000000
00033000
00000000
,
00010000
01000000
00010000
00001000
,
00000100
00001000
00011000
00000000
,
00001000
00000010
00001000
00010000
,
00100000
00010000
00011000
00000000
,
00010000
00000100
00000010
00001000
,
00001000
01000000
00100000
00010000
,
00001000
00000100
00000001
00000000
,
00000001
00000100
00001000
00000000
,
00022000
00000000
00033000
00000000
,
00100000
10000000
00100000
00100000
,
01000000
00001000
00010000
00010000
,
00000100
00000010
00000001
00000000
,
00001001
00000000
00000000
00000000
,
00000000
00000000
00000000
00000000
;
#NOTES:
     dance-double:
     :
     Medium:
     10:
     :
00000000
00000000
00000000
00000000
,
00000000
00000000
00000000
00000000
,
00000000
00000000
00000000
00000000
,
00000000
00000000
00000000
00000000
,
00000000
00000000
00000000
00000000
,
00000001
00000010
00000100
00000000
00000010
00000100
00001000
00000000
,
00000100
00010000
00001000
00010000
00001000
00000000
00100000
00010000
,
10000000
00100000
01000000
00000000
00001000
00010000
00001000
00000000
,
00010000
00000100
00000010
00000100
00000020
00000000
00000030
00000000
,
00000001
00001000
00000001
00000000
00000100
00000000
00000010
00000000
,
00001000
00000100
00000010
00000000
00000100
00000000
00000000
00000000
,
00010000
00001000
00010000
00000000
00001000
00000000
01000000
00000000
,
00010000
01000000
00010000
00000000
00100000
00000000
00000000
00000000
,
01000000
10000000
01000000
00000000
10000000
00000000
00010000
00000000
,
01000000
00100000
01000000
00000000
00001000
00000000
00000000
00000000
,
00010000
00001000
00000010
00000100
,
00000220
00000000
00000000
00000330
,
00000001
00000010
00001000
00000000
00000010
00000000
00000100
00000000
,
00010000
00001000
00010000
00000000
,
00001000
00100000
01000000
00000000
10000000
00000000
00010000
00000000
,
01000000
00100000
01000000
00000000
,
00100000
10000000
01000000
00000000
00010000
00000000
00001000
00000000
,
00010000
00000100
00000010
00000000
,
00000001
00000100
00000001
00000000
00001000
00000100
00001000
00000000
,
00002002
00000000
00000000
00003003
,
00000010
00001000
00000100
00010000
,
00001000
00010000
00100000
01000000
,
00010000
01000000
10000000
01000000
,
00100000
10000000
01000000
00100000
,
00010000
01000000
00001000
00010000
,
00000010
00001000
00000001
00000010
,
00000110
00000000
00001001
00000000
,
00001100
00001100
00011000
00000000
,
01000000
10000000
01000000
10000000
01000000
00100000
01000000
00100000
,
00002000
00023000
00030200
00000310
,
00000001
00000100
00000001
00000100
00000010
00000100
00000010
00000100
,
00002000
00023000
00230000
01300000
,
10000000
00010000
10000000
00000000
10000000
01000000
00010000
00000000
,
00001000
00010000
00001000
00000000
00001000
00000010
00000001
00000000
,
00000001
00000100
00000010
00000000
00010000
00001000
00010000
00000000
,
00022000
00000000
00000000
00033000
,
00001000
00000100
00001000
00000000
00010000
00001000
00010000
00000000
,
00001000
00000010
00001000
00000000
00010000
00001000
00010000
00000000
,
00010000
01000000
00010000
00000000
00001000
00010000
00001000
00000000
,
00010000
00100000
00010000
00000000
00001000
00010000
00001000
00000000
,
00001000
00000010
00000001
00000010
00001000
00000000
00011000
00000000
,
00010000
00100000
10000000
00100000
00010000
00000000
00011000
00000000
,
00001000
00000010
00000100
00000000
00000010
00000001
00000100
00000000
,
00001000
00010000
00001000
00010000
00001000
00000000
00011000
00000000
,
00001000
01000000
00001000
01000000
00100000
10000000
00100000
10000000
,
02000000
03200000
00302000
00023000
,
00030100
00010000
00000100
00010000
00000010
00001000
00000010
00001000
,
00000002
00000023
00000230
00000320
,
00000031
00001000
00000001
00001000
00000100
00000000
00010100
00000000
,
00010000
00001000
00010000
00001000
01000000
00000000
01010000
00000000
,
00100000
10000000
00100000
00000000
01000000
00010000
01000000
00000000
,
00001000
00010000
00001000
00010000
,
00022000
00000000
00000000
00033000
,
00001000
00000100
00000001
00000001
,
00000010
00000100
00010000
00010000
,
00001000
00100000
01000000
01000000
,
02200000
00000000
00000000
00000000
,
00000000
00000000
00000000
00000000
,
00000000
00000000
00000000
00000000
,
00000000
00000000
00000000
00000000
,
03300000
00000000
00000000
00000000
,
00000000
00000000
00000000
00000000
;
#NOTES:
     dance-double:
     :
     Hard:
     13:
     :
00000000
00000000
00000000
00000000
,
00000000
00000000
00000000
00000000
,
00000000
00000000
00000000
00000000
,
00000000
00000000
00000000
00000000
,
00000000
00000000
00000000
00000000
,
00000001
00000100
00000001
00000010
00000100
00001000
00000010
00001000
,
00000100
00010000
00001000
00010000
00001000
00000000
00011000
00000000
,
00100000
00010000
00100000
01000000
10000000
00010000
10000000
00100000
,
01000000
00010000
01000000
00010000
10000000
01000000
00100000
00000000
,
00010000
00100000
00001000
00000000
00011000
00000000
00010000
00000100
,
00000000
00000010
00000100
00000000
00000110
00000000
00001000
00000000
,
00000001
00000100
00000010
00000100
00000010
00000000
00010000
00001000
,
00000000
00010000
00100000
00010000
00100000
00000000
01000000
00000000
,
00100000
10000000
01000000
00010000
01000000
01000000
00100000
00001000
,
00000000
00010000
00001000
00010000
00001000
00000000
00010000
00000100
,
00000000
00000010
00000001
00000010
00001000
00010000
00001000
00010000
,
00000000
02200000
00000000
00000000
03000000
00000000
00300000
10000000
,
00000000
00100000
01000000
00010000
01000000
00000000
00100000
00010000
,
00000000
00001000
00010000
00001000
00020000
00000000
00030000
00000100
,
00000000
00000010
00000001
00001000
00000100
00000000
00001000
00000001
,
00000000
00000100
00000010
00000100
00002000
00000000
00003000
00010000
,
00000000
00100000
01000000
00100000
01000000
00100000
10000000
00010000
,
00000000
10000000
01000000
00100000
00002000
00000000
00003000
00010000
,
00000000
00000100
00001000
00000100
00000010
00000001
00000010
00000001
,
00000000
00000220
00000000
00000000
00000000
00000000
00000330
00000000
,
00000001
00000010
00000000
00000100
00001000
00000001
00000000
00000100
,
00001000
00010000
00000000
00001000
00010000
00001000
00000000
00010000
,
00100000
01000000
00000000
00100000
10000000
00100000
01000000
01000000
,
00010000
10000000
00010000
20000000
00000000
00000000
30000000
00000000
,
01000000
00010000
00000000
00001000
00010000
00001000
00000000
00000010
,
00000001
00000100
00000000
00000010
00010000
00001000
00000000
00010000
,
00011000
00000000
00011000
00000000
,
00101000
00010100
00010010
01001000
,
00010000
01000000
00010000
01000000
00100000
10000000
00100000
10000000
,
02000000
03020000
00032000
00003020
,
00000031
00001000
00000001
00001000
00000010
00000100
00000010
00000100
,
00000002
00000203
00002300
00023000
,
00130000
10000000
00100000
10000000
01000000
00000000
01100000
00000000
,
00010000
00001000
00010000
00000010
00001000
00000000
00001010
00000000
,
00000001
00000100
00000010
00000000
00001000
00000100
00000010
00000000
,
00000110
00000000
00011000
00011000
,
00100000
01000000
00100000
01000000
00100000
00000000
10000000
00000000
00010000
00000000
01000000
00000000
00100000
00000000
10000000
00000000
,
01000000
00100000
00001000
00100000
00001000
00010000
00000100
00000000
,
00000010
00000100
00000010
00000100
00000010
00000000
00000001
00000000
00001000
00000000
00000001
00000000
00000100
00000000
00000010
00000000
,
00010000
00000100
00010000
00001000
00100000
00010000
00100000
00000000
,
01000000
10000000
01000000
10000000
01000000
00000000
00100000
00000000
00010000
00000000
00110000
00000000
00000000
00000000
00000000
00000000
,
00001000
00010000
00001000
00010000
00001000
00000000
00010000
00000000
00000100
00000000
00001100
00000000
00000000
00000000
00000000
00000000
,
00000010
00000001
00000100
00001000
00010000
00100000
01000000
00001000
,
00010000
01000000
00010000
00001000
00000010
00000001
00001000
00000000
,
00000010
00000100
00000010
00000000
00001000
00000010
00001000
00000010
00010000
00000000
00010010
00000000
00000000
00010000
00000000
00001000
,
00100000
00010000
01000000
00010000
10000000
01000000
00100000
00000000
,
00010000
00100000
00010000
00000000
10000000
00100000
10000000
00100000
01000000
00000000
01100000
00000000
00000000
00001000
00000000
00010000
,
00000010
00001000
00000010
00000100
00000010
00000001
00000010
00000000
,
00001000
00000000
00000001
00000000
00000010
00000100
00000010
00000100
00000010
00000000
00000011
00000000
00000000
00001000
00000000
00000010
,
00010000
00000000
00001000
00000000
01000000
00001000
01000000
00010000
01000000
00000000
10010000
00000000
00000000
00000000
00000000
00000000
,
10000000
00100000
00010000
00001000
00010000
00001000
00000100
00000001
,
00000010
00001000
00000010
00001000
00010000
00001000
00010000
00000000
,
00022000
00000000
00000000
00033000
,
00000000
00101000
00000000
00110000
00000000
10000000
01000000
00100000
,
00001000
00010000
00001000
00000000
00010000
00000000
00000100
00000000
00000010
00000001
00000010
00000000
00000001
00000000
00000100
00000000
,
00000010
00010000
00000010
00000000
00010000
00001000
00010000
00000000
00001000
01000000
00010000
00000000
00100000
00000000
00000000
00000000
,
02200000
00000000
00000000
00000000
,
00000000
00000000
00000000
00000000
,
00000000
00000000
00000000
00000000
,
00000000
00000000
00000000
00000000
,
03300000
00000000
00000000
00000000
,
00000000
00000000
00000000
00000000
;
