
//----- song ID: stev -----//
#TITLE:Stay 4 Ever;
#ARTIST:CHEAP CREAM;
#BANNER:Stay 4 Ever.png;
#BACKGROUND:Stay 4 Ever-bg.png;
#CDTITLE:./CDTitles/DDR A20.png;
#MUSIC:Stay 4 Ever.ogg;
#SAMPLESTART:57.006;
#SAMPLELENGTH:15;
#BPMS:0=140;
#NOTES:
     dance-single:
     :
     Beginner:
     2:
     :
0000
0000
0000
0000
,
0000
0000
0000
0000
,
0000
0000
0000
0000
,
0000
0000
0000
0000
,
0000
0000
0000
0000
,
0000
0000
0000
0000
,
0000
0000
0000
0000
,
0000
0000
0000
0000
,
0000
0000
0000
0000
,
0100
0000
0001
0000
,
0100
0000
0001
0000
,
1000
0000
0010
0000
,
1000
0000
0010
0000
,
0100
0000
0010
0000
,
0100
0000
0010
0000
,
1000
0000
0001
0000
,
1001
0000
0000
0000
,
0010
0000
0010
0000
,
1000
0000
1000
0000
,
0001
0000
0100
0000
,
0010
0000
0010
0000
,
1000
0000
1000
0000
,
0001
0000
0001
0000
,
1000
0000
0001
0000
,
1001
0000
0000
0000
,
1000
0000
0000
0000
,
0100
0000
0000
0000
,
0010
0000
0000
0000
,
0001
0000
0000
0000
,
1000
0000
0010
0000
,
1000
0000
0010
0000
,
0100
0000
0001
0000
,
0200
0000
0300
0000
,
0001
0000
0100
0000
,
0001
0000
0100
0000
,
0010
0000
1000
0000
,
0010
0000
1000
0000
,
0001
0000
1000
0000
,
0001
0000
1000
0000
,
0010
0000
0000
0000
,
0100
0000
0000
0000
,
0010
0000
1000
0000
,
0001
0000
0100
0000
,
0010
0000
1000
0000
,
0001
0000
0100
0000
,
1000
0000
1000
0000
,
0001
0000
0001
0000
,
0100
0000
0000
0000
,
0010
0000
0000
0000
,
1000
0000
0100
0000
,
1000
0000
0100
0000
,
0010
0000
0001
0000
,
0010
0000
0001
0000
,
0100
0000
0001
0000
,
0100
0000
0001
0000
,
1000
0000
0010
0000
,
1000
0000
0000
0000
,
1001
0000
0000
0000
,
0000
0000
0000
0000
;
#NOTES:
     dance-single:
     :
     Easy:
     5:
     :
0000
0000
0000
0000
,
0000
0000
0000
0000
,
0000
0000
0000
0000
,
0000
0000
0000
0000
,
0000
0000
0000
0000
,
0000
0000
0000
0000
,
0000
0000
0000
0000
,
0000
0000
0000
0000
,
0000
0000
0000
0000
,
0001
0010
0001
1000
,
0010
1000
0010
0100
,
0001
1000
0001
0010
,
0100
1000
0100
0010
,
0001
0100
0001
1000
,
0010
0100
0010
1000
,
0001
0010
0100
1000
,
1001
0000
0110
0000
,
1000
0100
1000
0001
,
0010
0001
0100
0010
,
1000
0001
0100
0010
,
0110
0000
1001
0000
,
0010
0001
1000
0100
,
0010
0100
1000
0001
,
1001
0000
0110
0000
,
0002
0003
2000
3000
,
0010
0000
1000
1000
,
0001
0000
0100
0100
,
0001
0000
0010
0010
,
0100
0000
1000
1000
,
0001
0010
0100
1000
,
0010
1000
0001
0100
,
0001
0001
1000
1000
,
0200
0000
0000
0300
,
0001
0100
0001
0100
,
0010
1000
0010
1000
,
0001
0100
0010
1000
,
0100
0010
0001
1000
,
0010
1000
0010
1000
,
0001
0100
0001
0100
,
0020
0000
2030
0000
,
3001
0010
0100
1000
,
0001
1000
0010
0100
,
1001
0000
0110
0000
,
0100
0010
1000
0001
,
0110
0000
1001
0000
,
0010
1000
0100
0010
,
0001
0100
0010
1000
,
0002
0000
0000
0000
,
2000
0000
0000
3003
,
0010
1000
0010
0100
,
0001
0010
0001
1000
,
0100
0010
0100
1000
,
0001
0010
0100
1000
,
0001
1000
0001
0100
,
0010
1000
0100
0010
,
0001
0100
0010
1000
,
0100
0010
0001
1000
,
1001
0000
0000
0000
,
0000
0000
0000
0000
;
#NOTES:
     dance-single:
     :
     Medium:
     9:
     :
0000
0000
0000
0000
,
0000
0000
0000
0000
,
0000
0000
0000
0000
,
0000
0000
0000
0000
,
0000
0000
0000
0000
,
0000
0000
0000
0000
,
0000
0000
0000
0000
,
0000
0000
0000
0000
,
0000
0000
0000
0000
,
1000
0010
1000
0000
0001
0000
1001
0000
,
0100
0001
0100
0000
0001
0010
0001
0000
,
0100
0010
0100
0000
0001
0000
1010
0000
,
1000
0100
1000
0000
0001
0000
0010
0000
,
0001
0100
1000
0000
0100
0000
0110
0000
,
1000
0100
0001
0000
0100
1000
0001
0000
,
0010
0001
0100
0000
0010
0000
1001
0000
,
1000
0010
0100
0000
0001
0000
1000
0000
,
0010
0101
0001
1010
,
0001
0000
0100
0000
0010
1000
0010
0000
,
1000
0001
0100
0000
0010
1000
0100
0000
,
0010
0011
0100
1100
,
0010
1001
1000
0110
,
0001
0000
0001
0000
0010
0100
0010
0000
,
0001
0000
1000
0100
0000
0001
1000
0001
,
0200
0300
0020
0030
,
1000
0000
0000
1000
0000
0000
1000
0000
0000
0000
0000
0000
0110
0000
0000
0000
,
0001
0000
0000
0001
0000
0000
0001
0000
0000
0000
0000
0000
1100
0000
0000
0000
,
0010
0000
0000
0010
0000
0000
0010
0000
0000
0000
0000
0000
1001
0000
0000
0000
,
0100
0000
0000
0100
0000
0000
0100
0000
0000
0000
0000
0000
0011
0000
0000
0000
,
0001
0010
0001
0000
1000
0100
1000
0000
,
0010
1000
0010
0000
0100
0001
0100
0000
,
0001
0100
1000
0000
1000
0100
0001
0100
,
0020
0000
0000
0030
,
0100
0000
0001
0010
0100
0000
1000
0000
,
0001
0010
0001
0000
1000
0100
1000
0000
,
0010
0000
1000
0010
0100
0000
0001
0000
,
1000
0100
1000
0000
0001
0010
0001
0000
,
0100
0000
0010
1000
0100
0000
0010
0000
,
0001
1000
0100
0000
0010
0001
1000
0000
,
0002
1000
0203
0010
,
0301
1000
1001
0110
,
1000
0010
1000
0000
0010
0000
0100
0000
,
0001
0010
0100
0000
1000
0001
0100
0000
,
0010
1000
0001
0000
0100
0000
0010
0000
,
1000
0000
0001
0000
1000
0010
1000
0000
,
0001
0010
0100
1000
,
0001
0000
0100
0000
0010
1000
0100
0000
,
0010
0100
0010
0001
,
2002
0000
0000
3003
,
0001
0100
0001
0000
1000
0000
0010
0000
,
1000
0001
1000
0100
0000
0010
0001
0000
,
1000
0010
1000
0000
0001
0000
0100
0000
,
0001
0010
0001
0100
0000
0010
1000
0000
,
0010
1000
0100
0000
1000
0000
0010
0000
,
0100
0001
0100
0010
0000
1000
0001
0000
,
0100
0001
0010
0000
0100
0000
0010
0000
,
0001
1000
0001
0100
0000
0010
1000
0000
,
1001
0000
0000
0000
,
0000
0000
0000
0000
;
#NOTES:
     dance-single:
     :
     Hard:
     11:
     :
0000
0000
0000
0000
,
0000
0000
0000
0000
,
0000
0000
0000
0000
,
0000
0000
0000
0000
,
0000
0000
0000
0000
,
0000
0000
0000
0000
,
0000
0000
0000
0000
,
0000
0000
0000
0000
,
0000
0000
0000
0000
,
0001
0100
0001
1000
0010
0000
1010
0000
,
1000
0010
1000
0100
0000
0010
0001
1000
,
0010
1000
0010
0100
0001
0000
1010
0000
,
0010
0000
1000
0000
0010
0000
0100
0000
0000
0001
0010
0000
0001
0000
0000
0000
,
1000
0100
1000
0001
0010
0000
1001
0000
,
0001
0010
0001
0100
0000
0010
1000
0001
,
0010
0001
0010
0100
1000
0000
1001
0000
,
0010
0000
0001
0000
0010
0000
0100
0000
0000
1000
0100
0000
1000
0000
0000
0000
,
0002
0103
0020
1030
,
1000
0010
1000
0010
0100
0001
0100
0000
,
0001
0100
1000
0000
0100
0001
1000
0100
,
0010
0011
1000
1001
,
0020
1030
0002
0103
,
0100
0001
0100
0001
1000
0010
1000
0000
,
0001
0010
1000
0010
0000
0001
1000
0100
,
0020
0031
0200
0310
,
1000
0000
0000
0001
0000
0000
0100
0000
0000
0010
0000
0000
0100
0000
0100
0000
,
0001
0000
0000
0010
0000
0000
0100
0000
0000
1000
0000
0000
0010
0000
0010
0000
,
1000
0000
0000
0010
0000
0000
0100
0000
0000
0001
0000
0000
1000
0000
1000
0000
,
0001
0000
0000
1000
0000
0000
0100
0000
0000
0010
0000
0000
0001
0000
0001
0000
,
1000
0000
0010
0000
0100
0001
0000
0100
0010
0000
0100
0001
0000
1000
0010
0000
,
1000
0000
0100
0000
0010
0001
0000
0010
0100
0000
0010
0001
0000
1000
0100
0000
,
1000
1000
0010
0100
0001
0001
1000
0010
,
2020
0000
0000
3030
,
1000
0000
0000
1000
0000
0000
0010
0000
0100
0000
0000
0100
0000
0000
0001
0000
,
0010
0001
1000
0100
0000
0001
0100
1000
,
0100
0000
0000
0100
0000
0000
0010
0000
1000
0000
0000
1000
0000
0000
0001
0000
,
1000
0100
1000
0010
0000
1000
0001
0000
,
0010
0000
0000
0010
0000
0000
0001
0000
1000
0000
0000
1000
0000
0000
0100
0000
,
1000
0010
1000
0001
0000
1000
0001
0100
,
0020
0000
0000
0230
0000
0000
0301
2000
,
0000
0000
3100
0000
0010
0001
1000
0001
,
0100
0000
1001
0000
1010
0000
0100
0010
,
1000
0100
0010
0000
0001
0100
1000
0100
,
0001
1000
0010
0000
0101
0000
1001
0000
,
0001
0000
0000
0010
0000
0000
0100
0000
0000
0000
1000
0000
0010
0000
0000
0000
,
1000
0001
0200
0000
0320
0000
1030
0002
,
0000
0000
0103
0000
1000
0001
0200
0000
,
0320
0000
0000
2030
0000
0000
3001
0200
,
0000
0000
0000
0300
,
0010
0000
1000
0000
0010
0000
0100
0000
0001
0000
0000
1000
0000
0000
0100
0000
,
0010
0000
0001
0000
1000
0000
0100
0000
0000
1000
0001
0000
0101
0000
0000
0000
,
0001
0000
1000
0000
0001
0000
0100
0000
0010
0000
0000
1000
0000
0000
0001
0000
,
1000
0000
0010
0000
0100
0000
0001
0000
0000
0010
0001
0000
0101
0000
0000
0000
,
1000
0000
0001
0000
1000
0000
0100
0000
0010
0000
0000
0001
0000
0000
1000
0000
,
0010
0000
1000
0000
0010
0000
0100
0000
0000
0001
1000
0000
1010
0000
0000
0000
,
0100
0000
0001
0000
0100
0000
0010
0000
1000
0000
0000
0100
0000
0000
0010
0000
,
0001
0000
0100
0000
1000
0000
0100
0000
0000
0010
1000
0000
0001
0000
0000
0000
,
1001
0000
0000
0000
,
0000
0000
0000
0000
;
#NOTES:
     dance-double:
     :
     Easy:
     5:
     :
00000000
00000000
00000000
00000000
,
00000000
00000000
00000000
00000000
,
00000000
00000000
00000000
00000000
,
00000000
00000000
00000000
00000000
,
00000000
00000000
00000000
00000000
,
00000000
00000000
00000000
00000000
,
00000000
00000000
00000000
00000000
,
00000000
00000000
00000000
00000000
,
00000000
00000000
00000000
00000000
,
00001000
00010000
00001000
00100000
,
00010000
01000000
00100000
10000000
,
00010000
01000000
00100000
10000000
,
01000000
00010000
00001000
00010000
,
00000100
00001000
00000010
00000100
,
00000001
00001000
00000100
00000010
,
00000001
00000100
00001000
00010000
,
00001000
00000000
00011000
00000000
,
00001000
00010000
00001000
01000000
,
00010000
00100000
00010000
10000000
,
00100000
10000000
00100000
01000000
,
01100000
00000000
10010000
00000000
,
10000000
01000000
10000000
00010000
,
00100000
00010000
00100000
00001000
,
00011000
00000000
00001100
00000000
,
00000002
00000003
00000200
00000300
,
00000010
00000000
00000100
00000100
,
00000001
00000000
00001000
00001000
,
00000100
00000000
00010000
00010000
,
00001000
00000000
00100000
00100000
,
00010000
10000000
01000000
00010000
,
00001000
00000100
00000001
00000100
,
00000010
00000010
00001000
00001000
,
00000200
00000000
00000000
00000300
,
00001000
00000100
00010000
00001000
,
00100000
00010000
01000000
00100000
,
10000000
00010000
00100000
01000000
,
10000000
01000000
00010000
00001000
,
00000100
00000001
00000100
00000001
,
00001000
00000100
00001000
00000100
,
00020000
00000000
00032000
00000000
,
00013000
00001000
01000000
00010000
,
10000000
00100000
01000000
00010000
,
10000000
00000000
10010000
00000000
,
10000000
01000000
00010000
00001000
,
00000100
00000000
00001001
00000000
,
00000010
00001000
00000001
00000100
,
00001000
00010000
00001000
00100000
,
00020000
00000000
00000000
00000000
,
20000000
00000000
00000000
30030000
,
10000000
00100000
10000000
00010000
,
01000000
00001000
00010000
00000010
,
00001000
00000010
00001000
00000001
,
00001000
00000010
00010000
00001000
,
00010000
00001000
00100000
00010000
,
01000000
00100000
10000000
00100000
,
10000000
00010000
01000000
00001000
,
00010000
00000100
00001000
00000001
,
00001001
00000000
00000000
00000000
,
00000000
00000000
00000000
00000000
;
#NOTES:
     dance-double:
     :
     Medium:
     9:
     :
00000000
00000000
00000000
00000000
,
00000000
00000000
00000000
00000000
,
00000000
00000000
00000000
00000000
,
00000000
00000000
00000000
00000000
,
00000000
00000000
00000000
00000000
,
00000000
00000000
00000000
00000000
,
00000000
00000000
00000000
00000000
,
00000000
00000000
00000000
00000000
,
00000000
00000000
00000000
00000000
,
01000000
00010000
01000000
00000000
10000000
00000000
10010000
00000000
,
00010000
00100000
00010000
00000000
10000000
01000000
00010000
00000000
,
00001000
00010000
00001000
00000000
00010000
00000000
00011000
00000000
,
00000010
00001000
00000010
00000000
00001000
00000000
00000001
00000000
,
00001000
00000100
00001000
00000000
00000001
00000000
00001001
00000000
,
00001000
00000010
00001000
00000000
00000001
00000100
00001000
00000000
,
00010000
00001000
00010000
00000000
00001000
00000000
00011000
00000000
,
00100000
00010000
01000000
00000000
00100000
00000000
10000000
00000000
,
00010000
01010000
00100000
00011000
,
00001000
00000000
00010000
00000000
00000010
00001000
00000100
00000000
,
00001000
00000010
00001000
00000000
00000001
00000100
00000001
00000000
,
00001000
00001100
00000010
00000110
,
00010000
00011000
00100000
00110000
,
00010000
00000000
10000000
00000000
00100000
10000000
00100000
00000000
,
10000000
00000000
01000000
00010000
00000000
00001000
00000100
00000001
,
00000200
00000300
00000020
00000030
,
00001000
00000000
00000000
00001000
00000000
00000000
00001000
00000000
00000000
00000000
00000000
00000000
00001010
00000000
00000000
00000000
,
00010000
00000000
00000000
00010000
00000000
00000000
00010000
00000000
00000000
00000000
00000000
00000000
00011000
00000000
00000000
00000000
,
00100000
00000000
00000000
00100000
00000000
00000000
00100000
00000000
00000000
00000000
00000000
00000000
01100000
00000000
00000000
00000000
,
10000000
00000000
00000000
10000000
00000000
00000000
10000000
00000000
00000000
00000000
00000000
00000000
10010000
00000000
00000000
00000000
,
10000000
01000000
00010000
00000000
00001000
00000100
00000001
00000000
,
00000001
00000010
00001000
00000000
00010000
00100000
10000000
00000000
,
10000000
00100000
01000000
00000000
00010000
00100000
00001000
00010000
,
00000200
00000000
00000000
00000300
,
00001000
00000000
00000001
00000010
00000001
00000000
00000100
00000000
,
00000010
00001000
00000100
00000000
00010000
00001000
00010000
00000000
,
00001000
00000000
00100000
00010000
01000000
00000000
00010000
00000000
,
10000000
00100000
10000000
00000000
01000000
10000000
00010000
00000000
,
10000000
00000000
00010000
10000000
01000000
00000000
00100000
00000000
,
00001000
00010000
00001000
00000000
00010000
00000100
00001000
00000000
,
00000002
00000100
00002003
00000010
,
00003100
00010000
00011000
01010000
,
00100000
01000000
00100000
00000000
10000000
00000000
00010000
00000000
,
10000000
01000000
00010000
00000000
00001000
00000100
00000001
00000000
,
00001000
00000010
00001000
00000000
00000001
00000000
00001000
00000000
,
00000100
00000000
00000010
00000000
00000001
00000100
00001000
00000000
,
00010000
01000000
10000000
00100000
,
01000000
00000000
00001000
00000000
00010000
00000100
00001000
00000000
,
00000010
00000100
00000010
00001000
,
00002200
00000000
00000000
00003300
,
00010000
00001000
00010000
00000000
00001000
00000000
00100000
00000000
,
00010000
10000000
00010000
01000000
00000000
00100000
10000000
00000000
,
00100000
01000000
00100000
00000000
10000000
00000000
00010000
00000000
,
00100000
00010000
00100000
00001000
00000000
00010000
00000100
00000000
,
00001000
00000010
00001000
00000000
00000001
00000000
00000100
00000000
,
00000001
00001000
00000010
00001000
00000000
00000100
00010000
00000000
,
00001000
00100000
00010000
00000000
10000000
00000000
00100000
00000000
,
01000000
00010000
00100000
00001000
00000000
00010000
00001000
00000000
,
00011000
00000000
00000000
00000000
,
00000000
00000000
00000000
00000000
;
#NOTES:
     dance-double:
     :
     Hard:
     11:
     :
00000000
00000000
00000000
00000000
,
00000000
00000000
00000000
00000000
,
00000000
00000000
00000000
00000000
,
00000000
00000000
00000000
00000000
,
00000000
00000000
00000000
00000000
,
00000000
00000000
00000000
00000000
,
00000000
00000000
00000000
00000000
,
00000000
00000000
00000000
00000000
,
00000000
00000000
00000000
00000000
,
00000001
00001000
00000001
00000100
00000010
00000000
00011000
00000000
,
00100000
00010000
00100000
01000000
00000000
10000000
00010000
10000000
,
00100000
01000000
00010000
01000000
00001000
00000000
00011000
00000000
,
00010000
00000000
00000100
00000000
00001000
00000000
00000010
00000000
00000000
00000100
00000001
00000000
00001000
00000000
00000000
00000000
,
00000010
00001000
00000001
00000100
00001000
00000000
00011000
00000000
,
01000000
00010000
10000000
01000000
00000000
00100000
00010000
10000000
,
01000000
00010000
00001000
00010000
00000100
00000000
00001100
00000000
,
00010000
00000000
00000010
00000000
00001000
00000000
00000100
00000000
00000000
00001000
00000001
00000000
00000010
00000000
00000000
00000000
,
00000002
00001003
00000020
00000130
,
00000001
00000100
00001000
00010000
01000000
10000000
00100000
00000000
,
10000000
01000000
00100000
00000000
00010000
10000000
00100000
00010000
,
00001000
00011000
00000100
00001100
,
00002000
00003001
00000200
00000310
,
00001000
00000010
00010000
00001000
00100000
00010000
01000000
00000000
,
10000000
00100000
00010000
00001000
00000000
00010000
00001000
00000100
,
00000002
00001003
00002000
00003100
,
00010000
00000000
00000000
00001000
00000000
00000000
01000000
00000000
00000000
00010000
00000000
00000000
00100000
00000000
00100000
00000000
,
00010000
00000000
00000000
10000000
00000000
00000000
01000000
00000000
00000000
00100000
00000000
00000000
00010000
00000000
00010000
00000000
,
01000000
00000000
00000000
00001000
00000000
00000000
00010000
00000000
00000000
00000100
00000000
00000000
00001000
00000000
00001000
00000000
,
00000010
00000000
00000000
00001000
00000000
00000000
00000001
00000000
00000000
00000100
00000000
00000000
00000010
00000000
00000010
00000000
,
00001000
00000000
00000001
00000000
00000100
00000010
00000000
00001000
00000100
00000000
00010000
00001000
00000000
00100000
00010000
00000000
,
10000000
00000000
00100000
00000000
01000000
00010000
00000000
00100000
00001000
00000000
00010000
00000100
00000000
00001000
00000010
00000000
,
00000100
00000001
00000010
00001000
00010000
00100000
10000000
00010000
,
20020000
00000000
00000000
30030000
,
00010000
00000000
00000000
00010000
00000000
00000000
10000000
00000000
01000000
00000000
00000000
01000000
00000000
00000000
00010000
00000000
,
00001000
00000100
00000001
00000100
00000000
00000010
00001000
00000100
,
00000010
00000000
00000000
00000010
00000000
00000000
00000001
00000000
00001000
00000000
00000000
00001000
00000000
00000000
00000001
00000000
,
00000100
00001000
00010000
01000000
00000000
10000000
00010000
00000000
,
01000000
00000000
00000000
01000000
00000000
00000000
00010000
00000000
00100000
00000000
00000000
00100000
00000000
00000000
01000000
00000000
,
10000000
00100000
01000000
00001000
00000000
00010000
00000100
00001000
,
00000020
00000000
00000000
00000230
00000000
00000000
00000301
00002000
,
00000000
00000000
00003010
00000000
00000001
00001000
00000001
00000100
,
00001000
00000000
00011000
00000000
00110000
00000000
00010000
01000000
,
00100000
10000000
00100000
00000000
10000000
00100000
00010000
00001000
,
00000010
00000001
00000010
00000000
00000011
00000000
00001001
00000000
,
00000001
00000000
00000000
00001000
00000000
00000000
00000100
00000000
00000000
00000000
00010000
00000000
00001000
00000000
00000000
00000000
,
01000000
00100000
20000000
00000000
32000000
00000000
03010000
00002000
,
00000000
00000000
00013000
00000000
00000010
00001000
00000002
00000000
,
00000203
00000000
00000000
00002300
00000000
00000000
00013000
02000000
,
00000000
00000000
00000000
03000000
,
10000000
00000000
00100000
00000000
01000000
00000000
00001000
00000000
00010000
00000000
00000000
00000100
00000000
00000000
00001000
00000000
,
00000001
00000000
00000100
00000000
00000010
00000000
00001000
00000000
00000000
00000100
00001000
00000000
00000010
00000000
00000000
00000000
,
00000100
00000000
00000001
00000000
00001000
00000000
00000010
00000000
00010000
00000000
00000000
00001000
00000000
00000000
00010000
00000000
,
00001000
00000000
00100000
00000000
00010000
00000000
01000000
00000000
00000000
00100000
10000000
00000000
01000000
00000000
00000000
00000000
,
10000000
00000000
01000000
00000000
00010000
00000000
00001000
00000000
00000100
00000000
00000000
00000001
00000000
00000000
00000100
00000000
,
00001000
00000000
00010000
00000000
00001000
00000000
00100000
00000000
00000000
00010000
01000000
00000000
00100000
00000000
00000000
00000000
,
10000000
00000000
01000000
00000000
00100000
00000000
00010000
00000000
01000000
00000000
00000000
00010000
00000000
00000000
10000000
00000000
,
01000000
00000000
00010000
00000000
00001000
00000000
00000100
00000000
00000000
00000001
00000100
00000000
00000010
00000000
00000000
00000000
,
00001001
00000000
00000000
00000000
,
00000000
00000000
00000000
00000000
;
