
//----- song ID: stsk -----//
#TITLE:Starry Sky;
#ARTIST:DJ Genki feat. Mayumi Morinaga;
#BANNER:Starry Sky.png;
#BACKGROUND:Starry Sky-bg.png;
#CDTITLE:./CDTitles/DDR A20.png;
#MUSIC:Starry Sky.ogg;
#SAMPLESTART:91.162;
#SAMPLELENGTH:15;
#BPMS:0=150;
#NOTES:
     dance-single:
     :
     Beginner:
     2:
     :
0000
0000
0000
0000
,
0000
0000
0000
0000
,
0000
0000
0000
0000
,
0000
0000
0000
0000
,
0000
0000
0000
0000
,
0002
0000
0003
0000
,
2000
0000
3000
0000
,
0020
0000
0030
0000
,
0200
0000
0300
0000
,
0001
0000
0000
0000
,
1000
0000
0000
0000
,
0001
0000
0000
0000
,
1000
0000
0000
0000
,
0010
0000
0000
0000
,
0100
0000
0000
0000
,
0010
0000
0000
0000
,
0100
0000
0000
0000
,
0010
0000
1000
0000
,
0100
0000
0010
0000
,
0001
0000
0000
0000
,
1000
0000
0000
0000
,
0010
0000
0001
0000
,
0100
0000
0010
0000
,
1000
0000
0000
0000
,
0001
0000
0000
0000
,
2002
0000
0000
0000
,
0000
0000
3003
0000
,
0010
0000
0000
0000
,
0100
0000
0000
0000
,
0001
0000
0000
0000
,
1000
0000
0000
0000
,
0010
0000
0000
0000
,
0100
0000
0000
0000
,
0001
0000
0001
0000
,
0100
0000
0100
0000
,
1000
0000
1000
0000
,
0010
0000
0010
0000
,
0001
0001
0001
0000
,
1000
1000
1000
0000
,
0001
0000
1000
0000
,
2002
0000
0000
3003
,
0000
0000
0010
0000
,
1000
0000
0100
0000
,
0001
0000
0010
0000
,
1000
0000
0001
0000
,
0000
0000
0010
0000
,
1000
0000
0010
0000
,
0001
0000
1000
0000
,
2002
0000
0000
3003
,
0000
0000
0100
0100
,
0000
0000
0010
0010
,
0000
0000
1000
1000
,
0000
0000
0001
0001
,
0001
0000
0001
0000
,
1000
0000
1000
0000
,
0001
0000
1000
0000
,
2002
0000
3003
0000
,
0010
0010
0010
0000
,
0100
0100
0100
0000
,
0001
0000
0010
0000
,
0100
0000
1000
0000
,
0010
0010
0010
0000
,
0100
0100
0100
0000
,
1000
0000
0010
0000
,
0200
0000
0300
0000
,
0001
0001
0001
0000
,
1000
1000
1000
0000
,
0010
0000
1000
0000
,
0100
0000
0001
0000
,
1000
1000
1000
0000
,
0001
0001
0001
0000
,
1000
0000
0001
0000
,
1001
0000
0000
0000
,
2002
0000
0000
0000
,
0000
0000
0000
0000
,
0000
0000
0000
0000
,
0000
0000
0000
3003
,
0000
0000
0000
0000
;
#NOTES:
     dance-single:
     :
     Easy:
     6:
     :
0000
0000
0000
0000
,
0000
0000
0000
0000
,
0000
0000
0000
0000
,
0000
0000
0000
0000
,
0000
0000
0000
0000
,
2000
0000
3010
0000
,
0002
0000
0013
0000
,
0200
0000
0310
0000
,
0100
0100
0100
0010
,
1000
0000
0100
0000
,
0010
0000
0001
0000
,
2000
0000
3100
0000
,
0002
0000
0103
0000
,
0001
0000
0010
0000
,
0100
0000
1000
0000
,
0002
0000
0013
0000
,
2000
0000
0001
3001
,
0010
0001
0100
0000
,
0010
1000
0100
0000
,
1000
1000
0010
0000
,
0001
0001
0010
0000
,
0100
1000
0010
0000
,
0100
0001
0010
0000
,
0110
0000
0000
1001
0000
0000
0000
0220
,
0000
0000
0330
0000
,
0001
0000
0000
1000
0000
0000
0000
0002
,
0000
0000
0000
0003
,
1000
0000
0000
0001
0000
0000
0000
2000
,
0000
0000
3100
0000
,
0010
0000
0000
0100
0000
0000
0000
0020
,
0000
0000
0000
0030
,
0100
0000
0000
0010
0000
0000
0000
0200
,
0000
0000
1300
0000
,
0010
0010
1000
0000
,
0010
0010
0001
0000
,
1000
0100
0001
0000
,
1000
0010
0001
0000
,
1000
0100
0001
0010
,
1000
0100
0001
0010
,
0100
0010
0100
0010
,
2002
0000
3003
0110
,
0000
1000
0010
0100
,
0010
0100
0010
0100
,
1000
0001
0010
0100
,
0010
0100
0020
0000
,
0030
0001
0010
1000
,
0010
0001
0010
1000
,
0001
1000
0010
0100
,
2002
0000
3003
0110
,
0000
1001
0100
0010
,
0001
0100
0010
1000
,
0000
1001
0100
0010
,
1000
0100
0010
0001
,
1000
0010
1000
0110
,
0001
0010
0001
0110
,
1000
0010
0001
0100
,
2002
0000
3003
0110
,
1000
0001
1000
0100
,
0010
0001
0100
0001
,
1000
0010
0001
0100
,
2000
0010
3010
0000
,
0001
1000
0001
0100
,
0010
1000
0100
1000
,
0001
0010
1000
0100
,
0020
0030
0110
1001
,
0010
1000
0001
1000
,
0100
0010
0001
0100
,
0010
1000
0001
1000
,
0110
1001
0110
0000
,
2000
0010
0010
3010
,
0002
0013
2000
3010
,
0110
0000
0000
1001
0000
0000
0000
0220
,
0000
0000
0330
0000
,
2000
0000
0000
0000
,
0000
0000
0000
3000
,
0002
0000
0000
0000
,
0000
0000
0000
0003
,
0000
0000
0000
0000
;
#NOTES:
     dance-single:
     :
     Medium:
     9:
     :
0000
0000
0000
0000
,
0000
0000
0000
0000
,
0000
0000
0000
0000
,
0000
0000
0000
0000
,
0000
0000
0000
0000
,
0010
0000
0000
0001
0000
0000
0100
0000
,
0000
0010
0000
0000
1000
0000
0000
0000
,
0002
0000
0000
2000
0000
0000
3003
0000
,
0010
0000
0000
0010
0000
0000
0010
0000
0100
0000
0000
0000
0100
0000
0000
0000
,
0010
0000
0000
1000
0000
0000
0001
0000
,
0000
0020
0000
0000
0002
0000
0033
0000
,
1000
0000
0001
0100
0000
0010
0000
1000
,
0000
0010
0000
0100
0002
0000
0003
0000
,
0010
0000
0000
0001
0000
0000
1000
0000
,
0000
0020
0000
0000
2000
0000
3030
0000
,
0001
0000
1000
0100
0000
0010
0000
0012
,
0000
0000
1000
1003
,
0010
0000
1000
0001
0100
0000
0000
0000
,
0010
1000
0001
0000
0010
0000
0000
0000
,
0100
0000
0010
0001
0100
0000
0000
0000
,
0010
1000
0100
0000
0010
0000
0000
0000
,
0100
0000
1000
0001
0100
0000
0000
0000
,
0010
1000
0001
0000
1000
0000
0000
0000
,
0110
0000
0001
1000
0000
0110
0000
2002
,
0000
0000
3003
0000
,
1000
0000
0000
0010
0000
1000
0001
0100
,
0000
1100
0000
0202
0000
0000
0303
0000
,
0010
0000
1000
0100
0000
0010
0000
0001
,
0000
0001
0000
1000
0200
0000
0300
0000
,
0001
0000
0000
0010
0000
0001
1000
0010
,
0000
0101
0000
2020
0000
0000
3030
0000
,
0001
0000
1000
0100
0000
0010
0100
0020
,
0000
0030
0200
0300
,
0001
0001
0100
0100
,
1000
1000
0010
0010
,
0001
0100
1000
0010
,
0001
0100
1000
0010
,
0001
0100
0001
0000
1000
0100
1000
0000
,
0001
0010
0001
0000
1000
0010
1000
0000
,
0100
0010
0100
0010
0100
0010
0100
0000
,
1002
0000
0000
0013
,
0000
0000
0001
0000
0010
0001
0100
0000
,
0010
1000
0100
0000
0010
0001
0100
0000
,
0001
0000
1000
0000
0100
1000
0010
0000
,
0100
0001
0010
0000
0200
0000
0000
0000
,
0300
0000
1000
0000
0010
0100
0001
0000
,
0010
0100
1000
0000
0010
0100
0001
0000
,
1000
0000
0001
0000
0010
0001
0100
0000
,
2001
0000
0000
3010
,
0000
0000
0000
1001
0000
0000
0100
0000
0100
0010
0000
0000
,
1000
0000
1000
0100
0000
0000
0010
0000
0010
0001
0000
0000
,
0000
0000
0000
1001
0000
0000
0100
0000
0100
0010
0000
0000
,
0001
0000
0001
0100
0000
0000
0010
0000
0010
1000
0000
0000
,
0001
0000
0001
1000
0000
0000
0001
0000
0001
0100
0000
0000
,
1000
0000
1000
0001
0000
0000
1000
0000
1000
0100
0000
0000
,
0001
0100
0010
0000
1000
0100
0010
0000
,
1002
0000
0000
0103
,
0010
0000
1000
0000
0001
1000
0100
0000
,
0010
0001
0100
0000
0010
0000
1000
0000
,
0001
0000
1000
0002
0000
0010
0000
1000
,
0000
0103
0000
0010
2000
0000
3001
0000
,
0010
0000
0001
0000
1000
0001
0100
0000
,
0010
1000
0100
0000
0010
0000
0001
0000
,
1000
0000
0001
2000
0000
0010
0000
3001
,
0000
1000
0110
1001
,
0010
0000
0001
0000
1000
0100
0001
0000
,
0001
0100
1000
0000
0001
0000
0100
0000
,
0010
0000
1000
0020
0000
1000
0000
0100
,
0000
1030
0000
0001
2000
0000
3001
0000
,
0010
0000
1000
0000
0001
0100
1000
0000
,
1000
0100
0001
0000
1000
0000
0100
0000
,
0001
0000
0010
0100
0000
1100
0000
0202
,
0000
0000
0000
0303
0000
0010
1000
0000
,
0002
0000
0000
0000
,
0000
0000
0000
0000
,
2003
0000
0000
0000
,
0000
0000
0000
3000
,
0000
0000
0000
0000
;
#NOTES:
     dance-single:
     :
     Hard:
     12:
     :
0000
0000
0000
0000
,
0000
0000
0000
0000
,
0000
0000
0000
0000
,
0000
0000
0000
0000
,
0000
0000
0000
0000
,
0010
0000
0000
1000
0001
0000
0010
0000
,
0100
0010
0001
0000
1000
0000
0100
0000
,
0010
0010
0010
0001
0001
0001
1000
1000
,
0010
0000
0000
0100
0000
0000
0001
0000
0010
0000
0100
0000
1001
0000
0000
0000
,
0010
0000
0010
1000
0000
1000
0100
0000
,
0100
0001
0000
0001
0100
0000
0100
0000
,
1000
0100
0010
0001
0000
1100
0000
0101
,
0000
0011
0000
1000
0002
0000
0003
0000
,
0010
0000
0010
0001
0000
0001
0100
0000
,
0100
1000
0000
1000
0100
0000
0100
0000
,
0001
0100
0010
1000
0000
0101
0000
2010
,
0000
0000
0001
3001
,
0010
0000
0001
1000
0100
0000
0001
0000
,
0100
1000
0001
0000
1000
0000
1000
0000
,
0010
0000
1000
0010
0001
0000
0010
0000
,
1000
0001
0100
0000
0010
0000
0000
0000
,
0100
0000
0001
1000
0010
0000
0001
0000
,
0010
1000
0001
0000
1000
0000
1000
0000
,
0011
0000
1000
0010
0000
0101
0000
2200
,
0000
0000
3300
0000
,
0001
0010
0100
0010
0000
1000
0010
0001
,
0000
1100
0000
0202
0000
0000
0303
0000
,
1000
0001
0100
0020
0000
0032
0000
0023
,
0000
2030
0000
3001
0200
0000
0300
0000
,
1000
0010
0100
0010
0000
0001
0010
1000
,
0000
0101
0000
2200
0000
0000
3300
0000
,
0001
1000
0100
0020
0000
1030
0010
0002
,
0000
0000
2000
3003
,
0010
0010
1000
1000
,
0100
0100
0001
0001
,
0010
0010
1000
1000
,
0100
0100
0001
0001
,
0010
0001
0100
0010
1000
0001
0100
0010
,
1000
0100
0010
0001
1000
0001
0010
0100
,
1000
0010
0001
0010
1000
0001
0100
0010
,
1000
0000
0000
1010
0000
0000
0001
0000
0000
0011
0000
0000
0100
0000
0000
0000
,
0000
0000
1000
0010
1000
0001
1000
0001
,
1000
0100
1000
0001
1000
0010
1000
0000
,
0110
0000
0001
0010
0001
1000
0001
1000
,
0001
0100
0001
1000
0002
0000
0000
0000
,
0023
0000
0130
1000
0100
0010
0100
0001
,
0100
0010
0100
1000
0100
0010
0100
0000
,
2000
3002
0013
0100
0010
1000
0010
0001
,
1000
0000
0000
1100
0000
0000
0001
0000
0000
0101
0000
0000
0010
0000
0000
0000
,
0000
0000
0000
1001
0000
1000
0100
0000
0100
0010
0000
0010
,
0001
0000
0001
0100
0000
0100
0010
0000
0010
1000
0000
0000
,
0000
0000
0000
1001
0000
0001
0100
0000
0100
0010
0000
0010
,
1000
0000
1000
0100
0000
0100
0010
0000
0010
0001
0000
0000
,
0100
0000
0001
0100
0000
0010
0100
0000
1000
0100
0000
0000
,
0010
0000
1000
0010
0000
0100
0010
0000
0001
0010
0000
0000
,
1000
0100
0010
0001
1000
0010
0100
0001
,
1000
0000
0000
1010
0000
0000
0001
0000
0000
0011
0000
0000
0100
0000
0000
0000
,
0010
0000
0010
0001
1000
0001
0100
0000
,
0100
1000
0001
1000
0100
0000
0100
0000
,
0001
0100
0010
1000
0000
0101
0000
1100
,
0000
1010
0000
0001
2000
0000
3001
0000
,
0010
0000
0010
1000
0001
1000
0100
0000
,
0100
0001
1000
0001
0100
0000
0100
0000
,
1000
0100
0010
0001
0000
1100
0000
0012
,
0000
1003
0110
1001
,
0010
0000
1000
0100
0001
0100
1000
0000
,
0001
0010
1000
0010
0001
0000
1000
0000
,
0001
0010
0100
1000
0000
0101
0000
1100
,
0000
0110
0000
0001
2000
0000
3001
0000
,
0010
0000
0001
0100
1000
0100
0001
0000
,
1000
0010
0001
0010
1000
0000
0001
0000
,
1000
0010
0100
0001
0000
1100
0000
0202
,
0000
0000
0000
0303
0000
0010
1000
0001
,
2000
0000
0000
0000
,
0000
0000
0000
0000
,
3002
0000
0000
0000
,
0000
0000
0000
0003
,
0000
0000
0000
0000
;
#NOTES:
     dance-double:
     :
     Easy:
     6:
     :
00000000
00000000
00000000
00000000
,
00000000
00000000
00000000
00000000
,
00000000
00000000
00000000
00000000
,
00000000
00000000
00000000
00000000
,
00000000
00000000
00000000
00000000
,
00002000
00000000
00103000
00000000
,
00020000
00000000
00030010
00000000
,
00002000
00000000
01003000
00000000
,
00010000
00001000
00010000
00001000
,
00100000
00000000
00010000
00000000
,
10000000
00000000
00010000
00000000
,
02000000
00000000
03100000
00000000
,
20000000
00000000
31000000
00000000
,
00010000
00000000
00001000
00000000
,
00000010
00000000
00000001
00000000
,
00002000
00000000
00003010
00000000
,
00000002
00000000
00001000
00001003
,
00000010
00010000
00001000
00000000
,
01000000
00001000
00010000
00000000
,
00000100
00010000
00001000
00000000
,
00100000
00001000
00010000
00000000
,
00001000
00010000
00100000
00000000
,
01000000
00010000
00100000
00000000
,
01000000
00000000
00000000
00100000
00000000
00000000
00000000
20020000
,
00000000
00000000
30030000
00000000
,
10000000
00000000
00000000
01000000
00000000
00000000
00000000
00020000
,
00000000
00000000
00000000
00030000
,
00001000
00000000
00000000
00000010
00000000
00000000
00000000
00000002
,
00000000
00000000
00000103
00000000
,
00000001
00000000
00000000
00000100
00000000
00000000
00000000
00002000
,
00000000
00000000
00000000
00003000
,
00010000
00000000
00000000
00100000
00000000
00000000
00000000
20000000
,
00000000
00000000
30010000
00000000
,
00100000
00010000
01000000
00000000
,
00100000
10000000
01000000
00000000
,
00010000
00001000
00010000
00000000
,
00000010
00001000
00000100
00000000
,
00000010
00000010
00000001
00000001
,
00000100
00000100
00001000
00001000
,
00010000
00100000
10000000
01000000
,
20020000
00000000
30030000
01100000
,
00000000
10000000
00010000
01000000
,
00001000
00010000
00000010
00001000
,
00000001
00001000
00000100
00010000
,
00001000
00100000
00020000
00000000
,
00030000
10000000
00010000
01000000
,
00001000
00010000
00000010
00001000
,
00000001
00001000
00000100
00010000
,
00022000
00000000
00033000
00011000
,
00000000
00010000
00100000
10000000
,
01000000
00010000
00001000
00010000
,
00000000
00001000
00000010
00000001
,
00000100
00001000
00010000
00001000
,
00100000
00010000
00100000
00011000
,
00000010
00001000
00000010
00011000
,
00100000
00010000
10000000
01000000
,
02200000
00000000
03300000
10010000
,
00100000
10000000
01000000
00010000
,
00001000
00000100
00000001
00001000
,
00000001
00000010
00001000
00000100
,
00000002
00000010
00000013
00000000
,
00000010
00000001
00000100
00001000
,
00010000
01000000
10000000
00010000
,
10000000
00100000
00010000
01000000
,
00200000
00300000
01100000
10010000
,
00100000
10000000
01000000
00100000
,
00001000
00010000
00000010
00001000
,
00000100
00000010
00000001
00001000
,
00000110
00001001
00000110
00000000
,
00000001
00001000
00000100
00010000
,
00001000
00100000
00010000
10000000
,
00100000
00000000
00000000
01000000
00000000
00000000
00000000
20020000
,
00000000
00000000
30030000
00000000
,
00200000
00000000
00000000
00000000
,
00000000
00000000
00000000
00300000
,
02000000
00000000
00000000
00000000
,
00000000
00000000
00000000
03000000
,
00000000
00000000
00000000
00000000
;
#NOTES:
     dance-double:
     :
     Medium:
     9:
     :
00000000
00000000
00000000
00000000
,
00000000
00000000
00000000
00000000
,
00000000
00000000
00000000
00000000
,
00000000
00000000
00000000
00000000
,
00000000
00000000
00000000
00000000
,
00100000
00000000
00000000
10000000
00000000
00000000
01000000
00000000
,
00000000
00100000
00000000
00000000
00001000
00000000
00000000
00000000
,
00020000
00000000
00000000
00030020
00000000
00000000
00000030
00000000
,
00001000
00000000
00000000
00001000
00000000
00000000
00001000
00000000
00000001
00000000
00000000
00000000
00000010
00000000
00000000
00000000
,
00000100
00000000
00000000
00000010
00000000
00000000
00000001
00000000
,
00000000
00000100
00000000
00000000
00001000
00000000
00000000
00000000
,
00010000
00000000
00100000
10000000
00000000
00100000
00000000
01000000
,
00000000
00100000
00000000
10000000
00020000
00000000
00030000
00000000
,
00100000
00000000
00000000
01000000
00000000
00000000
00010000
00000000
,
00000000
00001000
00000000
00000000
00000010
00000000
00000000
00000000
,
00000001
00000000
00001000
00000001
00000000
00000100
00000000
00000200
,
00000000
00000000
00000010
00000310
,
00001000
00000000
00000010
00010000
00000100
00000000
00000000
00000000
,
00010000
00001000
00100000
00000000
01000000
00000000
00000000
00000000
,
10000000
00000000
00010000
01000000
00100000
00000000
00000000
00000000
,
10000000
01000000
00100000
00000000
00010000
00000000
00000000
00000000
,
00001000
00000000
00010000
00000010
00001000
00000000
00000000
00000000
,
00000001
00000100
00000010
00000000
00001000
00000000
00000000
00000000
,
00011000
00000000
00000100
00001000
00000000
00000110
00000000
00002002
,
00000000
00000000
00003003
00000000
,
00000001
00000000
00000000
00000100
00000000
00001000
00010000
00001000
,
00000000
00110000
00000000
20020000
00000000
00000000
30030000
00000000
,
00100000
00000000
10000000
01000000
00000000
00100000
00000000
00001000
,
00000000
00010000
00000000
00100000
02000000
00000000
03000000
00000000
,
10000000
00000000
00000000
01000000
00000000
00010000
00001000
00010000
,
00000000
00001010
00000000
00002002
00000000
00000000
00003003
00000000
,
00000010
00000000
00000001
00000100
00000000
00000010
00000100
00000020
,
00000000
00000030
00000200
00000300
,
00001000
00001000
00010000
00010000
,
00100000
00100000
10000000
10000000
,
01000000
01000000
00010000
00010000
,
00001000
00001000
00000010
00000010
,
00000001
00000100
00000001
00000000
00001000
00000010
00001000
00000000
,
00000001
00000010
00000001
00000000
00001000
00000100
00001000
00000000
,
00000010
00010000
00001000
00100000
00010000
10000000
00100000
00000000
,
01020000
00000000
00000000
10030000
,
00000000
00000000
00010000
00000000
00100000
00001000
00010000
00000000
,
00000010
00001000
00000100
00000000
00010000
00001000
01000000
00000000
,
00010000
00000000
10000000
00000000
01000000
00100000
00010000
00000000
,
01000000
00001000
00010000
00000000
00000200
00000000
00000000
00000000
,
00000300
00000000
00000010
00000000
00000001
00000100
00000010
00000000
,
00001000
00000100
00000010
00000000
00001000
00010000
00001000
00000000
,
00010000
00000000
00100000
00000000
10000000
00010000
01000000
00000000
,
21000000
00000000
00000000
30010000
,
00000000
00000000
00000000
01100000
00000000
00000000
10000000
00000000
10000000
01000000
00000000
00000000
,
00010000
00000000
00010000
00001000
00000000
00000000
00000010
00000000
00000010
00000001
00000000
00000000
,
00000000
00000000
00000000
00001001
00000000
00000000
00000001
00000000
00000001
00000100
00000000
00000000
,
00001000
00000000
00001000
00010000
00000000
00000000
00100000
00000000
00100000
10000000
00000000
00000000
,
00010000
00000000
00010000
01000000
00000000
00000000
00001000
00000000
00001000
00010000
00000000
00000000
,
00100000
00000000
00100000
00010000
00000000
00000000
10000000
00000000
10000000
01000000
00000000
00000000
,
00100000
00001000
00010000
00000000
00000010
00001000
00000100
00000000
,
00000120
00000000
00000000
00000031
,
00000100
00000000
00000010
00000000
00001000
00000001
00000100
00000000
,
00001000
00010000
00001000
00000000
00010000
00000000
01000000
00000000
,
00010000
00000000
00001000
00020000
00000000
00000010
00000000
00001000
,
00000000
00030100
00000000
00001000
00100000
00000000
00010000
00000000
,
01000000
00000000
00100000
00000000
00010000
10000000
01000000
00000000
,
00010000
00001000
00010000
00000000
00001000
00000000
00000100
00000000
,
00001000
00000000
00010000
00002000
00000000
00100000
00000000
00013000
,
00000000
00000010
00001010
00000101
,
00000010
00000000
00001000
00000000
00000001
00000100
00001000
00000000
,
00010000
00001000
00010000
00000000
00100000
00000000
10000000
00000000
,
01000000
00000000
00100000
00020000
00000000
10000000
00000000
01000000
,
00000000
10030000
00000000
00010000
10000000
00000000
00010000
00000000
,
00100000
00000000
00010000
00000000
10000000
01000000
00010000
00000000
,
00001000
00010000
00001000
00000000
00000010
00000000
00000001
00000000
,
00000110
00000000
00001000
00000001
00000000
00001100
00000000
00000022
,
00000000
00000000
00000000
00000033
00000000
00001000
00000001
00000000
,
00000200
00000000
00000000
00000000
,
00000000
00000000
00000000
00000000
,
00002300
00000000
00000000
00000000
,
00000000
00000000
00000000
00003000
,
00000000
00000000
00000000
00000000
;
#NOTES:
     dance-double:
     :
     Hard:
     12:
     :
00000000
00000000
00000000
00000000
,
00000000
00000000
00000000
00000000
,
00000000
00000000
00000000
00000000
,
00000000
00000000
00000000
00000000
,
00000000
00000000
00000000
00000000
,
00000010
00000000
00000000
00000001
00000100
00000000
00000010
00000000
,
00001000
00010000
01000000
00000000
00100000
00000000
10000000
00000000
,
00010000
01000000
00100000
10000000
01000000
00100000
00010000
00001000
,
00000100
00000000
00000000
00000010
00000000
00000000
00000001
00000000
00001000
00000000
00000001
00000000
00000110
00000000
00000000
00000000
,
00000001
00000000
00000001
00000100
00000000
00000100
00001000
00000000
,
00001000
00010000
00000000
00010000
00100000
00000000
00100000
00000000
,
10000000
00010000
01000000
00100000
00000000
01001000
00000000
00011000
,
00000000
00110000
00000000
01000000
00200000
00000000
00300000
00000000
,
10000000
00000000
10000000
01000000
00000000
01000000
00010000
00000000
,
00010000
00001000
00000000
00001000
00000010
00000000
00000010
00000000
,
00000001
00001000
00000100
00000010
00000000
00001001
00000000
00000120
,
00000000
00000000
00001000
00001030
,
00000010
00000000
00010000
00001000
00100000
00000000
00001000
00000000
,
00010000
00100000
10000000
00000000
00100000
00000000
01000000
00000000
,
00001000
00000000
00010000
01000000
00100000
00000000
00001000
00000000
,
00010000
00100000
01000000
00000000
00100000
00000000
00000000
00000000
,
10000000
00000000
01000000
00010000
00001000
00000000
00000100
00000000
,
00000010
00001000
00000100
00000000
00000010
00000000
00000001
00000000
,
00001100
00000000
00010000
00001000
00000000
00110000
00000000
20020000
,
00000000
00000000
30030000
00000000
,
10000000
00010000
01000000
00010000
00000000
00100000
00001000
01000000
,
00000000
01010000
00000000
22000000
00000000
00000000
33000000
00000000
,
00100000
00010000
00001000
00000100
00000000
00000010
00000000
00000001
,
00000000
00000100
00000000
00000010
00002000
00000000
00003000
00000000
,
00000001
00001000
00000100
00001000
00000000
00000010
00010000
00000100
,
00000000
00001100
00000000
00000202
00000000
00000000
00000303
00000000
,
00000010
00001000
00010000
01000000
00000000
00100000
10000000
00020000
,
00000000
00000000
20000000
30030000
,
00100000
00100000
10000000
10000000
,
01000000
01000000
00010000
00010000
,
00001000
00001000
00000010
00000010
,
00000001
00000001
00000100
00000100
,
00000010
00001000
00000001
00000100
00000010
00010000
00001000
00100000
,
00010000
01000000
00001000
00010000
00000010
00001000
00000100
00010000
,
00001000
00010000
00100000
10000000
01000000
00100000
00010000
01000000
,
00100000
00000000
00000000
10100000
00000000
00000000
01000000
00000000
00000000
01010000
00000000
00000000
10000000
00000000
00000000
00000000
,
00000000
00000000
00100000
10000000
01000000
00010000
01000000
10000000
,
00100000
00010000
00001000
00000100
00000001
00000010
00000001
00000000
,
00001100
00000000
00000010
00000001
00000100
00001000
00000100
00000001
,
00000010
00001000
00010000
01000000
00200000
00000000
00000000
00000000
,
00310000
00000000
10000000
00100000
00010000
00100000
10000000
01000000
,
00010000
00001000
00000010
00000001
00000100
00001000
00000100
00000000
,
00000001
00001000
00000001
00000010
00001000
00000010
00000001
00000100
,
00000010
00000000
00000000
00001010
00000000
00000000
00010000
00000000
00000000
00011000
00000000
00000000
00100000
00000000
00000000
00000000
,
00000000
00000000
00000000
10010000
00000000
10000000
01000000
00000000
01000000
00100000
00000000
00100000
,
00010000
00000000
00010000
00001000
00000000
00001000
00000100
00000000
00000100
00000010
00000000
00000000
,
00000000
00000000
00000000
00001001
00000000
00000001
00000100
00000000
00000100
00000010
00000000
00000010
,
00001000
00000000
00001000
00010000
00000000
00010000
01000000
00000000
01000000
00100000
00000000
00000000
,
10000000
00000000
00010000
01000000
00000000
00001000
00010000
00000000
00000100
00001000
00000000
00000000
,
00000001
00000000
00001000
00000010
00000000
00010000
00001000
00000000
00100000
00010000
00000000
00000000
,
10000000
01000000
00100000
00010000
10000000
00100000
00010000
00001000
,
00010000
00000000
00000000
00001010
00000000
00000000
00000001
00000000
00000000
00000011
00000000
00000000
00000100
00000000
00000000
00000000
,
00001000
00000000
00000001
00001000
00000010
00001000
00010000
00000000
,
01000000
00010000
10000000
00010000
01000000
00000000
00100000
00000000
,
10000000
01000000
00100000
00010000
00000000
00011000
00000000
00001010
,
00000000
00011000
00000000
01000000
00200000
00000000
01300000
00000000
,
00010000
00000000
10000000
00010000
00100000
00010000
00001000
00000000
,
00000100
00001000
00000001
00001000
00000100
00000000
00000010
00000000
,
00000001
00000100
00000010
00001000
00000000
00011000
00000000
00210000
,
00000000
01300000
10010000
01100000
,
00010000
00000000
10000000
01000000
00010000
00001000
00010000
00000000
,
00001000
00000010
00000001
00001000
00000001
00000000
00000100
00000000
,
00000010
00000100
00000001
00000010
00000000
00001100
00000000
00011000
,
00000000
00001010
00000000
00000100
00000020
00000000
00000130
00000000
,
00001000
00000000
00000001
00000100
00001000
00010000
00001000
00000000
,
00010000
00100000
10000000
00010000
10000000
00000000
01000000
00000000
,
00100000
00010000
10000000
00010000
00000000
01010000
00000000
00022000
,
00000000
00000000
00000000
00033000
00000000
00000010
00000001
00001000
,
00000002
00000000
00000000
00000000
,
00000000
00000000
00000000
00000000
,
00000203
00000000
00000000
00000000
,
00000000
00000000
00000000
00000300
,
00000000
00000000
00000000
00000000
;
