
//----- song ID: stis -----//
#TITLE:Starlight in the Snow;
#ARTIST:BEMANI Sound Team "劇団レコード" ft.Lisa – paint with stars;
#ARTISTTRANSLIT:BEMANI Sound Team "Gekidan Record" ft.Lisa – paint with stars;
#BANNER:Starlight in the Snow.png;
#BACKGROUND:Starlight in the Snow-bg.png;
#CDTITLE:./CDTitles/DDR A20.png;
#MUSIC:Starlight in the Snow.ogg;
#SAMPLESTART:61.544;
#SAMPLELENGTH:15;
#BPMS:0=150;
#NOTES:
     dance-single:
     :
     Beginner:
     4:
     :
0000
0000
0000
0000
,
0000
0000
0000
0000
,
0000
0000
0000
0000
,
0000
0000
0000
0000
,
0000
0000
0000
0000
,
0000
0000
0000
0000
,
0002
0000
0000
0000
,
0003
0000
0000
0000
,
0002
0000
0000
0000
,
0003
0000
0000
0000
,
2000
0000
0000
0000
,
3000
0000
0000
0000
,
2000
0000
0000
0000
,
3000
0000
0000
0000
,
0000
0000
0000
0000
,
0001
0000
0010
0000
,
0001
0000
0000
0000
,
0001
0000
0100
0000
,
0001
0000
0000
0000
,
1000
0000
0010
0000
,
1000
0000
0000
0000
,
1000
0000
0100
0000
,
1000
0000
0000
0000
,
0001
0000
0010
0000
,
1000
0000
1000
0000
,
1000
0000
0010
0000
,
0001
0000
0000
0000
,
1000
0000
0100
0000
,
0001
0000
0001
0000
,
0001
0000
0100
0000
,
1000
0000
0000
0000
,
0020
0000
0000
0000
,
0030
0000
0000
0000
,
0200
0000
0000
0000
,
0300
0000
0000
0000
,
0001
0001
0001
0000
,
1000
1000
1000
0000
,
2002
0000
0000
0000
,
3003
0000
0000
0000
,
0001
0100
0001
0000
,
0100
0000
1000
0000
,
1000
0100
1000
0000
,
1000
0000
0001
0000
,
1000
0010
1000
0000
,
1000
0000
0010
0000
,
0001
0010
0001
0000
,
1001
0000
0000
0000
,
1000
0000
0100
0000
,
0001
0100
0001
0000
,
1000
0000
0010
0000
,
0001
0010
0001
0000
,
0001
0000
0100
0000
,
1000
0100
1000
0000
,
0001
0000
0010
0000
,
1000
0010
1000
0000
,
0002
0000
0000
0000
,
0003
0000
0000
0000
,
0200
0000
0000
0000
,
0300
0000
0000
0000
,
0020
0000
0000
0000
,
0030
0000
0000
0000
,
2000
0000
0000
0000
,
3000
0000
0000
0000
,
0001
0001
0010
0000
,
0100
0000
1000
0000
,
1000
1000
0010
0000
,
0100
0000
0001
0000
,
0001
0000
0100
0000
,
1000
0001
1000
0000
,
1000
0000
0010
0000
,
0001
1000
0001
0000
,
0000
0000
1001
0000
,
0000
0000
0000
0000
;
#NOTES:
     dance-single:
     :
     Easy:
     7:
     :
0000
0000
0000
0000
,
0000
0000
0000
0000
,
0000
0000
0000
0000
,
0000
0000
0000
0000
,
0000
0000
0000
0000
,
0000
0000
0000
0000
,
0002
0000
0000
0003
,
2000
0000
0000
3000
,
0020
0000
0000
0030
,
0200
0000
0000
0300
,
0002
0000
0000
0003
,
0020
0000
0000
0030
,
0200
0000
0000
0300
,
2000
0000
0000
3000
,
0000
0000
0000
0000
,
0001
1000
0001
0100
,
0001
0000
1000
0000
0001
0100
0001
0000
,
1000
0001
1000
0100
,
1000
0000
0001
0000
1000
0100
1000
0000
,
0010
1000
0010
0100
,
0010
0000
1000
0000
0100
0010
0100
0000
,
0010
0001
0010
0100
,
1000
0001
0100
0000
,
0001
0001
0010
0100
,
1000
0010
1010
0000
,
0100
0100
0001
1000
,
0010
0100
0110
0000
,
0010
0010
1000
0001
,
0100
0001
0101
0000
,
1000
1000
0010
0100
,
0001
1000
1001
0000
,
1000
0000
1010
0000
,
0001
0000
0101
0000
,
1000
0000
1100
0000
,
0001
0000
0011
0000
,
1000
0100
0001
0100
,
1000
0100
0001
0100
,
1000
0010
0001
0100
,
2002
0000
0000
3003
,
0010
0200
0010
0310
,
0100
0020
0100
0130
,
0001
2000
0001
3001
,
1000
0002
1000
1003
,
0001
0010
0100
1100
,
1000
0010
0100
0101
,
0001
0010
0100
0010
,
1001
0000
0010
0010
,
0001
0010
1000
0010
,
0001
0000
0100
0000
0010
0010
1000
0000
,
0100
0001
0100
1000
,
0010
0000
0100
0000
0001
1000
0001
0000
,
1000
0010
0001
0010
,
1000
0000
0100
0000
0010
0010
0001
0000
,
0100
1000
0100
0001
,
0010
0000
0100
0000
1000
0001
1000
0000
,
0200
0000
0300
0000
,
0020
0000
0030
0000
,
0002
0000
0003
0000
,
2000
0000
3000
0000
,
0020
0000
0030
0000
,
0002
0000
0003
0000
,
2000
0000
3000
0000
,
0200
0000
0300
0000
,
0001
0010
0100
1000
,
0010
0100
0001
0000
1001
0000
0000
0000
,
1000
0100
0010
0001
,
0100
0001
1000
0000
1001
0000
0000
0000
,
1000
0000
0001
0000
0100
0010
0100
0000
,
0001
0000
1000
0000
0100
0010
0100
0000
,
1100
0000
1001
0000
,
1010
0000
0011
0000
,
0000
0000
0000
2002
0000
0000
0000
0000
,
0000
0000
0000
0000
,
0000
3003
0000
0000
,
0000
0000
0000
0000
;
#NOTES:
     dance-single:
     :
     Medium:
     11:
     :
0000
0000
0000
0000
,
0000
0000
0000
0000
,
0000
0000
0000
0000
,
0000
0000
0000
0000
,
0000
0000
0000
0000
,
0000
0000
0000
0000
,
0001
0000
0100
0000
0001
0000
0010
0100
,
0000
0220
0000
0000
0000
0000
0330
0000
,
1000
0000
0001
0000
0100
0010
0000
1000
,
0002
2000
0000
0000
0000
0000
3003
0000
,
0001
0000
0100
0000
0010
0000
1000
0100
,
0000
0010
0000
0110
0000
0010
0001
0010
,
0100
1000
0100
0000
1000
0010
0100
0000
,
0002
0000
2000
3003
,
0000
0010
0010
0000
0010
0100
0010
0000
,
1000
0100
1000
0000
0001
1000
0001
0000
,
0010
0001
0010
0000
0001
0000
0100
0000
,
0010
1000
0010
0000
1000
0001
1000
0000
,
0100
1000
0100
0000
0010
0000
0001
0000
,
0100
0010
0100
0000
0010
1000
0010
0000
,
1000
0100
1000
0000
0001
0000
0100
0000
,
0002
0000
2003
0000
,
3020
0000
0230
0300
,
0001
1000
0010
0100
0001
1000
0100
0010
,
0001
1000
0100
0010
0001
1000
0010
0000
,
1000
0001
0100
0010
1000
0001
0010
0100
,
1000
0001
0010
0100
1000
0001
0100
0000
,
0001
0010
0100
0010
0001
1000
0010
0100
,
0010
1000
0001
0010
0100
0010
0001
0000
,
1000
0010
0100
0010
0100
0001
1000
0000
,
0001
0000
0000
0001
0000
0000
0001
0000
0100
0000
0010
0000
0100
0000
0000
0000
,
0010
0000
0010
1000
0002
0000
0003
0000
,
0100
0000
0100
0001
0020
0000
0030
0000
,
0100
0000
0100
1000
0002
0000
0003
0000
,
0010
0000
0010
0100
2000
0000
3000
0000
,
0001
0010
0001
0010
0100
1000
0100
1000
,
0001
0100
0001
0100
0010
1000
0010
1000
,
0001
0100
1000
0100
0001
1000
0001
0000
,
2002
0000
0000
3003
,
0001
0000
0000
0100
0000
0000
0001
0000
0000
0100
0000
0000
0001
0000
0000
0000
,
1000
0000
0000
0010
0000
0000
1000
0000
0000
0010
0000
0000
1000
0000
0000
0000
,
0001
0000
0000
0010
0000
0000
0001
0000
0000
0010
0000
0000
0001
0000
0000
0000
,
1000
0000
0000
0100
0000
0000
1000
0000
0000
0100
0000
0000
1000
0000
0000
0000
,
0001
0000
0000
0100
0000
0000
0010
0000
0000
1000
0000
0000
0001
0000
0000
0000
,
1000
0000
0000
0100
0000
0000
0010
0000
0000
0001
0000
0000
1000
0000
0000
0000
,
0002
0000
0203
0000
,
0320
0000
1030
1001
,
0001
0100
0010
1000
0100
0001
0100
0000
,
1000
0001
0100
0010
1000
0010
0100
0000
,
0001
0010
0100
1000
0001
0010
1000
0000
,
0010
0001
1000
0100
0010
0001
0100
0000
,
0010
1000
0010
0100
0001
0010
0001
0000
,
0010
1000
0010
0001
1000
0010
0100
0000
,
0002
0000
2000
3003
,
0220
0000
0000
0330
,
0100
0100
1000
0000
,
0100
0100
0001
0000
,
0010
0010
1000
0000
,
0010
0010
0001
0000
,
1000
0100
0001
0010
,
0001
0100
1000
0010
,
0100
0010
0100
0000
0001
1000
0001
0000
,
2002
0000
0000
3003
,
0001
0000
0101
0000
1000
0100
0001
0000
,
0010
1000
0100
0000
,
1000
0000
1100
0000
0001
0100
1000
0000
,
0010
0001
0100
0000
,
0010
0000
0011
0000
1000
0010
0001
0000
,
0010
1000
0100
0010
,
0002
0000
0203
0000
,
0320
0000
2030
0000
,
3000
0000
0000
2002
0000
0000
0000
0000
,
0000
0000
0000
0000
,
0000
3003
0000
0000
,
0000
0000
0000
0000
;
#NOTES:
     dance-single:
     :
     Hard:
     14:
     :
0000
0000
0000
0000
,
0000
0000
0000
0000
,
0000
0000
0000
0000
,
0000
0000
0000
0000
,
0000
0000
0000
0000
,
0000
0000
0000
0000
,
2002
0000
0000
0003
,
0200
0000
0000
0000
0300
0000
0000
3010
,
0220
0000
0000
0030
,
0002
0000
0000
0303
,
1000
1000
0001
0001
,
1000
0010
1000
0010
0100
0001
0100
0001
,
1000
0100
1000
0000
0100
0010
0001
0000
0100
0001
0100
0000
0001
0100
0010
0000
,
0220
0000
0000
0000
0330
1001
0000
0000
,
0000
0000
1000
0000
0001
0000
1000
0000
0001
0100
0000
0100
0020
0000
1030
0010
,
1000
0000
0000
0100
1000
0000
0100
0000
1000
0000
0010
0000
1000
0000
0010
0000
,
0100
0000
0000
0001
0100
0000
0001
0000
0010
0000
0001
0000
0010
0000
0000
0000
,
0001
0000
0000
0100
0001
0000
0100
0000
0001
0000
0010
0000
0001
0000
0010
0000
,
0100
0000
0000
1000
0100
0000
1000
0000
0010
0000
1000
0000
0010
0000
0000
0000
,
1000
0000
0000
0001
1000
0000
0001
0000
0010
0000
0100
0000
0010
0000
0100
0000
,
1000
0000
0000
0001
1000
0000
0001
0000
0100
0000
0010
0000
0100
0000
0000
0000
,
0002
0000
0020
0003
,
0200
0030
2000
0300
,
3001
0000
1000
0010
1000
0000
0100
0000
0010
0000
0001
0000
0100
0000
0010
0000
,
1000
0000
0001
0100
0001
0000
0010
0000
0100
0000
1000
0000
0001
0000
0100
0000
,
0010
0000
1000
0001
1000
0000
0100
0000
0001
0000
1000
0000
0010
0000
0001
0000
,
0100
0000
0001
1000
0001
0000
0100
0000
1000
0000
0001
0000
0010
0000
0000
0000
,
1000
0000
0010
0100
0010
0000
1000
0000
0100
0000
0001
0000
0100
0000
1000
0000
,
0001
0000
0010
0100
0010
0000
0001
0000
1000
0000
0100
0000
0001
0000
0100
0000
,
1000
0000
0010
0100
0001
0000
1000
0000
0001
0000
0010
0100
1000
0000
0001
0000
,
1000
0000
0000
1000
0000
0000
1000
0000
0001
0100
0001
0000
0010
0001
0010
0100
,
2000
0000
0000
3001
0012
0000
0000
0103
,
0010
1010
0000
1100
0000
1001
0000
0100
,
0102
0000
0000
0013
0021
0000
0000
0130
,
1000
0001
0000
1001
0000
0010
0001
0100
,
0010
1000
0001
0000
0100
0000
0010
0000
1000
0001
0100
0000
0001
0000
0010
0000
,
0100
1000
0010
0000
0100
0000
0001
0000
0010
0001
0100
0000
0001
0000
1000
0000
,
0001
1000
0100
0000
0010
0001
0100
0000
0010
1000
0010
1000
0001
0100
0001
0100
,
0020
0000
0030
1001
,
1000
0000
0000
0100
0010
0000
0100
0000
1000
0010
0001
0000
0001
0010
1000
0000
,
0010
0000
0000
0100
0010
0000
1000
0000
0001
0100
1000
0000
1000
0100
0001
0000
,
0010
0000
0000
0001
1000
0000
0100
0000
1000
0100
0001
0000
0001
0100
1000
0000
,
0100
0000
0000
0010
0001
0000
0100
0000
0001
0010
1000
0000
1000
0010
0001
0000
,
0010
0000
0000
0001
1000
0000
0010
0000
0100
0001
0010
0000
0010
0001
0100
0000
,
0001
0000
0000
1000
0010
0000
0100
0000
0010
1000
0100
0000
0100
1000
0010
0000
,
0200
0000
0302
0000
,
2003
0000
3100
1001
,
0001
0000
0000
0100
0010
0000
1000
0000
0100
0001
0100
0000
1000
0000
0001
0000
,
0100
0000
0000
0010
1000
0000
0001
0000
0010
1000
0010
0000
0001
0000
0000
0000
,
1000
0000
0000
0010
0100
0000
0001
0000
0100
1000
0100
0000
0001
0000
0010
0000
,
1000
0001
0100
1000
0001
0010
0001
0001
,
1000
0000
0000
0001
0100
0000
0001
0000
1000
0100
0001
0000
0100
0000
0010
0000
,
0001
0000
0000
1000
0100
0000
1000
0000
0001
0100
1000
0000
0100
0000
0010
0000
,
1000
0010
0100
0010
1000
0001
0100
0001
,
0010
0100
1000
0000
0001
0000
0010
0000
0100
0000
1000
0000
0010
0000
0000
0000
,
2000
0000
3200
0000
,
0302
0000
0000
0000
,
2003
0000
3020
0000
,
0032
0000
0000
0003
,
0001
0001
0100
0100
,
1000
1000
0001
0001
,
0010
0000
1000
0000
0010
0000
1000
0000
0100
0010
0100
0010
0100
0010
0100
0010
,
0100
0000
0000
0000
0110
0000
0000
0001
1000
0001
1000
0000
1001
0000
0000
0000
,
0010
0000
1000
0100
0010
0000
0001
0000
1000
0100
1000
0000
1000
0010
1000
0000
,
0010
0000
0100
0001
0010
0000
0100
0000
0010
1000
0010
0000
0001
0000
0001
0000
,
1000
0000
0001
0010
0100
0000
0010
0000
0001
0100
0001
0000
0001
0010
0001
0000
,
0100
0000
0010
1000
0100
0000
0001
0000
0100
1000
0010
0000
0110
0000
0010
0000
,
1000
0000
0001
0010
1000
0000
0001
0000
1000
0010
0001
0000
0100
0000
0000
0000
,
0001
0000
1000
0010
0001
0000
1000
0000
0001
0010
1000
0000
0100
0000
0000
0000
,
0020
0000
0032
0000
,
2003
0000
3200
0000
,
0310
0001
0010
0100
1000
0000
2002
0000
0000
0000
0000
0000
0000
0000
0000
0000
,
0000
0000
0000
0000
,
0000
3003
0000
0000
,
0000
0000
0000
0000
;
#NOTES:
     dance-single:
     :
     Challenge:
     16:
     :
0000
0000
0000
0000
,
0000
0000
0000
0000
,
0000
0000
0000
0000
,
0000
0000
0000
0000
,
0000
0000
0000
0000
,
0000
0000
0000
0000
,
2002
0000
0000
0000
0000
3003
MMMM
0000
,
0220
0000
0000
0000
0000
0330
MMMM
0000
,
2020
0000
0000
0000
0000
3030
MMMM
0000
,
0202
0000
0000
0000
0000
0303
MMMM
0000
,
0001
0001
1000
1000
,
0001
0010
0001
0000
0100
1000
0100
0000
,
0001
1000
0001
0000
1000
0001
1000
0000
0010
0100
0010
0000
0100
0010
0100
0000
,
0220
0000
0000
0330
MMMM
1001
0000
0000
,
MMMM
MMMM
MMMM
MMMM
,
0001
0000
1000
0010
1000
0000
0100
0000
0010
0001
0010
0000
MMMM
0000
0000
0000
,
1000
0000
0001
0010
0001
0000
0100
0000
0010
1000
0010
0000
MMMM
0000
0000
0000
,
0001
0000
0010
0100
0010
0000
0001
0000
1000
0100
0010
0000
MMMM
0000
0000
0000
,
1000
0000
0010
0100
0010
0000
1000
0000
0001
0100
0010
0000
MMMM
0000
0000
0000
,
0001
0000
0010
0001
0100
0000
0010
0000
0010
1000
0100
0000
0100
1000
0010
0000
,
1000
0000
0100
1000
0010
0000
0100
0000
0100
0001
0010
0000
0010
0001
0100
0000
,
0110
MMMM
1100
MMMM
,
0101
MMMM
1001
MMMM
,
1000
0000
0001
0010
0001
0000
0100
0000
0001
0100
1000
0000
1000
0100
0001
0000
,
0010
0000
0100
1000
0100
0000
0010
0000
0001
0010
1000
0000
1000
0010
0001
0000
,
0100
0000
0100
0010
1000
0000
0100
0000
1000
0010
0001
0000
0001
0010
1000
0000
,
0001
0000
0010
0100
0010
0000
0001
0000
1000
0100
0001
0000
0001
0100
1000
0000
,
0010
0000
0010
1000
0100
0000
0010
0000
0010
0001
0100
0000
0100
0001
0010
0000
,
0100
0000
0100
1000
0010
0000
0100
0000
0100
0001
0010
0000
0010
0001
0100
0000
,
0010
0000
0000
0010
1000
0000
MMMM
0000
0100
0000
0000
0100
0001
0000
MMMM
0000
,
0010
0000
0000
0010
0000
0000
MMMM
0000
1000
0100
0010
0000
1001
0000
0000
0000
,
0002
0000
0000
0100
1003
0000
MMMM
0000
,
2000
0000
0000
0100
3001
0000
MMMM
0000
,
0020
0000
0000
1000
0130
0000
MMMM
0000
,
0100
0001
0000
0101
0000
MMMM
1001
0000
,
0001
0100
0000
0100
0001
0000
MMMM
0000
1000
0100
0000
0100
1000
0000
MMMM
0000
,
0001
0010
0001
0000
1000
0010
1000
0000
0001
1000
0001
0000
1001
0000
1000
0100
,
0010
0001
0100
0010
1000
0100
0010
0001
0010
0100
1000
0010
0100
0001
0010
0100
,
2000
0000
0000
0000
0000
3000
MMMM
0000
,
0010
0000
1000
0100
0010
0000
0001
0000
0011
0000
MMMM
0000
1010
0000
MMMM
0000
,
0100
0000
1000
0001
0100
0000
0010
0000
1010
0000
MMMM
0000
0011
0000
MMMM
0000
,
0100
0000
0001
0010
0100
0000
1000
0000
1100
0000
MMMM
0000
0101
0000
MMMM
0000
,
0001
0000
1000
0100
0010
0000
0001
0000
0101
0000
MMMM
0000
1100
0000
MMMM
0000
,
0010
0000
1000
0001
0100
0000
0010
0000
0110
0000
MMMM
0000
1001
0000
MMMM
0000
,
0100
0000
0001
1000
0100
0000
1000
0000
1001
0000
MMMM
0000
0110
0000
MMMM
0000
,
0002
0003
MMMM
0000
0020
0030
MMMM
0000
,
0200
0300
MMMM
0000
2000
3000
MMMM
0000
,
0001
0000
0001
0100
0010
0000
0010
1000
0100
0000
0100
0001
0100
0000
0100
0010
,
0001
MMMM
0011
MMMM
0101
MMMM
1001
MMMM
,
1000
0000
1000
0001
0100
0000
0100
0010
0001
0000
0001
0010
0100
0000
0100
0001
,
1000
MMMM
1010
MMMM
1100
MMMM
1001
MMMM
,
0001
0000
0001
0010
0100
0000
0100
1000
0010
0000
MMMM
0000
0110
0000
MMMM
0000
,
1000
0000
1000
0100
0010
0000
0010
0001
0100
0000
MMMM
0000
0110
0000
MMMM
0000
,
1000
0010
1000
0010
0100
0001
0100
0001
,
MMMM
0001
0010
0100
1000
MMMM
0010
MMMM
,
0200
0000
1000
0000
,
0002
0000
0303
MMMM
,
0020
0000
0001
0000
,
2000
0000
3030
MMMM
,
0001
0001
1000
1000
,
0001
0001
1000
1000
,
0001
0000
0100
0000
0010
0000
1000
0000
0001
0010
0100
1000
0001
0010
0100
1000
,
0001
0000
0000
0000
MMMM
0000
0000
0001
1000
0001
1000
0000
MMMM
0000
0000
0000
,
0001
0000
0100
0010
1000
0000
0100
0000
0010
0001
0010
0100
0010
0000
0010
0001
,
1000
0000
0010
0100
0001
0000
0010
0000
0100
1000
0100
0010
0100
0000
0100
0010
,
0001
0000
0100
1000
0100
0000
0010
0000
1000
0100
0010
0001
0010
0000
0010
0001
,
1000
0000
0010
0001
0010
0000
1000
0000
0001
0100
0010
1000
0010
0000
0010
1000
,
0001
0000
1000
0010
0001
0000
MMMM
0000
0001
0010
1000
0000
1001
0000
0000
0000
,
1000
0000
0001
0010
1000
0000
MMMM
0000
1000
0010
0001
0000
1001
0000
0000
0000
,
0002
0000
0023
0000
,
0230
0000
2300
0000
,
3001
0010
0100
1000
0001
0000
1001
0000
0000
0000
0000
0000
0000
0000
0000
0000
,
0000
0000
0000
0000
;
#NOTES:
     dance-double:
     :
     Easy:
     6:
     :
00000000
00000000
00000000
00000000
,
00000000
00000000
00000000
00000000
,
00000000
00000000
00000000
00000000
,
00000000
00000000
00000000
00000000
,
00000000
00000000
00000000
00000000
,
00000000
00000000
00000000
00000000
,
00000002
00000000
00000003
00000000
,
00002000
00000000
00003000
00000000
,
00000020
00000000
00000030
00000000
,
00020000
00000000
00030000
00000000
,
00002000
00000000
00003000
00000000
,
00200000
00000000
00300000
00000000
,
00020000
00000000
00030000
00000000
,
02000000
00000000
03000000
00000000
,
00000000
00000000
00000000
00000000
,
10000000
01000000
10000000
01000000
,
00100000
00001000
00010000
00000000
,
00001000
00010000
00001000
00010000
,
00000010
00001000
00000010
00000000
,
00000100
00000001
00000010
00000001
,
00001000
00000100
00010000
00000000
,
00001000
00100000
00010000
00100000
,
01000000
10000000
00010000
00000000
,
10000000
10000000
01000000
00100000
,
00001000
00001000
00010000
00000000
,
00000010
00000010
00001000
00000001
,
00000100
00000100
00000010
00000000
,
00001000
00001000
00000100
00000010
,
00001000
00001000
00010000
00000000
,
01000000
01000000
10000000
00010000
,
00100000
00100000
00001000
00000000
,
00010000
00000000
00010010
00000000
,
00001000
00000000
00001100
00000000
,
00001000
00000000
01001000
00000000
,
00100000
00000000
00110000
00000000
,
10000000
01000000
00010000
01000000
,
00010000
00001000
00010000
00001000
,
00000010
00000000
00000001
00000000
,
00002002
00000000
00003003
00000000
,
00000001
00000001
00000100
00000000
,
00000001
00000100
00001000
00000000
,
00010000
00010000
00001000
00000000
,
00010000
01000000
00100000
00000000
,
00010000
00010000
10000000
00000000
,
01000000
10000000
00100000
00000000
,
00010000
00001000
00010000
00000010
,
00001000
00000100
00001000
00000000
,
00000001
00000100
00001000
00000100
,
00000010
00010000
00001000
00100000
,
00010000
00100000
10000000
00100000
,
00010000
01000000
00010000
00000000
00100000
00000000
00000000
00000000
,
00001000
00010000
00001000
00000010
,
00000100
00001000
00000001
00000100
,
00000010
00010000
00001000
00100000
,
00010000
01000000
00010000
00000000
10000000
00000000
00000000
00000000
,
02000000
00000000
03000000
00000000
,
00200000
00000000
00300000
00000000
,
00020000
00000000
00030000
00000000
,
00002000
00000000
00003000
00000000
,
00000200
00000000
00000300
00000000
,
00000020
00000000
00000030
00000000
,
00000002
00000000
00000003
00000000
,
00001001
00000000
00000000
00000000
,
00000100
00001000
00010000
00000000
,
01010000
00000000
10100000
00000000
,
01000000
00010000
00100000
00000000
,
00101000
00000000
00011000
00000000
,
00000100
00000010
00000001
00000000
,
00000011
00000000
00001100
00000000
,
00100000
00010000
01000000
00000000
,
00100000
00010000
00001000
00000000
,
00000000
00000000
00000000
00022000
00000000
00000000
00000000
00000000
,
00000000
00000000
00000000
00000000
,
00000000
00033000
00000000
00000000
,
00000000
00000000
00000000
00000000
;
#NOTES:
     dance-double:
     :
     Medium:
     11:
     :
00000000
00000000
00000000
00000000
,
00000000
00000000
00000000
00000000
,
00000000
00000000
00000000
00000000
,
00000000
00000000
00000000
00000000
,
00000000
00000000
00000000
00000000
,
00000000
00000000
00000000
00000000
,
10000000
00000000
00100000
00000000
01000000
00000000
00001000
00010000
,
00000000
00022000
00000000
00000000
00033000
00000000
00000000
00000000
,
00000001
00000000
00000010
00000000
00000100
00010000
00000000
00001000
,
00020000
00002000
00000000
00000000
00033000
00000000
00000000
00000000
,
10000000
00000000
00100000
00000000
01000000
00000000
00001000
00010000
,
00000000
00001000
00000000
00011000
00000000
00000100
00001000
00000100
,
00000010
00000001
00000100
00000000
00000010
00001000
00000100
00000000
,
00020000
00000000
00002000
00033000
,
00000000
00010000
00010000
00000000
00001000
00000000
00011000
00000000
,
00100000
00010000
00100000
00000000
01000000
10000000
01000000
00000000
,
10000000
00100000
10000000
00000000
00100000
00000000
00010000
00000000
,
00001000
00000100
00001000
00000000
00000100
00000001
00000100
00000000
,
00000010
00001000
00000010
00000000
00000100
00000000
00000001
00000000
,
00000010
00000100
00000010
00000000
00001000
00000010
00001000
00000000
,
00010000
00001000
00010000
00000000
01000000
00000000
10000000
00000000
,
00020000
00030000
00002000
00003000
,
00000200
00000300
00000020
00000030
,
00000001
00000100
00000010
00001000
00000100
00010000
00000010
00001000
,
00000100
00010000
00000010
00001000
00000100
00010000
00001000
00000000
,
00100000
00001000
01000000
00010000
00100000
00010000
10000000
01000000
,
00100000
00010000
10000000
01000000
00100000
00001000
00010000
00000000
,
00100000
10000000
01000000
10000000
00100000
00010000
00001000
00010000
,
00000100
00001000
00000010
00001000
00000100
00000010
00000001
00000000
,
00000100
00000010
00010000
00001000
00010000
01000000
00100000
00000000
,
00010000
00000000
00000000
00010000
00000000
00000000
00010000
00000000
10000000
00000000
01000000
00000000
10000000
00000000
00000000
00000000
,
00100000
00100000
02020000
03030000
,
00100000
00100000
00022000
00033000
,
00000010
00000010
00002200
00003300
,
00000001
00000001
00000220
00000330
,
00000001
00000100
00000001
00000100
00000010
00001000
00000010
00001000
,
00010000
01000000
00010000
01000000
00100000
10000000
00100000
10000000
,
01000000
00100000
00010000
00000000
00001000
00000100
00000010
00000000
,
00002002
00000000
00000000
00003003
,
00000001
00000000
00000000
00000001
00000000
00000000
00000100
00000000
00000000
00000100
00000000
00000000
00000100
00000000
00000000
00000000
,
00001000
00000000
00000000
00001000
00000000
00000000
00010000
00000000
00000000
00010000
00000000
00000000
00010000
00000000
00000000
00000000
,
00100000
00000000
00000000
00100000
00000000
00000000
10000000
00000000
00000000
10000000
00000000
00000000
10000000
00000000
00000000
00000000
,
01000000
00000000
00000000
01000000
00000000
00000000
00100000
00000000
00000000
00100000
00000000
00000000
00100000
00000000
00000000
00000000
,
00001000
00000000
00000000
00001000
00000000
00000000
00010000
00000000
00000000
00010000
00000000
00000000
00000010
00000000
00000000
00000000
,
00000100
00000000
00000000
00000100
00000000
00000000
00000001
00000000
00000000
00000001
00000000
00000000
00001000
00000000
00000000
00000000
,
00000200
00000000
00020300
00000000
,
00032000
00000000
00203000
00000000
,
00310000
10000000
01000000
00010000
01000000
10000000
00100000
00000000
,
01000000
00001000
00010000
00000000
00000100
00001000
00000010
00000000
,
00000100
00000001
00000010
00001000
00000010
00000001
00000100
00000000
,
00000010
00001000
00000100
00000000
00010000
00001000
00100000
00000000
,
00010000
01000000
00100000
10000000
01000000
00010000
00001000
00000000
,
00000010
00000001
00001000
00000000
00000001
00000100
00001000
00000000
,
00020000
00000000
00032000
00000000
,
00203000
00000000
00302000
00000000
,
00003010
00000010
00000010
00000000
,
00001000
00001000
00001000
00000000
,
00010000
00010000
00010000
00000000
,
01000000
01000000
01000000
00000000
,
10000000
01000000
00010000
00000100
,
00000010
00001000
00100000
00010000
,
01000000
00001000
00010000
00000100
,
00022000
00000000
00000000
00033000
,
00010000
01010000
10000000
00100000
,
00010000
00000000
00001000
00000000
00000100
00000001
00000100
00000000
,
00000001
00000011
00001000
00010000
,
01000000
00000000
10000000
00000000
00100000
00010000
00100000
00000000
,
00010000
00010010
00001000
00000001
,
00000010
00101000
00010000
10000000
,
02000000
00000000
03200000
00000000
,
00320000
00000000
00032000
00000000
,
00003000
00000000
00000000
00000220
00000000
00000000
00000000
00000000
,
00000000
00000000
00000000
00000000
,
00000000
00000330
00000000
00000000
,
00000000
00000000
00000000
00000000
;
#NOTES:
     dance-double:
     :
     Hard:
     14:
     :
00000000
00000000
00000000
00000000
,
00000000
00000000
00000000
00000000
,
00000000
00000000
00000000
00000000
,
00000000
00000000
00000000
00000000
,
00000000
00000000
00000000
00000000
,
00000000
00000000
00000000
00000000
,
00022000
00000000
00000000
00003000
,
02000000
00000000
00000000
03030000
,
00022000
00000000
00000000
00030000
,
00000200
00000000
00000000
00003300
,
00000001
00000001
00000010
00000010
,
00001000
00001000
00010000
00010000
,
01000000
10000000
00100000
00010000
00001000
00000100
00000001
00000010
,
00000220
00000000
00000000
00000000
00000330
00001001
00000000
00000000
,
00000000
00000000
00000100
00000000
00000010
00000000
00000100
00000000
00000001
00001000
00000000
00001000
00000002
00000000
00000000
00000000
,
00000103
00000000
00000000
00001000
00010000
00000000
00100000
00000000
01000000
00000000
00001000
00000000
00010000
00000000
01000000
00000000
,
10000000
00000000
00000000
00100000
00010000
00000000
10000000
00000000
01000000
00000000
00001000
00000000
00010000
00000000
00000000
00000000
,
00000100
00000000
00000000
00000010
00000001
00000000
00000100
00000000
00001000
00000000
00000001
00000000
00000010
00000000
00010000
00000000
,
00001000
00000000
00000000
00100000
01000000
00000000
10000000
00000000
00100000
00000000
00010000
00000000
00001000
00000000
00000000
00000000
,
00000010
00000000
00000000
00000001
00000010
00000000
00001000
00000000
00010000
00000000
00001000
00000000
00000100
00000000
00000010
00000000
,
00001000
00000000
00000000
00010000
01000000
00000000
00100000
00000000
10000000
00000000
01000000
00000000
00010000
00000000
00000000
00000000
,
00002000
00000000
00003020
00000000
,
00000032
00000000
00000203
00000000
,
00000310
00000000
00001000
00000100
00001000
00000000
00000100
00000000
00010000
00000000
00001000
00000000
00100000
00000000
00010000
00000000
,
01000000
00000000
00100000
10000000
00100000
00000000
01000000
00000000
00010000
00000000
00100000
00000000
01000000
00000000
00010000
00000000
,
00001000
00000000
00000010
00000100
00000010
00000000
00000001
00000000
00001000
00000000
00000100
00000000
00000001
00000000
00000100
00000000
,
00001000
00000000
00000010
00001000
00000010
00000000
00010000
00000000
00001000
00000000
01000000
00000000
00010000
00000000
00000000
00000000
,
00100000
00000000
01000000
00010000
01000000
00000000
10000000
00000000
00100000
00000000
00010000
00000000
00001000
00000000
00010000
00000000
,
01000000
00000000
00010000
00001000
00010000
00000000
00001000
00000000
00000010
00000000
00000001
00000000
00001000
00000000
00000100
00000000
,
00000001
00000000
00000100
00000010
00000100
00000000
00000010
00000000
00001000
00000000
00010000
00000000
00000010
00000000
00001000
00000000
,
00010000
00000000
00000000
00010000
00000000
00000000
00010000
00000000
01000000
00010000
01000000
00000000
00100000
10000000
00100000
00000000
,
20000000
00000000
00000000
30100000
01000000
00000000
00000000
00001000
,
00010000
00000100
00000000
00000110
00000000
00000011
00000000
00000001
,
00000200
00000000
00000000
00001300
00010000
00000000
00000000
00001000
,
00000010
00001000
00000000
00011000
00000000
00010000
01000000
10000000
,
00100000
00010000
00001000
00100000
01000000
00010000
00001000
00000010
,
00000100
00010000
00001000
00000100
00000010
00001000
00000100
00000010
,
00000001
00001000
00000001
00000000
00001000
00000010
00001000
00000000
00000100
00010000
00000100
00000000
00010000
00001000
00010000
00001000
,
00020000
00000000
00000000
00030000
,
00010000
00000000
00000000
00010000
00100000
00000000
10000000
00000000
01000000
00100000
00010000
00000000
00001000
00000000
00000100
00000000
,
00000010
00000000
00000000
00000010
00000001
00000000
00001000
00000000
00000001
00000100
00000010
00000000
00001000
00000000
00010000
00000000
,
01000000
00000000
00000000
01000000
00100000
00000000
10000000
00000000
01000000
00100000
00010000
00000000
00001000
00000000
00000100
00000000
,
00000010
00000000
00000000
00000010
00000100
00000000
00000010
00000000
00001000
00010000
00001000
00000000
00010000
00000000
00100000
00000000
,
01000000
00000000
00000000
01000000
00010000
00000000
00100000
00000000
00001000
00010000
00000100
00000000
00000010
00000000
00000001
00000000
,
00000100
00000000
00000000
00000100
00000010
00000000
00010000
00000000
00001000
00100000
00010000
00000000
10000000
00000000
00100000
00000000
,
02000000
00000000
03200000
00000000
,
00320000
00000000
00032000
00000000
,
00003100
00000001
00000010
00001000
00010000
01000000
10000000
00100000
,
00010000
00000000
00001000
00000000
00000100
00000000
00000001
00000000
00000010
00000100
00001000
00000000
00000001
00000000
00000000
00000000
,
00000100
00001000
00010000
00100000
10000000
01000000
00010000
00001000
,
00000010
00000000
00000001
00000000
00000100
00000000
00001000
00000000
00010000
00100000
00010000
00000000
00100000
00000000
00100000
00000000
,
10000000
01000000
00100000
00010000
00001000
00000100
00000010
00000001
,
00000100
00000010
00001000
00010000
01000000
00100000
10000000
10000000
,
01000000
00010000
01000000
00010000
00001000
00000010
00001000
00000010
,
00000001
00000100
00000010
00000000
00010000
00000000
00100000
00000000
10000000
00000000
01000000
00000000
00010000
00000000
00001000
00000000
,
00000020
00000000
00000032
00000000
,
00002003
00000000
00003020
00000000
,
00020030
00000000
00032000
00000000
,
02003000
00000000
03020000
00000000
,
10030000
00000000
10000000
00000000
00010000
00100000
00010000
00000000
,
00001000
00000000
00001000
00000000
00000001
00000010
00000001
00000000
,
00000100
00000010
00000100
00001000
00010000
00001000
00010000
00100000
,
01000000
00000000
00000000
00000000
01100000
00000000
00000000
00010000
10000000
00010000
10000000
00000000
10010000
00000000
00000000
00000000
,
01000000
00000000
10000000
00000000
00100000
00000000
01000000
00000000
00001000
00010000
00001000
00000000
00010000
00001000
00010000
00000000
,
00000010
00001000
00000100
00000001
00001000
00000010
00000001
00000000
,
00000100
00000000
00000001
00000000
00000010
00000000
00000100
00000000
00010000
00001000
00010000
00000000
00001000
00010000
00001000
00000000
,
00100000
00010000
01000000
10000000
00010000
00100000
10000000
00000000
,
00010000
00100000
01000000
00000000
00010000
00000000
01000000
00000000
00001000
00000000
00010000
00000000
00001000
00000000
00000100
00000000
,
00001000
00000010
00000100
00000000
00001000
00000000
00000100
00000000
00010000
00000000
00001000
00000000
00010000
00000000
01000000
00000000
,
20000000
00000000
32000000
00000000
,
03002000
00000000
00023000
00000000
,
00030100
00001000
00000100
00000010
00000001
00000000
00002002
00000000
00000000
00000000
00000000
00000000
00000000
00000000
00000000
00000000
,
00000000
00000000
00000000
00000000
,
00000000
00003003
00000000
00000000
,
00000000
00000000
00000000
00000000
;
#NOTES:
     dance-double:
     :
     Challenge:
     16:
     :
00000000
00000000
00000000
00000000
,
00000000
00000000
00000000
00000000
,
00000000
00000000
00000000
00000000
,
00000000
00000000
00000000
00000000
,
00000000
00000000
00000000
00000000
,
00000000
00000000
00000000
00000000
,
22000000
00000000
00000000
00000000
00000000
33000000
MMMMMMMM
00000000
,
00220000
00000000
00000000
00000000
00000000
00330000
MMMMMMMM
00000000
,
00022000
00000000
00000000
00000000
00000000
00033000
MMMMMMMM
00000000
,
00002200
00000000
00000000
00000000
00000000
00003300
MMMMMMMM
00000000
,
00000001
00000001
00000100
00000100
,
00000010
00001000
00000010
00000000
00010000
00001000
00010000
00000000
,
00001000
00100000
00001000
00000000
01000000
00000000
00100000
00000000
10000000
01000000
10000000
00000000
01000000
00000000
00100000
00000000
,
02200000
00000000
00000000
03300000
MMMMMMMM
10010000
00000000
00000000
,
MMMMMMMM
MMMMMMMM
MMMMMMMM
MMMMMMMM
,
00000010
00000000
00000001
00000100
00000001
00000000
00000010
00000000
00001000
00000000
00010000
00000000
MMMMMMMM
00000000
00000000
00000000
,
00100000
00000000
00010000
01000000
00010000
00000000
10000000
00000000
01000000
00000000
00100000
00000000
MMMMMMMM
00000000
00000000
00000000
,
00100000
00000000
00001000
00010000
00001000
00000000
00010000
00000000
00000010
00000000
00001000
00000000
MMMMMMMM
00000000
00000000
00000000
,
00000100
00000000
00000001
00000010
00000001
00000000
00000100
00000000
00000010
00000000
00001000
00000000
MMMMMMMM
00000000
00000000
00000000
,
00000100
00000000
00000010
00001000
00000010
00000000
00000100
00000000
00001000
00000000
00010000
00000000
00100000
00000000
01000000
00000000
,
00010000
00000000
10000000
01000000
10000000
00000000
00100000
00000000
01000000
00000000
00010000
00000000
00100000
00000000
00001000
00000000
,
00010000
MMMMMMMM
00001000
MMMMMMMM
,
00010000
MMMMMMMM
00001000
MMMMMMMM
,
00000100
00000000
00000001
00000010
00000100
00000000
00001000
00000000
00000010
00000100
00000001
00000000
00001000
00000000
00000100
00000000
,
00010000
00000000
00001000
00100000
00010000
00000000
01000000
00000000
00010000
00100000
01000000
00000000
10000000
00000000
MMMMMMMM
00000000
,
10000000
00000000
00100000
01000000
00010000
00000000
00100000
00000000
01000000
10000000
00010000
00000000
01000000
00000000
00001000
00000000
,
00010000
00000000
00000100
00010000
00001000
00000000
00000100
00000000
00000010
00001000
00000001
00000000
00000100
00000000
MMMMMMMM
00000000
,
00000100
00000000
00000001
00000010
00000100
00000000
00001000
00000000
00000010
00000100
00000010
00000000
00001000
00000000
00000100
00000000
,
00010000
00000000
00001000
00100000
00001000
00000000
00010000
00000000
01000000
00100000
01000000
00000000
00100000
00000000
00010000
00000000
,
01000000
00000000
00000000
01000000
00100000
00000000
MMMMMMMM
00000000
00010000
00000000
00000000
00010000
01000000
00000000
MMMMMMMM
00000000
,
00001000
00000000
00000000
00001000
00000010
00000000
MMMMMMMM
00000000
00001000
00000100
00000010
00000000
00001001
00000000
00000000
00000000
,
00000002
00000000
00000000
00000100
00001003
00000000
MMMMMMMM
00000000
,
00020000
00000000
00000000
00000100
00031000
00000000
MMMMMMMM
00000000
,
00002000
00000000
00000000
00010000
01003000
00000000
MMMMMMMM
00000000
,
00100000
10000000
00000000
10100000
00000000
MMMMMMMM
10010000
00000000
,
10000000
01000000
00100000
MMMMMMMM
01000000
00001000
00010000
MMMMMMMM
,
00001000
00000010
00000100
MMMMMMMM
00000010
00000001
00000100
MMMMMMMM
,
00000001
00000010
00000001
00000010
00000100
00010000
00001000
00010000
00001000
00100000
00010000
00100000
01000000
10000000
01000000
00100000
,
00020000
00000000
00000000
00000000
00000000
00030000
MMMMMMMM
00000000
,
00100000
00000000
01000000
00010000
00100000
00000000
00001000
00000000
0001MMMM
00000000
MMMM0100
00000000
0001MMMM
00000000
MMMM1000
00000000
,
00010000
00000000
00000100
00001000
00000010
00000000
00000100
00000000
MMMM1000
00000000
0001MMMM
00000000
MMMM1000
00000000
0100MMMM
00000000
,
00001000
00000000
00000100
00000001
00000010
00000000
00000100
00000000
0001MMMM
00000000
MMMM1000
00000000
0010MMMM
00000000
MMMM1000
00000000
,
00010000
00000000
01000000
00100000
00010000
00000000
01000000
00000000
MMMM1000
00000000
0001MMMM
00000000
MMMM0100
00000000
00010000
00000000
,
00001000
00000000
00000010
00000001
00000100
00000000
00000010
00000000
MMMM0100
00000000
MMMM1000
00000000
0001MMMM
00000000
0010MMMM
00000000
,
01000000
00000000
00100000
10000000
01000000
00000000
00100000
00000000
0100MMMM
00000000
0001MMMM
00000000
MMMM1000
00000000
MMMM0010
00000000
,
00000002
00000003
MMMMMMMM
00000000
00000200
00000300
MMMMMMMM
00000000
,
00020000
00030000
MMMMMMMM
00000000
02000000
03000000
MMMMMMMM
00000000
,
00100000
00000000
10000000
01000000
00100000
00000000
00001000
00010000
00001000
00000000
01000000
00010000
00100000
00000000
01000000
10000000
,
01000000
MMMMMMMM
01100000
MMMMMMMM
00101000
MMMMMMMM
00011000
MMMMMMMM
,
00010100
00000000
00001000
00000100
00000010
00000000
00000001
00001000
00000010
00000000
00001000
00000100
00010000
00000000
00000100
00001000
,
00000010
MMMMMMMM
00001010
MMMMMMMM
00010010
MMMMMMMM
00011000
MMMMMMMM
,
00101000
00000000
00100000
00010000
01000000
00000000
00100000
00000000
10000000
00000000
01000000
00000000
00010000
00000000
00001000
00000000
,
00000010
00000000
00000001
00000100
00000010
00000000
00001000
00000000
00000001
00000000
00000100
00000000
00001000
00000000
00010000
00000000
,
00100000
10000000
01000000
00100000
00010000
00100000
00001000
00010000
,
00011000
MMMMMMMM
00001100
MMMMMMMM
00011000
MMMMMMMM
01010000
MMMMMMMM
,
00012000
00000000
00000100
00000000
,
00020000
00000000
00033000
00000000
,
00020000
00000000
01000000
00000000
,
00002000
00000000
00033000
00000000
,
00100000
00010000
00100000
00000000
01000000
10000000
01000000
00000000
,
00100000
00010000
00001000
00000000
00000100
00000010
00000001
00000000
,
00000001
00000000
00000100
00000000
00000010
00000000
00001000
00000000
00010000
01000000
00010000
01000000
00100000
10000000
00100000
10000000
,
00100000
00000000
00000000
00000000
MMMMMMMM
00000000
00000000
00001000
00010000
00001000
00010000
00000000
00011000
00000000
00000000
00000000
,
00000010
00000000
00000100
00000001
00001000
00000000
00000100
00000000
00000010
00000001
00001000
00000100
00001000
00000000
00000100
00010000
,
00001000
00000000
00100000
00010000
01000000
00000000
00100000
00000000
10000000
01000000
00100000
01000000
10000000
00000000
00100000
01000000
,
00010000
00000000
00100000
10000000
00100000
00000000
00001000
00000000
00010000
00000010
00001000
00000010
00000100
00000000
00000001
00001000
,
00000001
00000000
00000100
00001000
00000100
00000000
00000010
00000000
00010000
00000100
00010000
00001000
00010000
00000000
01000000
10000000
,
00100000
00000000
00010000
00001000
00100000
00000000
00010000
00000000
00100000
00001000
00010000
00000000
00000100
00000000
00000010
00000001
,
00000100
00000000
00001000
00010000
00000010
00000000
00001000
00000000
00000010
00010000
00001000
00000000
01000000
00000000
00100000
10000000
,
00200000
00000000
00320000
00000000
,
00032000
00000000
00003200
00000000
,
00000301
00000010
00001000
00010000
01000000
00000000
01100000
00000000
00000000
00000000
00000000
00000000
00000000
00000000
00000000
00000000
,
00000000
00000000
00000000
00000000
;
