
//----- song ID: sjlt -----//
#TITLE:Something Just Like This (Alesso Remix);
#ARTIST:The Chainsmokers & Coldplay;
#BANNER:Something Just Like This (Alesso Remix).png;
#BACKGROUND:Something Just Like This (Alesso Remix)-bg.png;
#CDTITLE:./CDTitles/DDR A20.png;
#MUSIC:Something Just Like This (Alesso Remix).ogg;
#SAMPLESTART:72.134;
#SAMPLELENGTH:15;
#BPMS:0=120;
#NOTES:
     dance-single:
     :
     Beginner:
     2:
     :
0000
0000
0000
0000
,
0000
0000
0000
0000
,
0000
0000
0000
0000
,
0000
0000
0000
0000
,
0000
0000
0000
0000
,
0001
0000
0001
0000
,
0001
0000
0000
0000
,
0001
0000
0010
0000
,
0001
0000
0000
0000
,
1000
0000
1000
0000
,
1000
0000
0000
0000
,
1000
0000
0010
0000
,
1000
0000
0000
0000
,
0001
0000
0100
0000
,
0001
0000
0001
0000
,
0001
0000
0010
0000
,
0001
0000
0000
0000
,
1000
0000
0100
0000
,
1000
0000
1000
0000
,
1000
0000
0010
0000
,
1000
0000
0000
0000
,
1001
0000
0000
0000
,
1001
0000
0000
0000
,
1001
0000
0000
0000
,
0000
0000
0000
0000
,
1001
0000
0000
0000
,
1001
0000
0000
0000
,
1001
0000
0000
0000
,
0000
0000
0000
0000
,
1000
0000
0010
0000
,
1000
0000
0010
0000
,
1000
0000
0100
0000
,
1000
0000
0000
0000
,
0001
0000
0010
0000
,
0001
0000
0010
0000
,
0001
0000
0100
0000
,
0001
0000
0000
0000
,
0001
0001
0001
0000
,
0001
0000
0100
0000
,
0010
0010
0010
0000
,
0001
0000
0000
0000
,
1000
1000
1000
0000
,
1000
0000
0010
0000
,
0100
0100
0100
0000
,
1000
0000
0000
0000
,
0001
0000
0100
0000
,
0001
0001
0001
0000
,
0001
0000
0010
0000
,
0001
0000
0000
0000
,
1000
0000
0100
0000
,
1000
1000
1000
0000
,
1000
0000
0010
0000
,
1000
0000
0000
0000
,
1001
0000
0000
0000
,
0000
0000
0000
0000
;
#NOTES:
     dance-single:
     :
     Easy:
     4:
     :
0000
0000
0000
0000
,
0000
0000
0000
0000
,
0000
0000
0000
0000
,
0000
0000
0000
0000
,
0000
0000
0000
0000
,
0010
0000
1000
0001
,
1000
0000
0001
1000
,
0001
0000
1000
0001
,
1000
0000
0001
0001
,
0010
0000
0010
0010
,
0002
0000
0003
0000
,
1000
0100
1000
0100
,
1000
0000
1001
0000
,
0110
0000
0010
1000
,
0100
0100
0010
0010
,
0001
0000
0001
0100
,
0001
0000
1000
0100
,
0010
0000
0010
0100
,
1000
0000
1000
1000
,
0001
0100
0001
0010
,
0001
0000
0001
1000
,
1001
0000
0010
0010
,
0000
0000
0220
0000
,
0330
0000
0010
0010
,
0000
0000
0001
1000
,
0000
0000
0100
0100
,
0000
0000
0220
0000
,
0330
0000
0100
0100
,
0000
0000
1000
0001
,
1000
1000
0100
0000
,
0010
0010
0001
0000
,
0001
0001
0100
0000
,
0010
0010
1000
0000
,
1000
0100
0001
0000
,
0001
0100
1000
0000
,
1000
0010
0001
0000
,
2002
0000
0000
3003
,
0001
0001
0010
0000
,
1000
0100
0010
0000
,
0001
0001
0100
0000
,
0100
0010
1000
0000
,
1000
1000
0100
0000
,
0010
0001
0100
0000
,
0100
0100
0010
0000
,
0220
0000
0000
0330
,
1000
0010
1000
0010
,
0100
0001
0010
0000
,
0001
1000
0001
1000
,
0010
0100
0001
0000
,
0010
0100
0010
0100
,
1000
0001
1000
0000
,
0010
0100
0010
0100
,
0001
1000
0001
0000
,
1001
0000
0000
0000
,
0000
0000
0000
0000
;
#NOTES:
     dance-single:
     :
     Medium:
     8:
     :
0000
0000
0000
0000
,
0000
0000
0000
0000
,
0000
0000
0000
0000
,
0000
0000
0000
0000
,
0000
0000
0000
0000
,
0001
0000
0000
1000
0100
0000
1000
0000
,
0010
0000
0000
0100
0001
0000
0100
0000
,
0010
0000
0000
1000
0100
0000
0010
0000
,
0001
0000
0000
0010
0100
0000
0010
0000
,
0110
0000
0000
0001
1000
0000
0001
0000
,
2002
0000
3003
0100
,
0010
1000
0100
1000
,
0010
0100
0001
0001
,
0001
0000
0000
0000
0001
0010
0001
0000
,
1000
1000
0010
0010
,
1000
0100
0010
0100
,
0010
0000
0010
0010
,
0010
0000
0000
0000
1000
0100
1000
0000
,
0001
0000
0000
0000
0100
0010
0100
0000
,
0001
0010
0100
1000
,
0001
0001
0100
0100
,
1001
0000
0100
0100
,
0000
0000
0200
0310
,
0000
0000
0100
0100
,
0000
0001
1000
0000
0100
0000
0010
0000
,
0110
0000
0010
0010
,
0000
0000
0020
0130
,
0000
0000
0010
0010
,
0000
0001
0100
0000
0110
0000
1001
0000
,
1000
1000
0100
0100
,
0010
0010
0001
0001
,
1000
1000
0100
0100
,
0010
0010
0001
0001
,
1000
0100
1000
0000
0010
1000
0010
0000
,
0100
0001
0100
0000
0001
0010
0001
0000
,
1000
0100
0010
0001
1000
0100
0010
0002
,
2000
0000
0000
3003
,
0001
0000
1000
0100
0010
0000
0001
0100
,
0010
1000
1100
1001
,
1000
0000
0001
0010
0100
0000
1000
0010
,
0100
0001
0101
1001
,
0001
0000
0100
0010
1000
0000
0001
0010
,
0100
1000
1001
0110
,
1000
0000
0010
0100
0001
0000
0010
0100
,
1000
0001
1001
0110
,
0001
0000
1000
0001
0100
0000
0001
1000
,
0100
0000
1000
0001
0100
0000
1001
0000
,
0110
0000
0001
1000
0010
0000
1000
0001
,
0010
0000
0001
1000
0010
0000
1001
0000
,
0110
0000
1000
0100
0010
0000
0100
1000
,
0010
0000
0100
0010
1000
0000
1001
0000
,
0110
0000
0001
0100
0010
0000
0100
0001
,
0010
0000
0100
0010
0001
0000
0110
0000
,
2002
0000
0000
0000
,
3003
0000
0000
0000
,
0000
0000
0000
0000
;
#NOTES:
     dance-single:
     :
     Hard:
     10:
     :
0000
0000
0000
0000
,
0000
0000
0000
0000
,
0000
0000
0000
0000
,
0000
0000
0000
0000
,
0000
0000
0000
0000
,
1001
0000
0000
0010
1000
0100
1000
0100
,
0010
0000
0000
0010
0001
0100
0001
0100
,
0010
0000
0000
0010
1000
0001
1000
0001
,
0100
0000
0000
0100
0001
1000
0001
1000
,
0010
0000
0000
0010
1000
0100
0010
0001
,
1000
0000
0000
0000
0000
1000
0001
1000
,
0001
0010
0001
0010
0100
1000
0100
1000
,
0001
0000
0001
1000
0100
0010
0100
0010
,
0001
0000
0000
0001
0100
0010
0100
0010
,
1000
0000
1000
0001
0100
0010
0100
0010
,
1000
0100
0010
0100
0001
0100
0010
0100
,
1000
0000
0000
1000
0010
0100
0010
0100
,
0001
0000
0000
0001
0010
0100
0010
0100
,
1000
0000
0000
1000
0001
0100
0001
0100
,
0001
0010
0000
0010
1000
0010
0100
0010
,
0001
0000
0001
0010
0100
1000
0001
0010
,
0100
0000
1000
0000
0000
0000
1000
0001
1000
0000
0001
1000
0002
0000
0000
0000
,
0003
0000
0000
0000
0000
0000
0100
0010
0100
0000
0020
0000
0000
0000
0130
0000
,
0000
0000
0000
0000
0000
0000
0001
1000
0001
0000
1000
0001
2000
0000
0000
0000
,
3000
1000
0001
0100
0010
1000
0001
0200
,
0000
0000
0310
0000
0000
0000
1000
0010
1000
0000
0001
0010
0002
0000
0000
0000
,
0003
0000
0000
0000
0000
0000
1000
0100
1000
0000
0002
0000
0000
0000
0103
0000
,
0000
0000
0000
0000
0000
0000
0001
0010
0001
0000
1000
0010
2000
0000
0000
0000
,
3000
1000
0010
0010
0100
0001
1000
0001
,
1001
0000
0100
0001
0010
0000
0100
1000
,
0010
0000
1000
0001
0100
0010
1000
0001
,
1001
0000
0100
1000
0010
0000
0100
0001
,
0010
0000
0001
1000
0100
0010
0001
1000
,
0001
0100
0001
0100
0010
1000
0010
1000
,
0100
1000
0100
1000
0001
0010
0001
1000
,
0001
1000
0001
0000
1000
0001
1000
0000
0001
1000
0001
0000
1000
0001
1000
0000
,
2002
0000
0000
3003
,
1001
0000
1000
0100
0110
0000
0100
0010
,
0011
0000
0001
0100
1000
0100
0001
0010
,
0110
0000
0010
0001
1001
0000
1000
0001
,
0101
0000
0100
1000
0010
1000
0100
0001
,
1001
0000
0001
0010
0110
0000
0010
0100
,
1100
0000
1000
0010
0001
0010
1000
0100
,
0110
0000
0100
1000
1001
0000
0001
1000
,
0010
0000
0000
0010
0100
0000
0010
0000
0000
0000
0100
0000
0100
0000
0000
0000
,
0110
0000
1000
0001
0101
0000
0001
1000
,
1100
0000
0010
0001
0010
0100
1000
0010
,
1001
0000
0100
0010
0011
0000
1000
0001
,
0101
0000
1000
0010
1000
0001
0100
1000
,
0110
0000
0001
1000
1010
0000
1000
0001
,
0011
0000
0100
1000
0100
0010
0001
0100
,
1001
0000
0010
0100
1100
0000
0100
0010
,
0001
0000
0000
0001
1000
0000
0001
0000
0000
0000
1000
0000
1000
0000
0000
0000
,
2002
0000
0000
0000
,
3003
0000
0000
0000
,
0000
0000
0000
0000
;
#NOTES:
     dance-double:
     :
     Easy:
     4:
     :
00000000
00000000
00000000
00000000
,
00000000
00000000
00000000
00000000
,
00000000
00000000
00000000
00000000
,
00000000
00000000
00000000
00000000
,
00000000
00000000
00000000
00000000
,
10000000
00000000
00100000
10000000
,
00100000
00000000
01000000
00010000
,
00100000
00000000
00001000
00010000
,
00001000
00000000
00001000
00001000
,
00000010
00000000
00000001
00000010
,
00000200
00000000
00000300
00000000
,
00000010
00000100
00010000
00010000
,
00001000
00001000
00000100
00001000
,
00010000
00000000
00100000
10000000
,
00100000
00000000
10000000
10000000
,
01000000
00000000
00100000
00001000
,
00010000
00000000
00010000
00100000
,
00010000
00000000
00010000
00001000
,
00010000
00000000
00001000
00001000
,
00000100
00000100
00000010
00000010
,
00000001
00000000
00000010
00000001
,
00000100
00000000
00000010
00000010
,
00000000
00000000
00001000
00001000
,
00000000
00000000
00010000
00010000
,
00000000
00100000
01000000
00100000
,
01000000
00000000
10000000
10000000
,
00000000
00000000
01000000
01000000
,
00000000
00000000
00010000
00010000
,
00000000
00001000
00010000
00001000
,
00010000
00000010
00001000
00000000
,
00000100
00010000
00001000
00000000
,
00100000
00010000
10000000
00000000
,
00100000
01000000
00010000
00000000
,
10000000
01000000
10000000
01000000
,
00100000
01000000
00100000
01000000
,
00100000
00001000
00010000
00001000
,
00022000
00000000
00033000
00000000
,
00001000
00001000
00000010
00000000
,
00000001
00000100
00000001
00000000
,
00000100
00000100
00001000
00000000
,
00010000
00001000
00010000
00000000
,
00010000
00010000
00100000
00000000
,
10000000
01000000
10000000
00000000
,
01000000
01000000
00010000
00000000
,
00022000
00000000
00033000
00000000
,
00001000
00001000
00000100
00000000
,
00000001
00000010
00000001
00000000
,
00000010
00000010
00001000
00000000
,
00010000
00001000
00010000
00000000
,
00010000
00010000
01000000
00000000
,
10000000
00100000
10000000
00000000
,
00100000
00100000
00010000
00000000
,
00022000
00000000
00033000
00000000
,
00011000
00000000
00000000
00000000
,
00000000
00000000
00000000
00000000
;
#NOTES:
     dance-double:
     :
     Medium:
     8:
     :
00000000
00000000
00000000
00000000
,
00000000
00000000
00000000
00000000
,
00000000
00000000
00000000
00000000
,
00000000
00000000
00000000
00000000
,
00000000
00000000
00000000
00000000
,
10000000
00000000
00000000
10000000
01000000
00000000
00100000
00000000
,
00100000
00000000
00000000
00001000
00010000
00000000
00010000
00000000
,
00001000
00000000
00000000
00000010
00000001
00000000
00000001
00000000
,
00000100
00000000
00000000
00000001
00000010
00000000
00000010
00000000
,
00000110
00000000
00000000
00001000
00000100
00000000
00010000
00000000
,
00022000
00000000
00033000
01000000
,
00100000
10000000
01000000
00100000
,
00010000
00000000
00001000
00001000
,
00001000
00000000
00000000
00000000
00010000
00001000
00010000
00000000
,
00001000
00000010
00000001
00000001
,
00000100
00001000
00010000
00001000
,
00010000
00000000
00100000
00100000
,
00100000
00000000
00000000
00000000
10000000
01000000
10000000
00000000
,
00010000
00000000
00000000
00000000
00100000
00001000
00100000
00000000
,
00001000
00010000
00000100
00001000
,
00000001
00000100
00000010
00000000
,
00001001
00000000
00000100
00000100
,
00000000
00000000
02000000
03100000
,
00000000
00000000
00100000
00100000
,
00000000
00000010
00000100
00000000
00000010
00000000
00000100
00000000
,
00000110
00000000
00000010
00000010
,
00000000
00000000
00200000
01300000
,
00000000
00000000
01000000
01000000
,
00000000
00000100
00000010
00000000
00000110
00000000
00001001
00000000
,
00000001
00000001
00000100
00000100
,
00000010
00000010
00001000
00001000
,
00010000
00010000
01000000
01000000
,
00100000
00100000
10000000
10000000
,
01000000
10000000
00100000
00000000
01000000
00010000
00100000
00000000
,
00001000
00010000
00001000
00000000
00010000
00000100
00001000
00000000
,
00001000
00000100
00000010
00000001
00001000
00000100
00000010
00000002
,
00002000
00000000
00000000
00003003
,
00000001
00000000
00000100
00000010
00001000
00000000
00000100
00000010
,
00000001
00000000
00000100
00000010
00001000
00000000
00001100
00000000
,
00011000
00000000
00010000
00000100
00001000
00000000
00000100
00010000
,
00001000
00000000
00100000
00001000
00010000
00000000
00011000
00000000
,
00110000
00000000
00100000
00001000
00010000
00000000
01000000
00100000
,
00001000
00000000
00010000
00001000
00100000
00000000
01100000
00000000
,
11000000
00000000
01000000
00100000
00010000
00000000
01000000
10000000
,
01000000
00000000
00100000
10000000
01000000
00000000
10010000
00000000
,
10000000
00000000
00100000
01000000
00010000
00000000
00100000
01000000
,
10000000
00000000
00100000
01000000
00010000
00000000
00110000
00000000
,
00011000
00000000
00001000
00100000
00010000
00000000
00100000
00001000
,
00010000
00000000
00000100
00010000
00001000
00000000
00011000
00000000
,
00001100
00000000
00000100
00010000
00001000
00000000
00000010
00000100
,
00010000
00000000
00001000
00010000
00000100
00000000
00000110
00000000
,
00000011
00000000
00000010
00000100
00001000
00000000
00000010
00000001
,
00000010
00000000
00000100
00000001
00000010
00000000
00000110
00000000
,
00002002
00000000
00000000
00000000
,
00003003
00000000
00000000
00000000
,
00000000
00000000
00000000
00000000
;
#NOTES:
     dance-double:
     :
     Hard:
     10:
     :
00000000
00000000
00000000
00000000
,
00000000
00000000
00000000
00000000
,
00000000
00000000
00000000
00000000
,
00000000
00000000
00000000
00000000
,
00000000
00000000
00000000
00000000
,
10000000
00000000
00000000
01000000
00010000
01000000
00100000
00001000
,
00010000
00000000
00000000
00010000
00000100
00001000
00000100
00000010
,
00000001
00000000
00000000
00000100
00001000
00000100
00000010
00010000
,
00001000
00000000
00000000
00000000
00010000
01000000
10000000
01000000
,
00010000
00000000
00000000
00000000
00001000
00000100
00000001
00000100
,
00001000
00000000
00000000
00000000
00010000
00100000
10000000
00100000
,
01000000
00010000
01000000
00001000
00010000
00001000
00010000
00000100
,
00010000
00000000
00000100
00000010
00000001
00001000
00000001
00001000
,
00000001
00000000
00000000
00000001
00000100
00000010
00000100
00000010
,
00001000
00000000
00001000
00000010
00010000
00001000
00010000
00001000
,
00010000
01000000
00100000
01000000
00100000
00010000
10000000
01000000
,
00100000
00000000
00000000
00100000
00010000
10000000
00010000
10000000
,
00010000
00000000
00000000
10000000
01000000
00100000
01000000
00100000
,
00010000
00000000
00000000
00100000
00001000
00010000
00001000
00010000
,
00001000
00000100
00000000
00000100
00000010
00001000
00000001
00000100
,
00000010
00000000
00000010
00001000
00000001
00000100
00001000
00010000
,
00001000
00000000
00010000
00000000
00000000
00000000
00100000
10000000
00100000
00000000
10000000
00100000
10000000
00000000
00000000
00000000
,
00000000
00000000
00000000
00000000
00000000
00000000
00010000
01000000
00010000
00000000
02000000
00000000
00000000
00000000
03010000
00000000
,
00000000
00000000
00000000
00000000
00000000
00000000
00001000
00010000
00001000
00000000
00010000
00001000
00010000
00000000
00000000
00000000
,
00000000
00010000
00000100
00001000
00000100
00000010
00000100
00000020
,
00000000
00000000
00000031
00000000
00000000
00000000
00000100
00000001
00000100
00000000
00000001
00000100
00000001
00000000
00000000
00000000
,
00000000
00000000
00000000
00000000
00000000
00000000
00001000
00000100
00001000
00000000
00000200
00000000
00000000
00000000
00010300
00000000
,
00000000
00000000
00000000
00000000
00000000
00000000
00001000
00010000
00001000
00000000
01000000
00010000
01000000
00000000
00000000
00000000
,
00000000
00100000
10000000
00100000
01000000
00010000
01000000
00001000
,
00010000
00000000
00010000
00000100
00000010
00000000
00000010
00000001
,
00000100
00000000
00000001
00000100
00001000
00010000
00100000
10000000
,
00010000
00000000
10000000
01000000
00100000
00000000
00100000
00010000
,
01000000
00000000
00100000
10000000
01000000
00010000
00001000
00000010
,
00000001
00000100
00000001
00000100
00001000
00000100
00001000
00010000
,
00001000
00010000
00001000
00010000
00100000
00010000
00100000
10000000
,
01000000
00000000
00100000
00000000
00001000
00000000
00010000
00000000
00001000
00010000
00001000
00000000
00010000
00001000
00010000
00000000
,
00022000
00000000
00000000
00033000
,
00001100
00000000
00000010
00000001
00000010
00000000
00000001
00000100
,
00000001
00000000
00000100
00000010
00010000
00001000
00010000
00001000
,
00011000
00000000
00100000
00010000
00100000
00000000
01000000
10000000
,
01000000
00000000
10000000
00100000
01000000
00010000
01000000
00100000
,
01100000
00000000
00100000
01000000
00001000
00000000
00001000
00010000
,
00000100
00000000
00000100
00001000
00000010
00000100
00000001
00001000
,
00001001
00000000
00000001
00000010
00000100
00000000
00000100
00010000
,
00001000
00000000
00000000
00001000
01000000
00000000
00100000
00000000
00000000
00000000
01000000
00000000
01000000
00000000
00000000
00000000
,
10010000
00000000
01000000
10000000
11000000
00000000
10000000
00100000
,
10100000
00000000
00100000
01000000
00001000
00010000
00001000
00010000
,
00011000
00000000
00000100
00001000
00001100
00000000
00000010
00000001
,
00000011
00000000
00000001
00000100
00000010
00001000
00000010
00000100
,
00000110
00000000
00000100
00000010
00010010
00000000
00010000
00001000
,
00101000
00000000
00100000
00010000
01000000
00100000
10000000
00010000
,
10010000
00000000
10000000
01000000
01100000
00000000
00100000
00001000
,
00010000
00000000
00000000
00010000
00000010
00000000
00000100
00000000
00000000
00000000
00000010
00000000
00000010
00000000
00000000
00000000
,
00000220
00000000
00000000
00000000
,
00000330
00000000
00000000
00000000
,
00000000
00000000
00000000
00000000
;
