
//----- song ID: smst -----//
#TITLE:Small Steps;
#ARTIST:かめりあ;
#ARTISTTRANSLIT:Camellia;
#BANNER:Small Steps.png;
#BACKGROUND:Small Steps-bg.png;
#CDTITLE:./CDTitles/DANCERUSH STARDOM.png;
#MUSIC:Small Steps.ogg;
#SAMPLESTART:56.391;
#SAMPLELENGTH:15;
#BPMS:0=106;
#NOTES:
     dance-single:
     :
     Beginner:
     1:
     :
0000
0000
0000
0000
,
0000
0000
0000
0000
,
0000
0000
0000
0000
,
0000
0000
0000
0000
,
0000
0000
0000
0000
,
0001
0000
0000
0000
,
0001
0000
0000
0000
,
1000
0000
0000
0000
,
1000
0000
0000
0000
,
1001
0000
0000
0000
,
0000
0000
0000
0000
,
1001
0000
0000
0000
,
0000
0000
0000
0000
,
1000
0000
0000
0000
,
0010
0000
0000
0000
,
0001
0000
0000
0000
,
0100
0000
0000
0000
,
2000
0000
0000
0000
,
3000
0000
0000
0000
,
0002
0000
0000
0000
,
0003
0000
0000
0000
,
0020
0000
0000
0000
,
0030
0000
0000
0000
,
0200
0000
0000
0000
,
0300
0000
0000
0000
,
0001
0000
0001
0000
,
0001
0000
0000
0000
,
1000
0000
1000
0000
,
1000
0000
0000
0000
,
0001
0000
0001
0000
,
0001
0000
0000
0000
,
1000
0000
1000
0000
,
1000
0000
0000
0000
,
2000
0000
0000
0000
,
3000
0000
0000
0000
,
0002
0000
0000
0000
,
0003
0000
0000
0000
,
0001
0000
0000
0000
,
1000
0000
0000
0000
,
0001
0000
0000
0000
,
1001
0000
0000
0000
,
0000
0000
0000
0000
;
#NOTES:
     dance-single:
     :
     Easy:
     4:
     :
0000
0000
0000
0000
,
0000
0000
0000
0000
,
0000
0000
0000
0000
,
0000
0000
0000
0000
,
0000
0000
0000
0000
,
0001
1000
0001
0001
,
1000
0001
1000
1000
,
0001
1000
0001
0001
,
1000
0000
0000
0000
,
1001
0000
0000
0100
,
0000
0100
0000
0100
,
0000
0010
0000
0010
,
0000
0010
0000
0000
,
0001
0100
0010
0100
,
0001
0100
0010
0100
,
0010
0100
0010
1000
,
2002
0000
0000
3003
,
1000
0100
0001
0100
,
1000
0100
0001
0100
,
1000
0010
0001
0010
,
1000
0010
0001
0010
,
1000
0100
0001
0100
,
1000
0010
0001
0010
,
1000
0100
0001
0100
,
1001
0000
0000
0000
,
0001
0100
0010
0100
,
0001
0100
0010
1000
,
0010
0100
0010
1000
,
0001
0000
1000
0000
,
0010
1000
0010
0100
,
0010
1000
0010
0100
,
0010
0100
0001
0100
,
0010
0000
1000
0000
,
0002
0000
1000
0000
,
1000
0000
1003
0000
,
2000
0000
0001
0000
,
0001
0000
3001
0000
,
1001
0000
0000
0001
,
0000
0000
0000
1000
,
0000
0000
0000
0001
,
0000
0000
0000
1001
,
0000
0000
0000
0000
;
#NOTES:
     dance-single:
     :
     Medium:
     7:
     :
0000
0000
0000
0000
,
0000
0000
0000
0000
,
0000
0000
0000
0000
,
0000
0000
0000
0000
,
0000
0000
0000
0000
,
1002
0100
0010
2003
,
0001
0100
0010
3002
,
1000
0010
0100
2003
,
0001
0010
0100
3001
,
1001
0100
0000
0100
,
0000
0100
0000
0100
,
0000
0010
0000
0010
,
0000
0010
0000
0010
,
0002
2003
3002
2003
,
3002
2003
3002
2003
,
3020
0230
0320
0130
,
0220
0000
0000
0330
,
0002
0103
2000
3100
,
0002
0103
2000
3100
,
0002
0013
2000
3010
,
0002
0013
2000
3010
,
0002
0100
2003
0100
,
3002
0100
2003
0100
,
3002
0010
2003
0010
,
3002
0013
0000
1001
,
0001
0100
0010
0100
0001
0000
1001
0000
,
0010
1000
0010
0100
0010
0000
0110
0000
,
0001
1000
0001
1000
0001
0000
1001
0000
,
0010
0100
0010
0100
0010
0000
0110
0000
,
0002
0010
2003
0010
,
3100
0001
0200
1300
,
2000
0010
3002
0010
,
0103
1000
0100
0000
,
0001
0100
0010
0100
0010
0100
0010
1000
,
0001
0100
0010
1000
0001
0000
1002
0000
,
0100
0010
1000
2003
,
0100
0010
0001
3001
,
1001
0000
0000
0000
,
1000
0000
0000
0000
,
0001
0000
0000
0000
,
1001
0000
0000
0000
,
0000
0000
0000
0000
;
#NOTES:
     dance-single:
     :
     Hard:
     10:
     :
0000
0000
0000
0000
,
0000
0000
0000
0000
,
0000
0000
0000
0000
,
0000
0000
0000
0000
,
0000
0000
0000
0000
,
0002
0100
0103
0000
,
2000
0100
3100
0000
,
0002
0010
0010
0013
,
0220
0000
0000
0330
,
1000
0000
0000
0010
0000
0000
0100
0000
0000
0010
0000
0000
0110
0000
0000
0000
,
0001
0000
0000
0010
0000
0000
0100
0000
0000
0010
0000
0000
0110
0000
0000
0000
,
1000
0000
0000
0100
0000
0000
0010
0000
0000
0100
0000
0000
0110
0000
0000
0000
,
0001
0000
0000
0100
0000
0000
0010
0000
0000
0100
0000
0000
0110
0000
0000
0000
,
1000
0000
0000
0010
0100
0000
0010
0000
1000
0001
0000
0000
1001
0000
0000
0000
,
0001
0000
0000
0010
0100
0000
0010
0000
0001
1000
0000
0000
1001
0000
0000
0000
,
0100
0000
0000
0010
1000
0000
0010
0000
0100
0001
0000
0000
0110
0000
0000
0000
,
2002
0000
0000
3003
,
1000
0000
0000
0100
0000
0000
0010
0000
0000
0100
0000
0000
1001
0000
0000
0000
,
0010
0000
0000
0100
0000
0000
1000
0000
0000
0100
0000
0000
1001
0000
0000
0000
,
0001
0000
0000
0100
0000
0000
0010
0000
0000
0100
0000
0000
1001
0000
0000
0000
,
0001
0000
0000
0010
0000
0000
0100
0000
0000
0010
0000
0000
1001
0000
0000
0100
,
0010
0000
0000
0001
0000
0000
0100
0000
0000
1000
0000
0000
0110
0000
0000
0000
,
0010
0000
0000
1000
0000
0000
0001
0000
0000
0100
0000
0000
0110
0000
0000
0000
,
0100
0000
0000
0001
0000
0000
1000
0000
0000
0010
0000
0000
0110
0000
0000
0000
,
0010
0000
0000
1000
0000
0000
0001
0000
0000
1000
0000
0000
0110
0000
0000
0000
,
1000
0010
0100
0010
1000
0001
0010
0000
,
0100
1000
0001
0100
0001
0010
0100
0000
,
0010
0001
1000
0001
0100
0001
0010
0000
,
0100
1000
0001
0010
0001
0100
0010
0000
,
1000
0010
0100
0001
0100
0010
1000
0000
,
0001
0010
0100
0010
0001
0100
0010
0000
,
1000
0001
1000
0100
1000
0010
0100
0000
,
2002
0000
0000
3003
,
1000
0000
0010
0100
0010
0000
1000
0000
0001
0000
0010
0000
0100
0000
0000
0000
,
0010
0000
0001
0100
0001
0000
1000
0000
0100
0000
0010
0000
0100
0000
0000
0000
,
1000
0000
0010
0100
0010
0000
1000
0000
0001
0000
0100
0000
0010
0000
0000
0000
,
1000
0000
0001
1000
0001
0000
0100
0000
0010
0000
1000
0000
0100
0000
0000
0000
,
1002
0000
0000
0000
0000
0000
0000
0000
0000
0100
0000
0000
0100
0000
0000
0000
,
0010
0000
0000
0000
0000
0000
0000
0000
0000
0010
0000
0000
0010
0000
0000
0000
,
1000
0000
0000
0000
0000
0000
0000
0000
0000
1000
0000
0000
1000
0000
0000
0000
,
0100
0000
0000
0000
0000
0000
0000
0000
0000
0100
0000
0000
0103
0000
0000
0000
,
0000
0000
0000
0000
;
#NOTES:
     dance-double:
     :
     Easy:
     4:
     :
00000000
00000000
00000000
00000000
,
00000000
00000000
00000000
00000000
,
00000000
00000000
00000000
00000000
,
00000000
00000000
00000000
00000000
,
00000000
00000000
00000000
00000000
,
00100000
10000000
00100000
00100000
,
01000000
00010000
01000000
01000000
,
00001000
00010000
00001000
00001000
,
00010000
00000000
00000000
00000000
,
00011000
00000000
00000000
00000100
,
00000000
00000100
00000000
00000100
,
00000000
01000000
00000000
01000000
,
00000000
01000000
00000000
00000000
,
00000001
00001000
00000001
00001000
,
00000010
00000100
00000010
00000100
,
00001000
00010000
00001000
00010000
,
00022000
00000000
00000000
00033000
,
10000000
01000000
00010000
01000000
,
10000000
00100000
00010000
00100000
,
01000000
00001000
00001000
00010000
,
00010000
00000100
00000100
00001000
,
00001000
00000100
00000001
00000100
,
00001000
00000010
00000001
00000010
,
00001000
00000100
00000100
00010000
,
00011000
00000000
00000000
00000000
,
00010000
01000000
00100000
10000000
,
00010000
01000000
00010000
01000000
,
00001000
00010000
00001000
00010000
,
00000100
00000000
00001000
00000000
,
00000001
00000100
00000010
00001000
,
00000001
00000100
00000001
00000100
,
00001000
00010000
00001000
00010000
,
00001000
00000000
01000000
00000000
,
00002000
00000000
00010000
00000000
,
00010000
00000000
00013000
00000000
,
00020000
00000000
00001000
00000000
,
00001000
00000000
00031000
00000000
,
00011000
00000000
00000000
00001000
,
00000000
00000000
00000000
00010000
,
00000000
00000000
00000000
00001000
,
00000000
00000000
00000000
00011000
,
00000000
00000000
00000000
00000000
;
#NOTES:
     dance-double:
     :
     Medium:
     7:
     :
00000000
00000000
00000000
00000000
,
00000000
00000000
00000000
00000000
,
00000000
00000000
00000000
00000000
,
00000000
00000000
00000000
00000000
,
00000000
00000000
00000000
00000000
,
00000120
00001000
00010000
00020030
,
00001000
00000100
00000010
00032000
,
00010000
00100000
01000000
02003000
,
00100000
00010000
00001000
03001000
,
00011000
01000000
00000000
00010000
,
00000000
00001000
00000000
00000100
,
00000000
00000010
00000000
00001000
,
00000000
00010000
00000000
00100000
,
00200000
20300000
30020000
02030000
,
03002000
00023000
00030020
00002030
,
00003002
00000023
00000230
00010300
,
00022000
00000000
00000000
00033000
,
00102000
00203000
00320000
20030000
,
30200000
02300000
03020000
00230000
,
00302000
00023000
00030200
00002300
,
00003020
00002030
00003200
00010300
,
00002000
00010000
00023000
00001000
,
00032000
00100000
00023000
00000010
,
00032000
01000000
00023000
00000100
,
00032000
00013000
00000000
00011000
,
00000010
00001000
00000010
00000100
00000001
00000000
00001001
00000000
,
00001000
00000100
00000010
00000100
00010000
00000000
00011000
00000000
,
00001000
00010000
00001000
00010000
00001000
00000000
00011000
00000000
,
00010000
00001000
00010000
00001000
00010000
00000000
00011000
00000000
,
00002000
00010000
02003000
00010000
,
03100000
00010000
00002000
00013000
,
00020000
00001000
00030010
00000100
,
00001000
00010000
01000000
00000000
,
00100000
01000000
00100000
10000000
00010000
01000000
00010000
01000000
,
00001000
00010000
00001000
00010000
00000010
00000000
00000120
00000000
,
00000100
00001000
00010000
00020030
,
00001000
00000100
00000010
00030010
,
00011000
00000000
00000000
00000000
,
01000000
00000000
00000000
00000000
,
00000100
00000000
00000000
00000000
,
00011000
00000000
00000000
00000000
,
00000000
00000000
00000000
00000000
;
#NOTES:
     dance-double:
     :
     Hard:
     10:
     :
00000000
00000000
00000000
00000000
,
00000000
00000000
00000000
00000000
,
00000000
00000000
00000000
00000000
,
00000000
00000000
00000000
00000000
,
00000000
00000000
00000000
00000000
,
10000000
00010000
10000000
00000000
,
00100000
01000000
00100000
00000000
,
00010000
00001000
00010000
00000000
,
00022000
00000000
00000000
00033000
,
00000100
00000000
00000000
00001000
00000000
00000000
00000100
00000000
00000000
00001000
00000000
00000000
00001001
00000000
00000000
00000000
,
00000001
00000000
00000000
00000100
00000000
00000000
00000001
00000000
00000000
00000100
00000000
00000000
00000110
00000000
00000000
00000000
,
00010000
00000000
00000000
00000100
00000000
00000000
00010000
00000000
00000000
00000100
00000000
00000000
00011000
00000000
00000000
00000000
,
01000000
00000000
00000000
00001000
00000000
00000000
01000000
00000000
00000000
00001000
00000000
00000000
00011000
00000000
00000000
00000000
,
00100000
00000000
00000000
10000000
00100000
00000000
01000000
00000000
00010000
01000000
00000000
00000000
01100000
00000000
00000000
00000000
,
00010000
00000000
00000000
01000000
00010000
00000000
00100000
00000000
00001000
00010000
00000000
00000000
00011000
00000000
00000000
00000000
,
00010000
00000000
00000000
00000100
00001000
00000000
00000100
00000000
00000010
00000001
00000000
00000000
00001001
00000000
00000000
00000000
,
00000220
00000000
00000000
00000330
,
00000001
00000000
00000000
00000100
00000000
00000000
00001000
00000000
00000000
00010000
00000000
00000000
00100000
00000000
00000000
00000000
,
10000000
00000000
00000000
01000000
00000000
00000000
00010000
00000000
00000000
00001000
00000000
00000000
00000010
00000000
00000000
00000000
,
00000001
00000000
00000000
00000010
00000000
00000000
00001000
00000000
00000000
00010000
00000000
00000000
01000000
00000000
00000000
00000000
,
10000000
00000000
00000000
00100000
00000000
00000000
00010000
00000000
00000000
00001000
00000000
00000000
00000100
00000000
00000000
00000000
,
00000001
00000000
00000000
00000010
00000100
00000000
00001000
00000000
00000100
00010000
00000000
00000000
00011000
00000000
00000000
00000000
,
00001000
00000000
00000000
00100000
00010000
00000000
01000000
00000000
00100000
10000000
00000000
00000000
10010000
00000000
00000000
00000000
,
10000000
00000000
00000000
00100000
01000000
00000000
00010000
00000000
01000000
00001000
00000000
00000000
00011000
00000000
00000000
00000000
,
00010000
00000000
00000000
00000010
00001000
00000000
00000100
00000000
00000010
00000001
00000000
00000000
00001001
00000000
00000000
00000000
,
00000001
00000100
00000010
00000100
00001000
00010000
01000000
00000000
,
00100000
00001000
00010000
01000000
00100000
00010000
10000000
00000000
,
10000000
01000000
00100000
00010000
00001000
00000100
00000010
00000000
,
00000001
00000010
00001000
00010000
00000100
00000010
00000100
00000000
,
00001000
00000010
00001000
00000010
00010000
00001000
00010000
00000000
,
00001000
00100000
01000000
00100000
01000000
10000000
00010000
00000000
,
01000000
00100000
01000000
00010000
01000000
00001000
00010000
00000000
,
00022000
00000000
00000000
00033000
,
00010000
00000000
00000100
00001000
00000100
00000000
00000010
00000000
00000001
00000000
00000100
00000000
00000001
00000000
00000000
00000000
,
00000010
00000000
00000100
00010000
00000100
00000000
00010000
00000000
00001000
00000000
00100000
00000000
00010000
00000000
00000000
00000000
,
10000000
00000000
00100000
01000000
00100000
00000000
01000000
00000000
00010000
00000000
10000000
00000000
01000000
00000000
00000000
00000000
,
00010000
00000000
00001000
00100000
00001000
00000000
00010000
00000000
00000100
00000000
00001000
00000000
00000010
00000000
00000000
00000000
,
00000010
00000000
00000000
00000000
00000000
00000000
00000000
00000000
00000000
00000100
00000000
00000000
00000100
00000000
00000000
00000000
,
00001000
00000000
00000000
00000000
00000000
00000000
00000000
00000000
00000000
00010000
00000000
00000000
00010000
00000000
00000000
00000000
,
01000000
00000000
00000000
00000000
00000000
00000000
00000000
00000000
00000000
00100000
00000000
00000000
00100000
00000000
00000000
00000000
,
00010000
00000000
00000000
00000000
00000000
00000000
00000000
00000000
00000000
00001000
00000000
00000000
00001000
00000000
00000000
00000000
,
00000000
00000000
00000000
00000000
;
