
//----- song ID: skyw -----//
#TITLE:Skywalking;
#ARTIST:Nhato;
#BANNER:Skywalking.png;
#BACKGROUND:Skywalking-bg.png;
#CDTITLE:./CDTitles/DDR A20.png;
#MUSIC:Skywalking.ogg;
#SAMPLESTART:88.05;
#SAMPLELENGTH:15;
#BPMS:0=180,69=90,85=180,181=90,213=180;
#STOPS:68=1;
#NOTES:
     dance-single:
     :
     Beginner:
     4:
     :
0000
0000
0000
0000
,
0000
0000
0000
0000
,
0000
0000
0000
0000
,
0000
0000
0000
0000
,
0000
0000
0000
0000
,
0000
0000
0000
0000
,
0010
0000
1000
0000
,
0001
0000
0010
0000
,
0100
0000
1000
0000
,
0001
0000
0000
0000
,
1000
1000
1000
0000
,
0010
0010
0010
0000
,
0001
0001
0001
0000
,
0100
0100
0100
0000
,
1000
0000
0010
0000
,
0001
0000
0100
0000
,
1000
0000
0010
0000
,
0000
0000
0000
0100
,
0100
0000
0000
0001
,
0001
0000
0000
0010
,
0010
0000
0000
1000
,
1000
0000
0000
0000
,
0000
0010
0010
0010
,
0000
0000
0000
0000
,
0000
0001
0001
0001
,
0000
0000
0000
0000
,
0000
1000
1000
1000
,
0000
0000
0000
0000
,
0000
2002
0000
3003
,
0000
0010
0000
0010
,
0000
0100
0000
0100
,
0000
0001
0001
0001
,
0000
1000
1000
1000
,
0000
0010
0000
0010
,
0000
0100
0000
0100
,
0000
1000
1000
1000
,
0000
0001
0001
0001
,
0000
0010
0000
1000
,
0000
0100
0000
0001
,
0000
0010
0010
0010
,
0000
0100
0100
0100
,
0000
0010
0000
0001
,
0000
0100
0000
1000
,
0000
0010
0010
0010
,
0000
0200
0000
0300
,
0000
0010
0000
0010
,
0000
0100
0000
0100
,
0000
0001
0000
1000
,
0000
0001
0000
1000
,
0000
0001
0001
0001
,
0000
1000
1000
1000
,
0000
0010
0010
0010
,
0000
0100
0100
0100
,
0000
0010
0000
1000
,
0000
0001
0001
0001
,
0000
0010
0000
0001
,
0000
1000
1000
1000
,
0000
0100
0000
1000
,
0000
0001
0001
0001
,
0000
0100
0000
0001
,
0000
1000
1000
1000
,
0000
0001
0000
0010
,
0000
1000
0000
0100
,
0000
0001
0000
0100
,
0000
1000
0000
0010
,
0000
1000
1000
1000
,
0000
0001
0001
0001
,
0000
0010
0010
0010
,
0000
1001
0000
0000
,
0000
0020
0000
0030
,
0000
0002
0000
0003
,
0000
0200
0000
0300
,
0000
2000
0000
3000
,
0000
0020
0000
0030
,
0000
2000
0000
3000
,
0000
0200
0000
0000
,
0000
0000
0000
0000
,
0000
0300
0000
0000
,
0000
0000
0000
0000
;
#NOTES:
     dance-single:
     :
     Easy:
     7:
     :
0000
0000
0000
0000
,
0000
0000
0000
0000
,
0000
0000
0000
0000
,
0000
0000
0000
0000
,
0000
0000
0000
0000
,
0000
0000
0000
0000
,
0110
0001
0010
1000
,
0110
1000
0100
0001
,
0110
0001
0010
1000
,
0001
0100
1000
0100
,
0001
0001
0100
0100
,
1000
1000
0010
0010
,
0001
0001
0100
0100
,
1000
1000
0010
0010
,
1000
0100
0001
0100
,
1000
0010
0001
0010
,
1000
0100
0001
0010
,
0000
1000
0010
1000
,
0000
0001
0010
0001
,
0000
1000
0100
0001
,
0000
0001
0100
1000
,
0000
0001
0002
0010
,
0010
1000
1000
0100
,
0103
1000
2000
0010
,
0010
0001
0001
0100
,
3100
0001
0100
0001
,
0100
1000
0100
1000
,
0100
0001
0100
0010
,
1000
0002
0000
0000
,
0003
2000
0010
0010
,
3010
0002
0013
2000
,
3010
0001
0100
0010
,
1000
0100
0010
0001
,
0001
0002
0010
0010
,
0013
2000
3010
0002
,
0013
1000
0100
0010
,
0001
0100
0010
1000
,
1000
0110
1000
0100
,
0001
2000
0010
0001
,
3100
0010
1000
0010
,
0001
0010
1000
0100
,
0100
0110
0001
0100
,
1000
0002
0010
1000
,
0103
0010
0001
0010
,
1000
0010
0100
0110
,
0000
1001
0010
0001
,
0100
0001
0010
1000
,
0001
0110
0001
1000
,
0001
1000
0010
0001
,
0100
1001
0010
1000
,
0100
1000
0010
0001
,
1000
0110
1000
0001
,
1000
0001
0010
1000
,
0100
0110
0001
0010
,
0001
1000
0100
0010
,
0001
1001
0010
1000
,
0100
1000
0010
0100
,
0100
0110
1000
0010
,
1000
0001
0100
0010
,
1000
1001
0010
0001
,
0100
0001
0010
0100
,
0100
2001
0010
0010
,
3010
0100
0010
1000
,
0010
1002
0010
0010
,
0013
0100
0010
0001
,
0001
2001
0100
0100
,
3100
0010
0001
0010
,
1000
0001
0100
0010
,
2000
0000
0000
0100
,
3100
0010
0000
0001
,
0000
0100
0000
0010
,
0010
1000
0000
0100
,
0000
0010
0000
0001
,
0001
0010
0000
0100
,
0000
1000
0000
0010
,
0010
0000
0100
0000
0000
0100
0000
0000
,
0200
0000
0000
0000
,
0000
0300
0000
0000
,
0000
0000
0000
0000
;
#NOTES:
     dance-single:
     :
     Medium:
     11:
     :
0000
0000
0000
0000
,
0000
0000
0000
0000
,
0000
0000
0000
0000
,
0000
0000
0000
0000
,
0000
0000
0000
0000
,
0000
0000
0000
0000
,
0110
0000
1000
0000
0010
1000
0001
0000
,
0110
0000
0001
0000
0010
0001
1000
0000
,
0110
0000
0001
0000
0100
0001
1000
0000
,
0001
1000
0100
1000
0001
0100
0001
0000
,
1000
1000
0100
0100
,
0001
0000
0001
0000
0010
0000
0010
0100
,
0010
0000
0010
0000
0001
0000
0001
0002
,
0000
1000
0000
0010
0000
1000
0003
0100
,
0001
1000
0100
0000
1000
0001
0100
0000
,
0010
1000
0100
0000
0010
0001
0100
0000
,
0010
1000
0100
0010
0001
0100
0010
1000
,
0000
0000
0000
0000
0001
0000
0000
0010
0000
0000
1000
0000
0000
0100
0000
0000
,
0010
0000
0110
0000
1000
0000
0000
0010
0000
0000
0001
0000
0000
0100
0000
0000
,
0010
0000
0110
0000
1000
0000
0000
0100
0000
0000
0001
0000
0000
0010
0000
0000
,
0100
0000
0110
0000
0001
0000
0000
0100
0000
0000
1000
0000
0000
0010
0000
0000
,
0100
0110
2000
0000
0001
0001
0000
0010
,
0010
0000
0001
0001
0000
0100
3100
0000
,
1000
0000
0002
0000
1000
1000
0000
0010
,
0010
0000
1000
1000
0000
0100
0103
0000
,
0001
0000
0010
0100
0010
0000
0001
1000
,
0001
0000
1000
0010
1000
0000
0001
0010
,
0001
0000
1000
0100
0010
0001
0100
0010
,
1000
0100
0020
0000
0000
0000
0000
0000
,
0000
0000
0031
0000
0100
0001
0100
0001
,
0100
2001
3100
1002
,
0103
0000
0010
1000
0100
0000
0010
0001
,
0100
0000
1000
0010
0100
0010
1000
1000
,
1000
0000
1001
0000
0100
1000
0100
1000
,
0100
1002
0103
2001
,
3100
0000
0010
0001
0100
0000
0010
1000
,
0100
0000
0001
0010
0100
0010
0001
0001
,
0001
0000
0110
0000
0001
0100
0010
1000
,
0001
0100
0002
0000
0010
0000
1000
0000
,
0103
0000
0010
0100
0001
0000
0010
0100
,
1000
0000
0010
0100
0010
1000
0100
0100
,
0100
0000
0110
0000
1000
0100
0010
0001
,
1000
0100
2000
0000
0010
0000
0001
0000
,
3100
0000
0010
0100
1000
0000
0010
0100
,
0001
1000
0000
0110
0000
1001
0010
0010
,
0010
0010
0100
0000
0001
0010
1000
0010
,
0001
0001
1000
1000
0010
0100
0001
1000
,
0001
0010
0110
0000
1000
0100
0001
0100
,
1000
1000
0001
0001
0010
0001
1000
0010
,
0100
0001
1001
0000
0010
0001
1000
0001
,
0100
0010
1000
0001
1000
0010
0001
0100
,
1000
0001
1001
0000
0010
1000
0001
1000
,
0100
0010
0001
1000
0001
0001
0010
0010
,
0100
0100
0110
0000
1100
0000
0010
0001
,
0100
0000
0001
1000
0100
0000
0010
0100
,
1000
0000
1001
0000
1010
0000
0100
0010
,
1000
0000
0001
1000
0010
0000
0100
0100
,
0100
0000
0110
0000
0101
0000
0010
1000
,
0100
0000
1000
0001
0100
0000
0010
0100
,
0001
0000
1001
0000
0011
0000
0100
0010
,
0001
0000
1000
0001
0010
0000
0100
0100
,
0100
0000
1001
0000
0001
0100
0010
1000
,
0001
0000
0010
0001
1000
0100
0010
0000
,
0100
0000
1100
0000
0010
0001
0010
0100
,
1000
0000
0001
0100
0001
1000
0010
0010
,
0010
0000
1001
0000
1000
0100
0010
0001
,
1000
0000
0010
1000
0001
0100
0010
0000
,
0100
0000
0101
0000
0010
1000
0010
0100
,
0001
1000
0000
0110
0000
1001
0100
0100
,
0100
0100
0010
0000
0010
1000
0000
1000
,
0100
0000
0100
0010
0000
0010
0001
0000
,
1000
0000
0100
0000
0100
1000
0000
1000
,
0010
0000
0010
0100
0000
0100
0001
0000
,
1000
0000
0001
0000
0001
0010
0000
0010
,
0100
0000
0100
1000
0000
1000
0010
0000
,
1000
0000
1010
0000
0000
0011
0000
0000
,
2200
0000
0000
0000
,
0000
3300
0000
0000
,
0000
0000
0000
0000
;
#NOTES:
     dance-single:
     :
     Hard:
     15:
     :
0000
0000
0000
0000
,
0000
0000
0000
0000
,
0000
0000
0000
0000
,
0000
0000
0000
0000
,
0000
0000
0000
0000
,
0000
0000
0000
0000
,
1001
0000
0001
0100
0010
1000
0001
1000
,
1001
0000
1000
0100
0010
0001
1000
0001
,
1001
0000
0001
0010
0100
1000
0001
1000
,
1000
1000
0100
0100
0010
0010
0001
0001
,
1000
1000
0010
0010
,
0001
0000
0000
0000
0001
0000
0000
0000
0100
0000
0000
0000
0100
0000
0010
0100
,
0010
0000
0010
0000
1000
0000
1000
0200
,
0000
0000
0001
0000
0000
0000
1000
0000
0000
0000
0001
0000
0300
0000
1000
0001
,
1000
1000
0100
0100
0010
0010
0001
0001
,
0100
0100
0010
0010
1000
1000
0100
0100
,
0010
0001
0010
0001
1000
0001
1000
0001
1000
0010
1000
0010
0100
0010
0100
0010
,
0000
0000
0000
0000
1000
0000
2000
0010
3000
0020
0001
0030
0002
1000
0003
1000
,
0100
0000
0001
0000
1000
0000
2000
0100
3000
0200
0001
0300
0002
1000
0003
1000
,
0010
0000
0001
0000
0001
0000
0002
0010
0003
0020
1000
0030
2000
0001
3000
0001
,
0100
0000
1000
0000
0001
0000
0002
0100
0003
0200
1000
0300
2000
0001
3000
0001
,
0010
1000
0001
0000
1000
0010
0100
0010
,
1000
0000
0001
0010
0100
0010
0001
0000
,
1000
0001
1000
0000
0001
0100
1000
0100
,
0001
0000
1000
0100
0001
0100
1000
0000
,
0001
0000
1000
1000
0100
0100
0010
0010
,
0001
0001
0100
0100
0010
0010
1000
1000
,
0001
0000
0001
0000
1000
0100
1000
0100
0010
0100
0010
0100
0010
0001
0010
0001
,
1000
0001
1000
0001
2000
0000
0000
0000
0000
0000
0000
0000
0000
0000
0000
0000
,
0000
3001
1000
0000
0010
0010
0010
0010
,
0010
1000
0100
0010
0100
1000
0100
0001
,
0100
0000
1000
0000
0001
0100
0001
0000
0100
0000
0010
0000
1000
0100
1000
0000
,
0100
0000
0010
0000
0001
0100
0001
0000
0100
0000
0010
0000
0100
0000
0100
0000
,
0100
0000
1001
0000
0010
0010
0010
0010
,
0010
0001
0100
0010
0100
0001
0100
1000
,
0100
0000
0001
0000
1000
0100
1000
0000
0100
0000
0010
0000
0001
0100
0001
0000
,
0100
0000
0010
0000
1000
0100
1000
0000
0100
0000
0010
0000
0100
0000
0100
0000
,
0100
0000
0110
0000
0001
0001
0001
0001
,
0001
1000
0010
0100
0010
0001
0010
0100
,
0010
0000
1000
0000
0001
1000
0001
0000
0100
0000
0010
0000
1000
0001
1000
0000
,
0100
0000
0010
0000
0001
1000
0001
0000
0100
0000
0010
0000
0100
0000
0100
0000
,
0100
0000
0110
0000
1000
1000
1000
1000
,
1000
0001
0010
0100
0010
1000
0010
0100
,
0010
0000
0001
0000
1000
0001
1000
0000
0100
0000
0010
0000
0001
1000
0001
0000
,
0100
1010
0000
1010
0000
1010
0100
0100
,
0100
0000
0000
0000
0100
0000
0000
0000
0110
0000
0000
0000
0000
0000
0000
0000
1000
0000
1000
0000
1000
0000
0000
0000
0001
0000
0001
0000
0010
0100
0000
0100
,
1000
0000
0001
0000
1000
1000
0001
0000
0100
0000
0010
0100
1000
0100
0001
0000
,
1000
0000
0000
0000
0100
0000
0000
0000
0110
0000
0000
0000
0000
0000
0000
0000
0001
0000
0001
0000
0001
0000
0000
0000
1000
0000
1000
0000
0010
0100
0000
0100
,
0001
0000
1000
0000
0001
0001
1000
0000
0100
0100
0100
0100
0010
0010
0010
0010
,
0001
0000
0001
0000
0001
0000
0001
0000
1001
0000
0000
0000
0000
0000
0000
0000
0001
0000
0010
0000
1000
0000
0000
0000
0001
0000
0100
0000
1000
0100
0000
0100
,
0010
0000
0100
0000
0001
0100
1000
0000
0001
0000
0100
0010
1000
0100
0010
0000
,
0001
0000
0000
0000
1000
0000
0000
0000
1001
0000
0000
0000
0000
0000
0000
0000
1000
0000
0010
0000
0001
0000
0000
0000
1000
0000
0100
0000
0001
0100
0000
0100
,
0010
0000
0100
0000
1000
0100
0001
0000
1000
1000
1000
1000
0100
0100
0100
0100
,
0010
0010
0010
0010
0110
0000
0000
0000
0001
0000
0010
0000
1000
0000
0010
0000
,
0011
0000
1000
0010
0001
0010
1010
0000
,
0001
0000
0110
0000
1000
0100
0001
0100
,
1100
0000
0001
0100
1000
0100
0001
0001
,
0001
0000
0110
0000
1000
0010
0001
0100
,
1100
0000
0001
0010
1000
0100
0101
0000
,
1000
0000
0110
0000
1000
0100
0001
0010
,
1010
0000
0001
0100
1000
0010
0001
0001
,
0001
0000
1000
0100
0010
0001
1000
0100
,
0001
0100
0010
0100
0010
1000
0010
0001
,
1000
0000
0100
1000
0100
0000
1000
0000
0010
0000
0001
0000
0010
0000
0100
0000
,
0010
1000
0001
0100
0010
1000
0100
0100
,
0100
0000
0001
0100
0010
1000
0001
0100
,
1000
0100
0010
0100
0010
0001
0010
1000
,
0001
0000
0100
0001
0100
0000
0001
0000
0010
0000
1000
0000
0010
0000
0100
0000
,
0010
1001
0000
0110
0000
1001
0010
0010
,
0010
0010
1000
0000
2000
0010
3000
0020
,
0001
0030
0002
1000
0003
1000
0100
0000
,
0101
0000
1000
0000
2000
0100
3000
0200
,
0001
0300
0002
1000
0003
1000
0010
0000
,
0110
0000
0001
0000
0002
0010
0003
0020
,
1000
0030
2000
0001
3000
0001
0100
0000
,
1000
0000
0101
0000
1000
1100
0000
0001
,
0202
0000
0000
0000
,
0000
0303
0000
0000
,
0000
0000
0000
0000
;
#NOTES:
     dance-double:
     :
     Easy:
     7:
     :
00000000
00000000
00000000
00000000
,
00000000
00000000
00000000
00000000
,
00000000
00000000
00000000
00000000
,
00000000
00000000
00000000
00000000
,
00000000
00000000
00000000
00000000
,
00000000
00000000
00000000
00000000
,
00100000
10000000
01000000
00010000
,
00001000
00000100
00000001
00000010
,
00000001
00001000
00000100
00000010
,
00000001
00000001
00001000
00001000
,
00000001
00000001
00000100
00000100
,
00001000
00001000
00010000
00010000
,
01000000
01000000
10000000
10000000
,
00100000
00100000
01000000
01000000
,
10000000
01000000
00010000
00001000
,
00000010
00000001
00001000
00000001
,
00000100
00000010
00010000
00001000
,
00000000
00010000
00100000
10000000
,
00000000
00010000
10000000
00010000
,
00000000
10000000
01000000
00010000
,
00000000
00001000
00010000
00001000
,
00000000
00010000
00010000
00000010
,
00000010
00000100
00000100
00000001
,
00000001
00000010
00000010
00000100
,
00000100
00010000
00010000
00001000
,
00001000
00010000
00001000
00000100
,
00001000
00010000
01000000
10000000
,
00010000
10000000
01000000
00100000
,
00010000
20000000
00000000
00000000
,
30000000
00020000
00100000
00100000
,
00130000
00001000
00010000
00000010
,
00001000
00000002
00000010
00002003
,
00000010
00003002
00000100
00002003
,
00003100
00002000
00000010
00000010
,
00003010
00010000
00001000
00100000
,
00010000
20000000
00100000
30020000
,
00100000
20030000
01000000
30020000
,
01030000
01100000
10000000
01000000
,
00010000
00001000
00000100
00000001
,
00000010
00002000
00000010
00003002
,
00000010
00002003
00000100
00003002
,
00000103
00000110
00000001
00000100
,
00001000
00010000
01000000
10000000
,
00100000
00020000
00100000
20030000
,
30100000
01000000
00100000
01100000
,
00000000
10010000
00001000
10000000
,
00001000
10000000
00100000
00010000
,
00001000
00011000
00000010
00100000
,
00000010
00010000
00001000
00000010
,
00000001
00001001
00010000
00000001
,
00010000
00000001
00000010
00001000
,
00010000
00011000
00100000
00000010
,
00100000
00001000
00010000
00100000
,
10000000
01100000
10000000
01000000
,
00010000
00001000
00000010
00000001
,
00001000
00000001
00000010
00001000
,
00000010
00000001
00001000
00000001
,
00000001
00000110
00000001
00000100
,
00001000
00010000
00100000
10000000
,
00010000
10000000
00100000
00010000
,
00100000
10000000
00010000
10000000
,
10000000
00010000
00100000
00001000
,
00000010
00000001
00001000
00000001
,
00000100
00000010
00010000
00001000
,
00000010
00000001
00001000
00000001
,
00000001
00001000
00000010
00010000
,
00100000
10000000
00010000
10000000
,
01000000
00100000
00001000
00010000
,
00200000
00000000
00000000
01000000
,
01300000
00100000
00000000
10000000
,
00000000
01000000
00000000
00010000
,
00001000
00000010
00000000
00000001
,
00000000
00000100
00000000
00001000
,
00010000
00100000
00000000
01000000
,
00000000
00010000
00000000
00100000
,
00100000
00000000
01000000
00000000
00000000
01000000
00000000
00000000
,
02000000
00000000
00000000
00000000
,
00000000
03000000
00000000
00000000
,
00000000
00000000
00000000
00000000
;
#NOTES:
     dance-double:
     :
     Medium:
     12:
     :
00000000
00000000
00000000
00000000
,
00000000
00000000
00000000
00000000
,
00000000
00000000
00000000
00000000
,
00000000
00000000
00000000
00000000
,
00000000
00000000
00000000
00000000
,
00000000
00000000
00000000
00000000
,
01100000
00000000
10000000
00000000
01000000
00010000
00001000
00000000
,
00011000
00000000
00001000
00000000
00000100
00000001
00001000
00000000
,
00000110
00000000
00001000
00000000
00000010
00000001
00000100
00000000
,
00000001
00001000
00000010
00010000
00001000
00100000
00010000
00000000
,
10000000
10000000
00100000
00100000
,
01000000
00000000
01000000
00000000
00010000
00000000
00010000
10000000
,
01000000
00000000
01000000
00000000
00010000
00000000
00010000
00001000
,
00000000
00000010
00000000
00000001
00000000
00000100
00000000
00000010
,
00001000
00000010
00000100
00000000
00000001
00000010
00000100
00000000
,
00010000
00001000
00100000
00000000
01000000
10000000
00100000
00000000
,
01000000
00010000
01000000
00100000
10000000
01000000
00100000
00010000
,
00000000
00000000
00000000
00000000
10000000
00000000
00000000
01000000
00000000
00000000
00010000
00000000
00000000
00001000
00000000
00000000
,
00000100
00000000
00000110
00000000
00000001
00000000
00000000
00000100
00000000
00000000
00001000
00000000
00000000
00010000
00000000
00000000
,
01000000
00000000
01100000
00000000
10000000
00000000
00000000
00100000
00000000
00000000
00010000
00000000
00000000
00001000
00000000
00000000
,
00000010
00000000
00000110
00000000
00000001
00000000
00000000
00000010
00000000
00000000
00001000
00000000
00000000
00010000
00000000
00000000
,
00100000
01100000
00020000
00000000
01000000
01000000
00000000
10000000
,
10000000
00000000
00100000
00100000
00000000
00001000
00031000
00000000
,
00010000
00000000
00002000
00000000
00000100
00000100
00000000
00000001
,
00000001
00000000
00000010
00000010
00000000
00010000
00013000
00000000
,
00001000
00000000
00010000
01000000
00100000
00000000
10000000
01000000
,
00100000
00000000
00010000
00100000
01000000
00000000
10000000
00100000
,
01000000
00000000
00001000
00010000
00000100
00001000
00000001
00000010
,
00000100
00001000
00000020
00000000
00000000
00000000
00000000
00000000
,
00000000
00000000
00000130
00000000
00000001
00000100
00000010
00001000
,
00000100
00012000
00000010
00010000
,
00003010
00000000
00010000
00001000
00100000
00000000
01000000
10000000
,
00100000
00000000
01000000
00100000
00010000
00100000
10000000
10000000
,
10000000
00000000
01100000
00000000
10000000
01000000
00100000
00010000
,
01000000
00021000
00100000
00001000
,
00130000
00000000
00001000
00010000
00000010
00000000
00000100
00000001
,
00000010
00000000
00000100
00000010
00001000
00000010
00000001
00000001
,
00000001
00000000
00001100
00000000
00000001
00000100
00001000
00010000
,
00001000
00021000
01000000
00001000
,
01030000
00000000
00010000
01000000
10000000
00000000
00010000
01000000
,
00100000
00000000
10000000
00100000
01000000
00010000
10000000
10000000
,
10000000
00000000
01010000
00000000
10000000
01000000
00010000
00001000
,
00010000
00012000
00000100
00010000
,
00003100
00000000
00001000
00000100
00000001
00000000
00001000
00000100
,
00000010
00000001
00000000
00001100
00000000
00000011
00001000
00001000
,
00001000
00001000
00000001
00000000
00000100
00001000
00010000
00100000
,
10000000
10000000
00010000
00001000
00010000
10000000
00010000
01000000
,
00100000
10000000
10010000
00000000
01000000
00010000
00001000
00000010
,
00000001
00000001
00001000
00010000
00001000
00000001
00001000
00000100
,
00000010
00000001
00000110
00000000
00001000
00000010
00000001
00000010
,
00001000
00010000
10000000
00100000
01000000
00100000
10000000
01000000
,
00010000
00100000
01100000
00000000
00010000
00100000
10000000
00100000
,
00010000
00001000
00000001
00000010
00000100
00000100
00001000
00001000
,
00000010
00000010
00001010
00000000
00000101
00000000
00000010
00001000
,
00000100
00000000
00010000
00001000
00100000
00000000
01000000
10000000
,
00100000
00000000
01010000
00000000
10100000
00000000
01000000
00100000
,
00010000
00000000
10000000
00010000
00100000
00000000
01000000
01000000
,
01000000
00000000
00110000
00000000
11000000
00000000
00100000
00010000
,
01000000
00000000
00001000
00010000
00000010
00000000
00000100
00000001
,
00000010
00000000
00001100
00000000
00000011
00000000
00000100
00000010
,
00001000
00000000
00000001
00001000
00000010
00000000
00000100
00000100
,
00000100
00000000
00000110
00000000
00010000
00000010
00000100
00000010
,
00010000
00000000
00001000
01000000
00100000
01000000
00001000
00000000
,
00011000
00000000
00110000
00000000
01000000
10000000
00010000
10000000
,
01000000
00000000
10000000
00010000
01000000
00010000
10000000
10000000
,
10000000
00000000
01100000
00000000
00001000
00100000
01000000
00100000
,
00001000
00000000
00010000
00000100
00000010
00000100
00010000
00000000
,
00011000
00000000
00001010
00000000
00000100
00000001
00001000
00000001
,
00000100
00000010
00000000
00000110
00000000
00001001
00000100
00000100
,
00000100
00000100
00000001
00000000
00000001
00000100
00000000
00000100
,
00001000
00000000
00001000
00010000
00000000
00010000
00100000
00000000
,
00100000
00000000
10000000
00000000
10000000
01000000
00000000
01000000
,
00010000
00000000
00010000
00001000
00000000
00001000
00000100
00000000
,
00000100
00000000
00000001
00000000
00000001
00001000
00000000
00001000
,
00000100
00000000
00000100
00000010
00000000
00000010
00001000
00000000
,
00010000
00000000
00110000
00000000
00000000
10100000
00000000
00000000
,
20020000
00000000
00000000
00000000
,
00000000
30030000
00000000
00000000
,
00000000
00000000
00000000
00000000
;
#NOTES:
     dance-double:
     :
     Hard:
     15:
     :
00000000
00000000
00000000
00000000
,
00000000
00000000
00000000
00000000
,
00000000
00000000
00000000
00000000
,
00000000
00000000
00000000
00000000
,
00000000
00000000
00000000
00000000
,
00000000
00000000
00000000
00000000
,
00001001
00000000
00000100
00000010
00000001
00000100
00001000
00010000
,
00011000
00000000
00001000
00010000
01000000
10000000
00100000
10000000
,
10010000
00000000
01000000
00100000
10000000
01000000
00010000
00001000
,
00001000
00001000
00000100
00000100
00000001
00000001
00000010
00000010
,
00000001
00000001
00001000
00001000
,
00000010
00000000
00000000
00000000
00000010
00000000
00000000
00000000
00000100
00000000
00000000
00000000
00000100
00000000
00001000
00010000
,
00001000
00000000
00001000
00000000
00010000
00000000
00010000
00200000
,
00000000
00000000
10000000
00000000
00000000
00000000
00010000
00000000
00000000
00000000
10000000
00000000
00300000
00000000
01000000
00100000
,
01000000
00100000
10000000
01000000
00100000
00001000
00010000
00000010
,
00001000
00000001
00000010
00000100
00001000
00000001
00000100
00000010
,
00001000
00000010
00001000
00000010
00010000
00001000
00010000
00001000
01000000
00010000
01000000
00010000
10000000
00010000
10000000
00010000
,
00000000
00000000
00000000
00000000
10000000
00000000
20000000
01000000
30000000
02000000
00010000
03000000
00020000
10000000
00030000
10000000
,
00100000
00000000
00010000
00000000
00001000
00000000
00002000
00000010
00003000
00000020
00000001
00000030
00000002
00001000
00000003
00001000
,
00000100
00000000
00000001
00000000
00000001
00000000
00000002
00000100
00000003
00000200
00001000
00000300
00002000
00000001
00003000
00000001
,
00000010
00000000
00001000
00000000
00010000
00000000
00020000
00100000
00030000
00200000
10000000
00300000
20000000
00010000
30000000
00010000
,
01000000
10000000
00010000
00000000
10000000
01000000
00010000
01000000
,
10000000
00000000
10000000
00100000
00010000
00001000
00010000
00000000
,
00000010
00001000
00000001
00000000
00000001
00000100
00001000
00000100
,
00000001
00000000
00000001
00000010
00001000
00010000
00001000
00000000
,
00010000
00000000
00001000
01000000
00010000
10000000
01000000
00100000
,
00001000
01000000
00010000
10000000
00100000
01000000
00010000
10000000
,
01000000
00000000
00100000
00000000
00001000
00010000
00001000
00010000
00000010
00001000
00000010
00001000
00000001
00000010
00000001
00000010
,
00000100
00001000
00000100
00001000
00000002
00000000
00000000
00000000
00000000
00000000
00000000
00000000
00000000
00000000
00000000
00000000
,
00000000
00001003
00000001
00000000
00001000
00000010
00000001
00000010
,
00001000
00000100
00010000
01000000
00010000
00000100
00010000
01000000
,
10000000
00000000
00010000
00000000
01000000
00010000
01000000
00000000
00100000
00000000
10000000
00000000
01000000
10000000
01000000
00000000
,
00100000
00000000
00001000
00000000
00010000
00001000
00010000
00000000
00001000
00000000
01000000
00000000
00100000
00000000
00100000
00000000
,
00100000
00000000
10010000
00000000
00010000
00100000
10000000
00100000
,
00010000
01000000
00001000
00000100
00001000
01000000
00001000
00000100
,
00000001
00000000
00001000
00000000
00000100
00001000
00000100
00000000
00000010
00000000
00000001
00000000
00000100
00000001
00000100
00000000
,
00000010
00000000
00010000
00000000
00001000
00010000
00001000
00000000
00010000
00000000
00000100
00000000
00000010
00000000
00000010
00000000
,
00000010
00000000
00000110
00000000
00000001
00000100
00001000
00010000
,
00001000
00010000
00000010
00000001
00000010
00010000
00000010
00000001
,
00000010
00000000
00010000
00000000
00001000
00010000
00001000
00000000
00100000
00000000
00010000
00000000
10000000
00010000
10000000
00000000
,
00010000
00000000
01000000
00000000
00100000
01000000
00100000
00000000
10000000
00000000
01000000
00000000
00100000
00000000
00100000
00000000
,
00100000
00000000
01100000
00000000
10000000
01000000
00010000
00001000
,
00010000
00001000
00100000
10000000
00100000
00001000
00100000
10000000
,
00100000
00000000
00001000
00000000
00010000
00001000
00010000
00000000
00000010
00000000
00001000
00000000
00000001
00001000
00000001
00000000
,
00001000
00000011
00000000
00000011
00000000
00000011
00000100
00000100
,
00000100
00000000
00000000
00000000
00000100
00000000
00000000
00000000
00000110
00000000
00000000
00000000
00000000
00000000
00000000
00000000
00000001
00000000
00001000
00000000
00000010
00000000
00000000
00000000
00001000
00000000
00000001
00000000
00000010
00000100
00000000
00000100
,
00001000
00000000
00010000
00000000
00100000
00100000
01000000
00000000
10000000
00000000
00010000
01000000
10000000
01000000
00010000
00000000
,
00100000
00000000
00000000
00000000
00010000
00000000
00000000
00000000
01100000
00000000
00000000
00000000
00000000
00000000
00000000
00000000
10000000
00000000
00010000
00000000
00100000
00000000
00000000
00000000
00010000
00000000
10000000
00000000
00100000
01000000
00000000
01000000
,
00010000
00000000
00001000
00000000
00000010
00000010
00000100
00000000
00000001
00000001
00000100
00000100
00001000
00001000
00010000
00010000
,
01000000
00000000
01000000
00000000
10000000
00000000
10000000
00000000
10010000
00000000
00000000
00000000
00000000
00000000
00000000
00000000
00100000
00000000
10000000
00000000
01000000
00000000
00000000
00000000
00100000
00000000
00010000
00000000
01000000
00001000
00000000
00001000
,
00010000
00000000
00000100
00000000
00000010
00001000
00010000
00000000
00001000
00000000
00000100
00000010
00001000
00000100
00000010
00000000
,
00000001
00000000
00000000
00000000
00000100
00000000
00000000
00000000
00001001
00000000
00000000
00000000
00000000
00000000
00000000
00000000
00000010
00000000
00000001
00000000
00000100
00000000
00000000
00000000
00000010
00000000
00001000
00000000
00000100
00010000
00000000
00010000
,
00001000
00000000
01000000
00000000
00100000
00010000
00001000
00000000
00010000
00010000
01000000
01000000
10000000
10000000
00100000
00100000
,
00010000
00010000
00001000
00001000
00011000
00000000
00000000
00000000
00010000
00000000
00000010
00000000
00000001
00000000
00000010
00000000
,
00010000
00000000
00010000
00000100
00000001
00000100
00010000
00000000
,
00001100
00000000
00011000
00000000
00001000
00100000
10000000
00100000
,
00001000
00000000
00001000
01000000
10000000
01000000
00001000
00001000
,
00001000
00000000
00011000
00000000
00010000
01000000
10000000
00100000
,
00010000
00000000
00010000
00100000
10000000
01000000
00010000
00000000
,
01010000
00000000
00011000
00000000
00001000
00000100
00000001
00000010
,
00001000
00000000
00001000
00000010
00000001
00000100
00001000
00001000
,
00001000
00000000
00000001
00000010
00001000
00000001
00000100
00001000
,
00010000
00100000
10000000
01000000
00100000
00010000
01000000
00100000
,
01000000
00010000
10000000
01000000
00010000
00001000
00000010
00000001
,
00001000
00000100
00000010
00000001
00000100
00000010
00001000
00001000
,
00001000
00000000
00000001
00000010
00001000
00010000
00100000
10000000
,
00010000
01000000
10000000
01000000
00010000
10000000
01000000
00100000
,
00010000
01000000
00010000
10000000
01000000
00010000
00001000
00000100
,
00000001
00001001
00000000
00000110
00000000
00001001
00000010
00000010
,
00000010
00000010
00000001
00000000
00000002
00000100
00000003
00000200
,
00001000
00000300
00002000
00000001
00003000
00000001
00000010
00000000
,
00001000
00000000
00010000
00000000
00020000
00100000
00030000
00200000
,
10000000
00300000
20000000
00010000
30000000
00010000
01000000
00000000
,
10000000
00000000
00010000
00000000
00020000
01000000
00030000
02000000
,
10000000
03000000
20000000
00010000
30000000
00010000
00001000
00000000
,
00010000
00000000
00001010
00000000
00000001
00000011
00000000
00000100
,
00002200
00000000
00000000
00000000
,
00000000
00003300
00000000
00000000
,
00000000
00000000
00000000
00000000
;
