
//----- song ID: seta -----//
#TITLE:Seta Para Cima↑↑;
#ARTIST:BEMANI Sound Team "U1 overground";
#BANNER:Seta Para Cima.png;
#BACKGROUND:Seta Para Cima-bg.png;
#CDTITLE:./CDTitles/DDR A20.png;
#MUSIC:Seta Para Cima.ogg;
#SAMPLESTART:8.174;
#SAMPLELENGTH:15;
#BPMS:0=140;
#NOTES:
     dance-single:
     :
     Beginner:
     3:
     :
0000
0000
0000
0000
,
0000
0000
0000
0000
,
0000
0000
0000
0000
,
0000
0000
0000
0000
,
0000
0000
0000
0000
,
0001
0000
0001
0000
,
0100
0000
0100
0000
,
0001
0000
0100
0000
,
0001
0000
0000
0000
,
1000
0000
1000
0000
,
0100
0000
0100
0000
,
1000
0000
0100
0000
,
1000
0000
0000
0000
,
0001
0000
0001
0000
,
0010
0000
0010
0000
,
0001
0000
0001
0000
,
0100
0000
0100
0000
,
0001
0000
0010
0000
,
0001
0000
0010
0000
,
0001
0000
0100
0000
,
0001
0000
0000
0000
,
1000
0000
1000
0000
,
0010
0000
0010
0000
,
1000
0000
0010
0000
,
1000
0000
0000
0000
,
0001
0000
0001
0000
,
0010
0000
0010
0000
,
0001
0000
0010
0000
,
0001
0000
0000
0000
,
1001
0000
0000
0000
,
0000
0000
0000
0000
,
1001
0000
0000
0000
,
0000
0000
0000
0000
,
0001
0000
0100
0000
,
0001
0000
0000
0000
,
1000
0000
0100
0000
,
2000
0000
3000
0000
,
1000
0000
0010
0000
,
1000
1000
1000
0000
,
1000
0000
0100
0000
,
1000
0000
0000
0000
,
0001
0000
0010
0000
,
0001
0001
0001
0000
,
0001
0000
0100
0000
,
0001
0000
0000
0000
,
1000
0000
0100
0000
,
0100
0100
0100
0000
,
1000
0000
0100
0000
,
1000
0000
0000
0000
,
0001
0000
0100
0000
,
0100
0100
0100
0000
,
0001
0000
0100
0000
,
0001
0000
0000
0000
,
1000
0000
0010
0000
,
1000
1000
1000
0000
,
1000
0000
0010
0000
,
1000
0000
0000
0000
,
0001
0000
0010
0000
,
0001
0001
0001
0000
,
0001
0000
0010
0000
,
0001
0000
0000
0000
,
0001
0000
0010
0000
,
0001
0000
1001
0000
,
0000
0000
0000
0000
;
#NOTES:
     dance-single:
     :
     Easy:
     5:
     :
0000
0000
0000
0000
,
0000
0000
0000
0000
,
0000
0000
0000
0000
,
0000
0000
0000
0000
,
0000
0000
0000
0000
,
0001
1000
0001
0000
,
1000
0100
1000
0100
,
1000
0000
1000
0000
,
0001
0000
0001
0000
,
1000
0001
1000
0000
,
0001
0100
0001
0100
,
0001
0000
0001
0000
,
1000
0000
1000
1001
,
0001
1000
0001
0000
,
1000
0001
1000
0000
,
0010
0100
0010
0000
,
0100
0010
0100
1001
,
0001
0010
0001
0000
,
0100
0001
0100
0000
,
0010
1000
0010
0000
,
1000
0100
1000
0000
,
0001
0001
0001
0000
,
0001
0010
1000
0010
,
0001
0000
0100
0000
,
0001
0000
1000
0000
,
1000
1000
1000
0000
,
1000
0010
0001
0010
,
1000
0000
0100
0000
,
1000
0000
0001
1001
,
0010
0000
0000
0000
,
0000
0000
0100
0000
,
0100
0000
0000
0000
,
0000
0000
0000
0000
,
0001
1000
0001
1000
,
0001
1000
0001
1000
,
0010
0100
0010
0100
,
0010
0010
0010
0000
,
0020
0000
0000
0030
,
0200
0000
0000
0300
,
0001
0100
1000
0000
,
1000
0100
0001
0000
,
0001
1000
0001
1000
,
0001
0010
0001
0000
,
1000
0001
1000
0001
,
0100
0010
0100
0010
,
1000
1000
0100
0000
,
0001
0001
0100
0001
,
0100
0000
0010
0000
,
1000
0000
0010
1001
,
0001
0001
0100
0000
,
1000
1000
0100
1000
,
0100
0000
0010
0000
,
0100
0000
0010
1001
,
1000
0100
0010
0000
,
0001
0010
0001
0000
,
0100
0000
0100
0010
,
1000
0001
1000
1001
,
0001
0100
0010
0000
,
1000
0010
1000
0000
,
0100
0000
0100
0010
,
1000
0001
1000
1001
,
0100
0000
0010
0000
,
0001
1000
1001
0000
,
0000
0000
0000
0000
;
#NOTES:
     dance-single:
     :
     Medium:
     11:
     :
0000
0000
0000
0000
,
0000
0000
0000
0000
,
0000
0000
0000
0000
,
0000
0000
0000
0000
,
0000
0000
0000
0000
,
1000
0000
0000
0001
0000
0000
1000
0000
0100
0000
0000
0000
0100
0000
0000
0000
,
0010
0001
0010
0000
0001
0000
0001
0000
,
1000
0000
0000
1000
0000
0000
0100
0000
0010
0000
0000
0000
0010
0000
0000
0000
,
0001
0000
0000
0001
0000
0000
0100
0000
0010
0000
0000
0000
0010
0000
0000
0000
,
0001
0000
0000
1000
0000
0000
0001
0000
0100
0000
0000
0000
0100
0000
0000
0000
,
0010
1000
0010
0000
1000
0000
1000
0000
,
0001
0000
0000
0001
0000
0000
0100
0000
0010
0000
0000
0000
0010
0000
0000
0000
,
1000
0000
0000
1000
0000
0000
0100
0000
0010
0000
0000
0000
1001
0000
0000
0000
,
0001
0000
0000
0100
0000
0000
0100
0000
0001
0000
0000
0100
0000
0000
0100
0000
,
0001
1000
0000
0100
1000
0010
0100
0001
,
1000
0000
0001
0000
0000
0010
0000
0000
0001
0000
0000
1000
0000
0000
0010
0000
,
1000
0000
0001
0000
0000
0100
0000
0000
0001
0000
0000
0000
1001
0000
0000
0000
,
1000
0000
0000
0100
0000
0000
0100
0000
1000
0000
0000
0100
0000
0000
0100
0000
,
1000
0001
0000
0100
0001
0010
0100
1000
,
0001
0000
1000
0000
0000
0100
0000
0000
1000
0000
0000
0001
0000
0000
0100
0000
,
0001
0000
1000
0000
0000
0010
0000
0000
1000
0000
0001
0000
1000
0000
0001
0000
,
0010
0000
0001
0000
1000
0100
1000
0000
,
0010
0010
0010
0000
1000
0100
1000
0100
,
1000
0000
0000
0100
0000
0000
0010
0000
0001
0000
0010
0000
0001
0000
0000
0000
,
0001
0000
0000
0100
0000
0000
0010
0000
1000
0000
0010
0000
1000
0000
0000
0000
,
0010
0000
1000
0000
0001
0100
0001
0000
,
0010
0010
0010
0000
0001
0100
0001
0100
,
0001
0000
0000
0100
0000
0000
0010
0000
1000
0000
0010
0000
1000
0000
0000
0000
,
1000
0000
0000
0100
0000
0000
0010
0000
0001
0000
0010
0000
0001
0000
0000
0000
,
1001
0000
0000
0100
,
0100
0000
0000
0010
0010
0010
,
0010
0000
0000
0000
,
0001
1000
0001
1000
0001
1000
,
0001
0000
0010
0000
0001
0000
0000
1000
0000
1000
0000
0000
0010
0000
0000
0000
,
1000
0000
0010
0000
1000
0000
0000
0001
0000
0001
0000
0000
0010
0000
0000
0000
,
0001
0000
0010
0000
0001
0000
0000
1000
0000
1000
0000
0000
0010
0000
0000
0000
,
1000
0001
1000
0001
1000
0001
1000
0001
1000
0001
0000
0000
,
1000
0100
0010
0000
0100
0010
0001
0000
,
0001
0100
0010
0000
0100
0010
1000
0000
,
1000
0000
0010
0000
0100
0001
0100
0000
,
0001
0000
0010
0000
0100
1000
0100
0000
,
0002
0000
0100
0003
,
2000
0000
0100
3000
,
0000
0001
0000
1001
0000
0100
0000
0110
,
0000
1000
0000
1001
0000
0010
0000
0100
,
0001
0000
0000
0010
0000
0000
0001
0000
1000
0000
0000
0100
0000
0000
1000
0000
,
0001
0100
0000
0010
1000
0010
1000
0010
,
2000
0000
3001
0000
0010
0100
0000
0100
,
0000
0100
0010
0000
0001
0000
1001
0000
,
1000
0000
0000
0010
0000
0000
1000
0000
0001
0000
0000
0100
0000
0000
0001
0000
,
1000
0100
0010
0000
0001
0010
0001
0010
,
0002
0000
1003
0000
0010
0100
0000
0100
,
0000
0100
0010
0000
1000
0000
1001
0000
,
0001
1000
0000
1100
0000
0101
0000
1000
,
0100
1000
0100
0000
1000
0010
0001
0010
,
1000
0001
0000
0001
1000
0001
0100
0010
,
0200
0000
0310
1001
,
1000
0001
0000
0101
0000
1100
0000
0001
,
0100
0001
0100
0000
0001
0010
1000
0010
,
0001
1000
0000
1000
0001
1000
0100
0010
,
0200
0000
0310
1001
,
0001
0000
1000
0001
0000
0000
1000
0000
0001
1000
0000
0000
,
0010
0100
0010
0100
0010
0100
0020
0000
0000
0000
0000
0000
,
0000
0000
0000
0000
,
0030
0000
0000
0000
,
0000
0000
0000
0000
;
#NOTES:
     dance-single:
     :
     Hard:
     13:
     :
0000
0000
0000
0000
,
0000
0000
0000
0000
,
0000
0000
0000
0000
,
0000
0000
0000
0000
,
0000
0000
0000
0000
,
0010
0000
0000
0010
0000
0000
0010
0000
1000
0000
0001
0000
1000
0000
0000
0000
,
0001
0100
0001
0100
0001
0000
0000
0000
1000
0000
0010
0000
0001
0000
0010
0000
,
1000
0000
0000
1000
0000
0000
0100
0000
0010
0000
0100
0000
0010
0000
0000
0000
,
0001
0000
1000
0010
0000
1000
0010
0000
0100
0000
0001
0000
1000
0000
0000
0000
,
0010
0000
0000
0010
0000
0000
0010
0000
0001
0000
1000
0000
0001
0000
0000
0000
,
1000
0100
1000
0100
1000
0000
0000
0000
0001
0000
0000
0010
0000
0000
0010
0000
,
0001
0000
0000
0001
0000
0000
0100
0000
0010
0000
0100
0000
0010
0000
0000
0000
,
1000
0000
0001
0010
0000
0001
0010
0000
0100
0000
1000
0000
0001
0000
0000
0000
,
1000
0000
0100
0010
0000
0010
0000
0010
0001
0000
0001
0100
0000
0100
0000
0100
,
0010
0000
1000
0000
0001
1000
0000
0001
1000
0000
0010
0000
0001
0000
0010
0000
,
1000
0000
0001
0000
0000
0100
0000
0100
0010
0000
0000
1000
0000
0000
0010
0000
,
0100
0001
0100
0001
0000
1000
0000
0100
1000
0000
0000
0001
0000
0000
1000
0000
,
0001
0000
0100
0010
0000
0010
0000
0010
1000
0000
1000
0100
0000
0100
0000
0100
,
0010
0000
0001
0000
1000
0001
0000
1000
0001
0000
0010
0000
1000
0000
0010
0000
,
0001
0000
1000
0000
0000
0100
0000
0100
0010
0000
0000
0001
0000
0000
0010
0000
,
0100
1000
0100
1000
0000
0001
0000
0100
0001
0000
1000
0001
0000
1000
0001
0000
,
1000
0100
0010
0000
0010
0100
1000
0000
,
0001
1000
0001
1000
0001
0000
0000
0000
0100
0000
0001
0000
0010
0000
0001
0000
,
0100
0000
0000
0010
0000
0000
0010
0000
1000
0000
0100
0000
1000
0000
0000
0000
,
0010
0000
0100
0001
0000
0001
0100
0000
0001
0000
1000
0100
1000
0000
0000
0000
,
0001
0100
0010
0000
0010
0100
0001
0000
,
1000
0001
1000
0001
1000
0000
0000
0000
0100
0000
1000
0000
0010
0000
1000
0000
,
0100
0000
0000
0010
0000
0000
0010
0000
0001
0000
0100
0000
0001
0000
0000
0000
,
0010
0000
0100
1000
0000
1000
0100
0000
1000
0000
0001
0100
0001
0000
0000
0000
,
0100
0000
0000
0010
0000
0000
1000
0000
,
2001
0000
0000
0100
0100
0100
,
3100
0000
0000
0010
0000
0000
0002
0000
,
0100
0100
0100
0100
0100
0103
,
0001
0000
0010
0000
0100
0000
0000
1000
0000
0100
0000
0010
0001
0000
0001
0000
,
1000
0000
0010
0000
0100
0000
0000
0001
0000
0100
0000
0010
1000
0000
1000
0000
,
0001
0000
0100
0000
0010
0000
0000
1000
0000
0010
0000
0100
0001
0000
0001
0000
,
1000
0100
0010
0001
0010
0100
1000
0100
0010
0001
0000
0000
,
0000
0000
1000
0000
0000
1001
0000
0000
0100
0000
0000
1000
0000
0000
0100
0000
,
0000
0000
0001
0000
0000
1001
0000
0000
0200
0000
0000
0000
0300
0000
0000
0000
,
0001
0000
0000
1000
0100
0000
1000
0000
0001
0100
0000
0000
0010
0000
0000
0000
,
1000
0000
0000
0001
0100
0000
0001
0000
1000
0100
0000
0000
0010
0100
1000
0000
,
0001
0100
0010
1000
0010
0010
0100
0000
,
0001
1000
0001
1000
0001
0000
0000
0000
1000
0000
0001
0000
0010
0000
0100
0000
,
1000
0100
1000
0100
0001
0100
0001
0100
,
1000
0010
1000
0010
0001
0010
0001
0010
,
1000
0000
0010
1000
0000
1000
0000
1000
0100
0000
1000
0001
0000
0001
0000
0001
,
0010
0000
0001
0000
1000
0100
0000
0001
0100
0000
1000
0000
0001
0000
0010
0000
,
0200
0000
0310
0000
0001
1000
0000
1001
,
0000
1000
0001
0000
0010
0000
1001
0000
,
0001
0000
0100
0001
0000
0001
0000
0001
0010
0000
0001
1000
0000
1000
0000
1000
,
0100
0000
1000
0000
0001
0010
0000
1000
0010
0000
0001
0000
1000
0000
0100
0000
,
0020
0000
0130
0000
1000
0001
0000
1001
,
0000
0001
1000
0000
0100
0000
1001
0000
,
0010
0100
0010
0000
0000
0000
0110
0000
0000
0000
1000
0000
0001
0000
1000
0000
,
0001
0100
0010
0100
0001
0000
0000
0000
1000
0000
0100
0000
0001
0000
0100
0000
,
1000
0010
0000
0010
0100
1000
0100
0001
,
0010
0000
0000
0010
0000
0000
0010
0000
0100
0000
0000
0000
1001
0000
0000
0000
,
0010
0100
0010
0000
0000
0000
0110
0000
0000
0000
0001
0000
1000
0000
0001
0000
,
1000
0100
0010
0100
1000
0000
0000
0000
0001
0000
0100
0000
1000
0000
0100
0000
,
0001
0010
0000
0010
0100
0001
0100
1000
,
0010
0000
0000
0010
0000
0000
0010
0000
0100
0000
0000
0000
1001
0000
0000
0000
,
0001
0000
1000
0100
0000
0000
0001
0000
1000
0100
0000
0000
,
0001
1000
0001
0100
0010
0100
2002
0000
0000
0000
0000
0000
,
0000
0000
0000
0000
,
3003
0000
0000
0000
,
0000
0000
0000
0000
;
#NOTES:
     dance-double:
     :
     Easy:
     5:
     :
00000000
00000000
00000000
00000000
,
00000000
00000000
00000000
00000000
,
00000000
00000000
00000000
00000000
,
00000000
00000000
00000000
00000000
,
00000000
00000000
00000000
00000000
,
10000000
00010000
10000000
00000000
,
10000000
01000000
10000000
01000000
,
00100000
00000000
00100000
00000000
,
00001000
00000000
00010000
00000000
,
00001000
00010000
00001000
00000000
,
00010000
00000100
00010000
00000100
,
00001000
00000000
00000001
00000000
,
00001000
00000000
00001000
00001001
,
00000001
00001000
00000001
00000000
,
00000001
00000100
00001000
00000000
,
00001000
00010000
00001000
00000000
,
00010000
00100000
01000000
10010000
,
10000000
01000000
10000000
00000000
,
10000000
00100000
00010000
00000000
,
00001000
00010000
00001000
00000000
,
00000100
00000001
00000100
00000000
,
00000001
00000001
00000010
00000000
,
00000001
00000010
00001000
00010000
,
01000000
00000000
01000000
00000000
,
10000000
00000000
10000000
00000000
,
10000000
10000000
00100000
00000000
,
10000000
00100000
00010000
00001000
,
00000100
00000000
00000100
00000000
,
00000001
00000000
00001000
00001001
,
00000100
00000000
00000000
00000000
,
00000000
00000000
00000000
00000000
,
00011000
00000000
00000000
00000000
,
00000000
00000000
00000000
00000000
,
00010000
10000000
00010000
10000000
,
00100000
01000000
00100000
01000000
,
00001000
00010000
00001000
00010000
,
00000100
00000010
00000100
00000000
,
00020000
00000000
00000000
00030000
,
00002000
00000000
00000000
00003000
,
00010000
01000000
10000000
00000000
,
10000000
01000000
00010000
00000000
,
00002000
00000000
00000000
00003000
,
00020000
00000000
00000000
00030000
,
00001000
00000100
00000001
00000000
,
00000001
00000100
00001000
00000000
,
00010000
00001000
00010000
00000000
,
00010000
00100000
10000000
01000000
,
10000000
00000000
01000000
00000000
,
00010000
00000000
00001000
00011000
,
00001000
00010000
00001000
00000000
,
00001000
00000010
00000001
00000100
,
00000001
00000000
00000100
00000000
,
00001000
00000000
00010000
00011000
,
00001000
00010000
01000000
00000000
,
01000000
10000000
00010000
00000000
,
10000000
00000000
00100000
00010000
,
00001000
00010000
00001000
00011000
,
00010000
00001000
00000100
00000000
,
00000100
00000001
00001000
00000000
,
00000001
00000000
00000010
00001000
,
00010000
00001000
00010000
00011000
,
00001000
00000000
00010000
00000000
,
00001000
00010000
00011000
00000000
,
00000000
00000000
00000000
00000000
;
#NOTES:
     dance-double:
     :
     Medium:
     11:
     :
00000000
00000000
00000000
00000000
,
00000000
00000000
00000000
00000000
,
00000000
00000000
00000000
00000000
,
00000000
00000000
00000000
00000000
,
00000000
00000000
00000000
00000000
,
10000000
00000000
00000000
00010000
00000000
00000000
10000000
00000000
00100000
00000000
00000000
00000000
01000000
00000000
00000000
00000000
,
00100000
00010000
00001000
00000000
00001000
00000100
00000001
00000000
,
00000001
00000000
00000000
00001000
00000000
00000000
00000001
00000000
00000010
00000000
00000000
00000000
00000100
00000000
00000000
00000000
,
00000010
00000000
00000000
00001000
00000000
00000000
00010000
00000000
01000000
00000000
00000000
00000000
00100000
00000000
00000000
00000000
,
00010000
00000000
00000000
10000000
00000000
00000000
00010000
00000000
01000000
00000000
00000000
00000000
00100000
00000000
00000000
00000000
,
10000000
00100000
00010000
00000000
00001000
00000000
00001000
00000000
,
00000100
00000000
00000000
00000001
00000000
00000000
00000010
00000000
00000100
00000000
00000000
00000000
00001000
00000000
00000000
00000000
,
00000001
00000000
00000000
00000100
00000000
00000000
00000010
00000000
00001000
00000000
00000000
00000000
00001001
00000000
00000000
00000000
,
00000001
00000000
00000000
00000100
00000000
00000000
00001000
00000000
00010000
00000000
00000000
00100000
00000000
00000000
10000000
00000000
,
01000000
00010000
00000000
01000000
00100000
00001000
00010000
00000100
,
00001000
00000000
00000100
00000000
00000000
00000001
00000000
00000000
00000100
00000000
00000000
00001000
00000000
00000000
00000010
00000000
,
00000100
00000000
00001000
00000000
00000000
00010000
00000000
00000000
00100000
00000000
00000000
00000000
10010000
00000000
00000000
00000000
,
10000000
00000000
00000000
01000000
00000000
00000000
00010000
00000000
00001000
00000000
00000000
00000010
00000000
00000000
00000001
00000000
,
00000100
00001000
00000000
00000100
00000010
00010000
00001000
01000000
,
00010000
00000000
01000000
00000000
00000000
10000000
00000000
00000000
01000000
00000000
00000000
00010000
00000000
00000000
00100000
00000000
,
01000000
00000000
00010000
00000000
00000000
00001000
00000000
00000000
00000010
00000000
00000001
00000000
00001000
00000000
00000000
00000000
,
00001000
00000000
00000001
00000000
00000100
00001000
00000100
00000000
,
00000001
00000010
00000001
00000000
00000100
00001000
00000100
00001000
,
00010000
00000000
00000000
00100000
00000000
00000000
01000000
00000000
00100000
00000000
10000000
00000000
00100000
00000000
00000000
00000000
,
01000000
00000000
00000000
00001000
00000000
00000000
00010000
00000000
00100000
00000000
10000000
00000000
00010000
00000000
00000000
00000000
,
00010000
00000000
10000000
00000000
01000000
00010000
01000000
00000000
,
10000000
00100000
10000000
00000000
01000000
00010000
01000000
00010000
,
00001000
00000000
00000000
00000010
00000000
00000000
00000100
00000000
00000010
00000000
00000001
00000000
00000010
00000000
00000000
00000000
,
00000100
00000000
00000000
00010000
00000000
00000000
00001000
00000000
00000010
00000000
00000001
00000000
00001000
00000000
00000000
00000000
,
00001001
00000000
00000000
00000100
,
00000100
00000000
00000000
00001000
00010000
00001000
,
00010000
00000000
00000000
00000000
,
00100000
00100000
00100000
01000000
01000000
01000000
,
00010000
00000000
01000000
00000000
10000000
00000000
00000000
01000000
00000000
00010000
00000000
00000000
10010000
00000000
00000000
00000000
,
10000000
00000000
00100000
00000000
00010000
00000000
00000000
00001000
00000000
00010000
00000000
00000000
00011000
00000000
00000000
00000000
,
00010000
00000000
00001000
00000000
00000100
00000000
00000000
00000001
00000000
00001000
00000000
00000000
00001001
00000000
00000000
00000000
,
00000001
00001000
00000001
00001000
00000001
00001000
00000001
00001000
00000001
00001000
00000000
00000000
,
00000002
00000000
00000100
00000003
,
00002000
00000000
00000100
00003000
,
00000010
00000000
00000100
00000000
00000010
00010000
00001000
00000000
,
00010000
00000000
00001000
00000000
00010000
00001000
00100000
00000000
,
00020000
00000000
01000000
00030000
,
20000000
00000000
01000000
30000000
,
00000000
10100000
00000000
10010000
00000000
01010000
00000000
00110000
,
00000000
00101000
00000000
00011000
00000000
00010100
00000000
00001000
,
00000100
00000000
00000000
00000010
00000000
00000000
00000010
00000000
00000001
00000000
00000000
00000100
00000000
00000000
00000100
00000000
,
00000001
00000100
00000000
00000010
00001000
00000100
00010000
00000100
,
00002000
00000000
00003100
00010000
00001000
00100000
00000000
00100000
,
00000000
01000000
00100000
00000000
01000000
00000000
10010000
00000000
,
00100000
00000000
00000000
01000000
00000000
00000000
01000000
00000000
10000000
00000000
00000000
00100000
00000000
00000000
00100000
00000000
,
10000000
00100000
00000000
01000000
00010000
00100000
00001000
00100000
,
00020000
00000000
00130000
00001000
00010000
00000100
00000000
00000100
,
00000000
00000010
00000100
00000000
00000010
00000000
00001001
00000000
,
00000100
00000010
00000000
00001010
00000000
00000101
00000000
00000000
,
00000001
00000100
00001000
00000000
00010000
00100000
10000000
00000000
,
00010000
01000000
00000000
00010000
10000000
00010000
10000000
00000000
,
02000000
00000000
03100000
10010000
,
01000000
00100000
00000000
00110000
00000000
11000000
00000000
00000000
,
10000000
01000000
00010000
00000000
00001000
00000010
00000001
00000000
,
00001000
00000100
00000000
00001000
00000001
00001000
00000001
00000000
,
00000200
00000000
00000310
00001001
,
00000001
00000101
00001000
00001100
,
00010000
00001000
00010000
00001000
00010000
00001000
00020000
00000000
00000000
00000000
00000000
00000000
,
00000000
00000000
00000000
00000000
,
00030000
00000000
00000000
00000000
,
00000000
00000000
00000000
00000000
;
#NOTES:
     dance-double:
     :
     Hard:
     13:
     :
00000000
00000000
00000000
00000000
,
00000000
00000000
00000000
00000000
,
00000000
00000000
00000000
00000000
,
00000000
00000000
00000000
00000000
,
00000000
00000000
00000000
00000000
,
00000001
00000000
00000000
00000100
00000000
00000000
00000001
00000000
00000010
00000000
00000100
00000000
00001000
00000000
00000000
00000000
,
00000001
00001000
00000001
00001000
00000001
00000000
00000000
00000000
00000100
00000000
00001000
00000000
00010000
00000000
00100000
00000000
,
10000000
00000000
00000000
01000000
00000000
00000000
00010000
00000000
00001000
00000000
00010000
00000000
01000000
00000000
00000000
00000000
,
10000000
00000000
00010000
10000000
00000000
00010000
10000000
00000000
01000000
00000000
00100000
00000000
00010000
00000000
00000000
00000000
,
10000000
00000000
00000000
00100000
00000000
00000000
10000000
00000000
01000000
00000000
00100000
00000000
00010000
00000000
00000000
00000000
,
10000000
00010000
10000000
00010000
10000000
00000000
00000000
00000000
00100000
00000000
00010000
00000000
00001000
00000000
00000100
00000000
,
00000001
00000000
00000000
00000010
00000000
00000000
00001000
00000000
00010000
00000000
00001000
00000000
00000010
00000000
00000000
00000000
,
00000001
00000000
00001000
00000001
00000000
00001000
00000001
00000000
00000010
00000000
00000100
00000000
00001000
00000000
00000000
00000000
,
00000010
00000000
00000100
00001000
00000000
00001000
00000000
00001000
00010000
00000000
00100000
01000000
00000000
01000000
00000000
01000000
,
00010000
00000000
00100000
00000000
00001000
00010000
00000000
00001000
00010000
00000000
00000100
00000000
00000010
00000000
00000001
00000000
,
00000100
00000000
00000101
00000000
00000000
00001001
00000000
00000000
00001100
00000000
00000000
00010100
00000000
00000000
00011000
00000000
,
00100000
00000000
00010000
10000000
00000000
00100000
00000000
10000000
01000000
00000000
00000000
10000000
00000000
00000000
00010000
00000000
,
00100000
00000000
01000000
00010000
00000000
00010000
00000000
00010000
00001000
00000000
00000010
00000100
00000000
00000100
00000000
00000100
,
00001000
00000000
00000010
00000000
00010000
00001000
00000000
00010000
00001000
00000000
01000000
00000000
00100000
00000000
10000000
00000000
,
01000000
00000000
11000000
00000000
00000000
10010000
00000000
00000000
01010000
00000000
00000000
01001000
00000000
00000000
00011000
00000000
,
00000010
00000000
00001000
00000001
00000000
00000010
00000000
00000001
00000100
00000001
00000100
00000001
00000000
00000000
00000100
00000000
,
00001000
00010000
00100000
00000000
00010000
00001000
00000100
00000000
,
00000001
00001000
00000001
00001000
00000001
00000000
00000000
00000000
00001000
00000000
00000100
00000000
00000010
00000000
00001000
00000000
,
00010000
00000000
00000000
00100000
00000000
00000000
00100000
00000000
10000000
00000000
01000000
00000000
10000000
00000000
00000000
00000000
,
00100000
00000000
01000000
00010000
00000000
01000000
00010000
00000000
10000000
00000000
01000000
00000000
00010000
00000000
00000000
00000000
,
00010000
00001000
00000010
00000000
00001000
00010000
01000000
00000000
,
10000000
00010000
10000000
00010000
10000000
00000000
00000000
00000000
00010000
00000000
01000000
00000000
00100000
00000000
00010000
00000000
,
00001000
00000000
00000000
00000010
00000000
00000000
00000010
00000000
00000001
00000000
00000100
00000000
00000001
00000000
00000000
00000000
,
00000010
00000000
00000100
00001000
00000000
00000100
00001000
00000000
00000001
00000000
00000100
00000000
00001000
00000000
00000000
00000000
,
00011000
00000000
00000000
00000000
,
20010000
00000000
00000000
00010000
00010000
00010000
,
30010000
00000000
00000000
00000000
,
00000102
00000100
00000100
00000100
00000100
00000103
,
00000001
00000000
00000100
00000000
00001000
00000000
00000000
00010000
00000000
00100000
00000000
10000000
00010000
00000000
00000000
00000000
,
10000000
00000000
01000000
00000000
00010000
00000000
00000000
00001000
00000000
00000010
00000000
00000001
00001000
00000000
00000000
00000000
,
00000001
00000000
00000010
00000000
00001000
00000000
00000000
00010000
00000000
01000000
00000000
10000000
00010000
00000000
00000000
00000000
,
10000000
00100000
01000000
00010000
00100000
00001000
00010000
00000100
00001000
00000001
00000000
00000000
,
00000002
00000000
00002003
00000000
,
00023000
00000000
20000000
30030000
,
00010000
00000000
00000000
10000000
00100000
00000000
10000000
00000000
00010000
01000000
00000000
00000000
01100000
00000000
00000000
00000000
,
10000000
00000000
00000000
00010000
01000000
00000000
00010000
00000000
10000000
01000000
00000000
00000000
01100000
00000000
00000000
00000000
,
00010000
01000000
00100000
00010000
00001000
00000100
00000001
00000000
,
00001000
00000001
00001000
00000001
00001000
00000000
00000000
00000000
00000001
00000000
00001000
00000000
00000010
00000000
00000100
00000000
,
00000001
00000100
00001000
00000100
00000001
00000100
00001000
00010000
,
00100000
10000000
00100000
00010000
00100000
10000000
00100000
00000000
,
10000000
00000000
00100000
10000000
00000000
10000000
00000000
10000000
01000000
00000000
00010000
00001000
00000000
00001000
00000000
00001000
,
00000010
00000000
00000001
00000000
00000010
00001000
00000000
00000010
00000001
00000000
00000100
00000000
00000010
00000000
00010000
00000000
,
00002000
00000000
00013000
01000000
10000000
01000000
00000000
01100000
,
00000000
10000000
00010000
00000000
00100000
00000000
10010000
00000000
,
10000000
00000000
01000000
10000000
00000000
10000000
00000000
10000000
00100000
00000000
00010000
00001000
00000000
00001000
00000000
00001000
,
00000100
00000000
00000001
00000000
00000100
00001000
00000000
00000100
00000001
00000000
00000010
00000000
00000100
00000000
00010000
00000000
,
00002000
00000000
00013000
00100000
10000000
00100000
00000000
01100000
,
00000000
10000000
00010000
00000000
01000000
00000000
10010000
00000000
,
00010000
10000000
00010000
00000000
00000000
00000000
10010000
00000000
00000000
00000000
10000000
00000000
01000000
00000000
10000000
00000000
,
00100000
00000000
00000000
00010000
00000000
00000000
00001000
00000000
00000100
00000000
00000001
00000000
00001000
00000000
00000001
00000000
,
00000100
00001000
00000000
00001000
00010000
00001000
00000010
00001000
,
00000010
00000000
00000000
00000001
00000000
00000000
00000010
00000000
00000001
00000000
00000000
00000000
00001001
00000000
00000000
00000000
,
00001000
00000001
00001000
00000000
00000000
00000000
00001001
00000000
00000000
00000000
00000001
00000000
00000010
00000000
00000001
00000000
,
00000100
00000000
00000000
00001000
00000000
00000000
00010000
00000000
00100000
00000000
10000000
00000000
00010000
00000000
10000000
00000000
,
00100000
00010000
00000000
00010000
00001000
00010000
01000000
00010000
,
01000000
00000000
00000000
10000000
00000000
00000000
01000000
00000000
10000000
00000000
00000000
00000000
10010000
00000000
00000000
00000000
,
00010000
00000000
01000000
00100000
00000000
00000000
01000000
00000000
00001000
00010000
00000000
00000000
,
00000010
00010000
00001000
00100000
00001000
00020000
00002000
00000000
00000000
00000000
00000000
00000000
,
00000000
00000000
00000000
00000000
,
00033000
00000000
00000000
00000000
,
00000000
00000000
00000000
00000000
;
