
//----- song ID: flan -----//
#TITLE:最終鬼畜妹フランドール・S;
#ARTIST:ビートまりお(COOL&CREATE);
#TITLETRANSLIT:Saishuu kichiku imouto Flandre-S;
#ARTISTTRANSLIT:beatMARIO (COOL&CREATE);
#BANNER:Saishuu kichiku imouto Flandre-S.png;
#BACKGROUND:Saishuu kichiku imouto Flandre-S-bg.png;
#CDTITLE:./CDTitles/SDVX II -infinite infection-.png;
#MUSIC:Saishuu kichiku imouto Flandre-S.ogg;
#SAMPLESTART:77.985;
#SAMPLELENGTH:15;
#BPMS:0=200;
#NOTES:
     dance-single:
     :
     Beginner:
     4:
     :
0000
0000
0000
0000
,
0000
0000
0000
0000
,
0000
0000
0000
0000
,
0000
0000
0000
0000
,
0000
0000
0000
0000
,
0001
0000
0000
0000
,
1000
0000
0000
0000
,
0010
0000
0010
0000
,
0100
0000
0100
0000
,
0020
0000
0030
0000
,
0200
0000
0300
0000
,
0001
0000
0001
0000
,
1000
0000
1000
0000
,
0020
0000
0030
0000
,
0200
0000
0300
0000
,
0010
0000
0010
0000
,
1000
0000
1000
0000
,
0001
0000
1000
0000
,
0001
0000
1000
0000
,
0010
0010
0010
0000
,
0100
0100
0100
0000
,
0001
0000
1000
0000
,
0001
0000
1000
0000
,
0100
0100
0100
0000
,
0010
0010
0010
0000
,
1001
0000
0000
0000
,
1001
0000
0000
0000
,
0010
0000
0100
0000
,
0010
0010
0010
0000
,
1001
0000
0000
0000
,
1001
0000
0000
0000
,
0100
0000
0010
0000
,
0100
0100
0100
0000
,
0001
0000
0001
0000
,
1000
0000
1000
0000
,
0010
0000
0100
0000
,
0001
0001
0001
0000
,
1000
0000
0010
0000
,
0100
0000
0001
0000
,
0010
0000
0100
0000
,
2002
0000
3003
0000
,
0010
0000
0010
0000
,
0200
0000
0300
0000
,
0001
0000
0001
0000
,
2000
0000
3000
0000
,
0010
0000
0010
0000
,
0200
0000
0300
0000
,
0001
0000
0001
0000
,
2000
0000
3000
0000
,
0100
0100
0100
0000
,
0020
0000
0030
0000
,
0001
0001
0001
0000
,
2000
0000
3000
0000
,
0001
0001
0001
0000
,
0200
0000
0300
0000
,
0010
0010
0010
0000
,
2000
0000
3000
0000
,
0002
0000
0000
0000
,
0003
0000
0000
0000
,
2000
0000
0000
0000
,
3000
0000
0000
0000
,
0002
0000
0000
0000
,
0003
0000
0000
0000
,
2000
0000
0000
0000
,
3000
0000
0000
0000
,
0010
0000
0000
0000
,
0100
0000
0000
0000
,
0010
0000
0000
0000
,
0100
0100
0100
0000
,
0001
0000
0000
0000
,
1000
0000
0000
0000
,
0001
0000
0000
0000
,
1001
0000
0000
0000
,
0001
0000
0001
0000
,
0010
0000
0100
0000
,
1000
0000
1000
0000
,
0010
0010
0010
0000
,
0100
0000
0100
0000
,
1000
0000
0001
0000
,
0010
0000
0010
0000
,
2002
0000
3003
0000
,
1000
1000
1000
0000
,
0100
0100
0100
0000
,
0001
0000
1000
0000
,
0010
0010
0010
0000
,
0100
0100
0100
0000
,
0001
0001
0001
0000
,
1000
0000
0001
0000
,
2002
0000
3003
0000
,
0010
0000
0010
0000
,
0200
0000
0300
0000
,
0001
0000
0001
0000
,
2000
0000
3000
0000
,
0010
0000
0010
0000
,
0200
0000
0300
0000
,
0001
0000
0001
0000
,
2000
0000
3000
0000
,
0100
0100
0100
0000
,
2002
0000
3003
0000
,
0010
0010
0010
0000
,
2002
0000
3003
0000
,
0100
0100
0100
0000
,
2002
0000
3003
0000
,
0010
0010
0010
0000
,
1000
0000
0001
0000
,
0000
0000
0000
0000
;
#NOTES:
     dance-single:
     :
     Easy:
     9:
     :
0000
0000
0000
0000
,
0000
0000
0000
0000
,
0000
0000
0000
0000
,
0000
0000
0000
0000
,
0000
0000
0000
0000
,
1000
0000
1000
0000
0001
0100
0001
0000
,
0001
0000
0001
0000
1000
0100
1000
0000
,
0010
0100
0010
0000
0100
0010
0100
0000
,
0001
1000
0001
0000
1000
0001
1000
0000
,
0200
0000
0320
0000
,
0032
0000
2003
0000
,
3001
0001
1000
1000
,
0010
0100
0220
0330
,
0002
0000
2003
0000
,
3020
0000
0230
0000
,
0301
0001
1000
1000
,
0100
0010
0220
0330
,
1000
0100
1000
0000
0010
0000
0100
0000
,
0001
0100
0001
0000
0010
0000
0100
0000
,
0001
1000
0100
0000
0010
0000
0100
0000
,
1000
0001
0100
0000
0010
0000
0100
0000
,
0010
1000
0100
0000
1000
0000
0001
0000
,
0010
0001
0100
0000
0001
0000
1000
0000
,
0001
1000
0010
0000
1000
0000
0001
0000
,
1000
0001
0010
0000
2002
0000
3003
0000
,
0010
0000
0100
0000
0010
0000
0100
0010
,
0000
1000
0001
1000
0001
0000
1001
0000
,
0010
0010
0100
0100
,
0001
1000
0001
0000
2002
0000
3003
0000
,
0001
0000
1000
0000
0001
0000
1000
0001
,
0000
0100
0010
0100
0010
0000
0110
0000
,
0001
0001
1000
1000
,
0100
0100
0010
0010
,
0100
0000
0010
0000
0100
0000
0010
0100
,
0000
1000
0001
1000
0001
0000
1001
0000
,
0100
0100
0010
0010
,
0001
1000
0001
0000
2002
0000
3003
0000
,
0001
0000
1000
0000
0001
0000
1000
0001
,
0000
0010
0100
0010
0100
0000
0110
0000
,
0001
0001
1000
1000
,
0100
0010
0100
0010
,
1000
0010
0100
0001
,
1000
0000
0000
0001
0000
0000
1001
0000
,
0001
0010
0100
1000
,
0001
0000
0000
1000
0000
0000
1001
0000
,
0001
0100
0010
1000
,
0001
0000
0000
1000
0000
0000
0110
0000
,
1000
0100
0010
0001
,
1000
0000
0000
0001
0000
0000
0110
0000
,
1000
0100
1000
0010
,
0100
0000
0000
0010
0000
0000
1001
0000
,
0001
0100
0001
0010
,
0100
0000
0000
0010
0000
0000
1001
0000
,
1000
0100
1000
0001
,
0100
0000
0000
0010
0000
0000
0110
0000
,
0001
0100
0001
1000
,
0010
0000
0000
0100
0000
0000
0110
0000
,
0001
0001
1000
1000
,
0001
0001
1000
1000
,
0001
0100
0001
0000
1000
0100
1000
0000
,
0001
0100
0010
0000
1000
0100
0010
0000
,
0100
0100
0010
0010
,
0100
0100
0010
0010
,
0001
0100
0010
0000
1000
0100
0010
0000
,
0100
0010
0100
0000
0220
0000
0330
0000
,
0020
0001
0000
0001
,
0000
0001
0000
0031
,
2000
0100
0000
0100
,
0000
0100
0000
3100
,
0020
0100
0000
0130
,
0200
0010
0000
0310
,
0001
0001
1000
1000
,
0001
0100
0001
0100
0010
1000
0010
0000
,
1000
0000
0100
0000
1000
0000
0010
0100
,
0000
0001
0010
0001
0010
0000
1001
0000
,
1000
0010
0100
0001
,
1000
0001
1000
0000
2002
0000
3003
0000
,
0001
0000
0100
0000
0001
0000
0010
0100
,
0000
1000
0010
1000
0010
0000
1001
0000
,
0001
0010
0100
1000
,
0001
0010
0100
1000
,
0100
0000
0010
0000
0100
0000
0001
0010
,
0000
0001
0010
0100
1000
0000
0110
0000
,
1000
0010
0100
0001
,
0010
0100
0010
0000
0220
0000
0330
0000
,
0010
0000
0100
0000
0010
0000
1000
0100
,
0000
1000
0100
0010
0001
0000
0110
0000
,
0001
0100
0010
1000
,
0100
0010
0001
1000
,
0001
0100
0010
1000
,
0001
0000
0000
1000
0000
0000
1001
0000
,
1000
0100
0010
0001
,
1000
0000
0000
0001
0000
0000
1001
0000
,
1000
0010
0100
0001
,
1000
0000
0000
0001
0000
0000
0110
0000
,
0001
0010
0100
1000
,
0001
0000
0000
1000
0000
0000
0110
0000
,
0001
0010
0001
0100
,
0010
0000
0000
0100
0000
0000
1001
0000
,
1000
0010
1000
0100
,
0010
0000
0000
0100
0000
0000
1001
0000
,
0001
0010
0001
1000
,
0010
0000
0000
0100
0000
0000
0110
0000
,
1000
0010
1000
0001
,
0100
0000
0000
0010
0000
0000
0110
0000
,
0000
0000
0000
0000
0000
0000
0000
1001
0000
0000
0000
0000
0000
0000
0000
0000
,
0000
0000
0000
0000
;
#NOTES:
     dance-single:
     :
     Medium:
     13:
     :
0000
0000
0000
0000
,
0000
0000
0000
0000
,
0000
0000
0000
0000
,
0000
0000
0000
0000
,
0000
0000
0000
0000
,
1100
0000
0001
0000
1000
0001
0100
0000
,
0011
0000
1000
0000
0001
1000
0100
0000
,
1000
0100
1000
0000
0001
0100
0001
0000
,
1000
0010
1000
0010
0100
0001
0100
0001
,
1000
0000
0010
0000
0100
0000
0001
0020
,
0000
0130
0010
0000
0001
0000
1000
0000
,
0001
0000
0010
0000
0100
0000
1000
0020
,
0000
0130
0010
0000
0220
0000
0330
0000
,
2020
3030
0022
0033
,
2200
3300
0022
0033
,
0001
0010
0100
0000
1000
0010
0100
0002
,
0000
1003
0100
0000
0220
0000
0330
0000
,
0001
0010
0001
0100
0010
1000
0100
0000
,
1000
0100
1000
0010
0100
0001
0010
0000
,
0001
0010
0100
1000
0100
0010
0001
0000
,
1000
0010
0100
0001
0100
0010
1000
0000
,
0001
0010
1000
0010
0001
0100
0010
0000
,
1000
0010
0001
0010
1000
0100
0010
0000
,
0001
0100
0001
0000
1000
0100
0010
0002
,
0000
1003
0010
0000
0200
0000
0300
0000
,
1010
0000
0101
0000
1010
0000
0100
0001
,
0000
0001
0010
0100
1000
0000
1001
0000
,
1000
0010
0001
0010
1000
0100
0010
0001
,
1000
0010
0100
0010
0200
0000
0300
0000
,
0011
0000
1100
0000
0011
0000
0100
1000
,
0000
1000
0010
0100
0001
0000
1001
0000
,
0001
0010
1000
0010
0001
0100
0010
1000
,
0001
0001
1000
1000
0010
0010
0100
0000
,
0101
0000
1100
0000
0101
0000
0100
0010
,
0000
0010
1000
0001
0100
0000
1001
0000
,
0001
0010
1000
0010
0001
1000
0010
0100
,
0001
1000
0100
0010
0002
0000
0003
0000
,
1100
0000
0101
0000
1100
0000
0100
0010
,
0000
0010
0001
1000
0100
0000
1001
0000
,
1000
0010
0001
0010
1000
0001
0010
0100
,
1000
1000
0001
0001
0100
0100
0010
0010
,
1000
0100
1000
0001
0100
0001
0010
0100
,
0220
0000
0330
2200
0000
3300
0101
0000
,
0001
0100
0001
1000
0100
1000
0010
0100
,
0220
0000
0330
0202
0000
0303
1100
0000
,
1000
0010
1000
0001
0010
0001
0100
0010
,
0220
0000
0330
2020
0000
3030
0011
0000
,
0001
0010
0001
1000
0010
1000
0100
0010
,
0220
0000
0330
0022
0000
0033
1010
0000
,
1000
0010
0010
0001
0010
0010
1000
0100
,
2000
0000
0000
3002
0000
0000
0013
0000
,
0001
0010
0010
1000
0010
0010
0001
0100
,
0002
0000
0000
2003
0000
0000
3010
0000
,
1000
0100
0100
0001
0100
0100
1000
0010
,
2000
0000
0000
3002
0000
0000
0103
0000
,
0001
0100
0100
1000
0100
0100
0001
0010
,
0022
0000
0033
2200
0000
3300
1001
0000
,
1000
0100
0010
0000
0001
0100
0010
0000
,
1000
0001
0100
0000
0001
1000
0010
0000
,
1000
0001
0001
0000
0001
1000
1000
0000
,
1000
0010
0010
0000
0010
0100
0100
0000
,
0001
0100
0001
0100
0010
1000
0010
0000
,
1000
0100
1000
0100
0010
0001
0010
0000
,
0001
1000
0010
0000
1000
0001
0100
0000
,
0010
1000
0100
0010
0001
0100
0010
1000
,
0200
1000
0000
1000
,
0000
0000
1000
0000
0000
1000
0000
1000
,
2300
0100
0000
0100
,
0000
0100
0000
0100
,
3200
0010
0000
0010
,
0320
0100
0000
0100
,
0130
0010
0001
0000
0100
0010
1000
0000
,
0001
1000
0100
0010
0001
1000
0010
0000
,
1000
0010
0001
0000
0001
0010
1000
0000
,
1000
0010
0001
0010
0100
0000
0110
0000
,
0100
0001
0010
0100
1000
0010
0100
0001
,
1000
1000
0001
0001
0020
0000
0030
0000
,
0001
0010
1000
0000
1000
0010
0001
0000
,
0001
0010
1000
0010
0100
0000
0110
0000
,
0100
1000
0010
0100
0001
0010
0100
1000
,
0001
0001
1000
1000
0010
0010
0100
0000
,
0010
1000
0100
0010
0001
0100
0010
1000
,
0001
0100
0010
1000
0001
0000
1001
0000
,
0001
0001
1000
1000
0001
0010
1000
0010
,
0001
0001
1000
1000
0020
0000
0030
0000
,
0100
0001
0010
0100
1000
0010
0100
0001
,
1000
0010
0100
0001
1000
0000
1001
0000
,
1000
1000
0001
0001
1000
0100
0001
0100
,
1000
1000
0001
0001
0100
0100
0010
0000
,
1000
0100
1000
0010
0100
0001
0010
0001
,
0020
0000
0000
0230
0000
0000
1300
0000
,
0001
0100
0001
0010
0100
1000
0010
1000
,
0020
0000
0000
0230
0000
0000
0301
0000
,
1000
0010
1000
0100
0010
0001
0100
0001
,
0200
0000
0000
0320
0000
0000
1030
0000
,
0001
0010
0001
0100
0010
1000
0100
1000
,
0200
0000
0000
0320
0000
0000
0031
0000
,
0001
0010
1000
0010
0001
0100
0010
1000
,
2000
0000
0001
3002
0000
1000
1003
0000
,
1000
0010
0001
0010
1000
0100
0010
0001
,
0002
0000
1000
2003
0000
0001
3001
0000
,
0001
0100
1000
0001
0010
1000
0100
0010
,
0200
0000
0010
0320
0000
0100
0130
0000
,
1000
0010
0001
1000
0100
0001
0010
0100
,
0110
0000
0000
1001
0000
0000
0110
0000
,
0000
0000
0000
0000
0000
0000
0000
2002
0000
0000
0000
0000
0000
0000
0000
0000
,
0000
0000
0000
0000
,
0000
0000
0000
0000
,
3003
0000
0000
0000
,
0000
0000
0000
0000
;
#NOTES:
     dance-single:
     :
     Hard:
     16:
     :
0000
0000
0000
0000
,
0000
0000
0000
0000
,
0000
0000
0000
0000
,
0000
0000
0000
0000
,
0000
0000
0000
0000
,
1001
0000
0100
0000
0001
0100
0010
0000
,
1001
0000
0100
0000
1000
0100
0010
0000
,
0001
0100
0010
0000
1000
0100
0010
0000
,
0001
0000
0100
0000
0010
0000
1000
0000
0001
0100
0001
0100
0010
1000
0010
1000
,
0010
0000
1000
0000
0010
0000
0100
0020
,
0000
0130
0010
0000
1010
0000
0101
0000
,
0010
0000
0001
0000
0010
0000
0100
0020
,
0000
0130
0010
0000
0220
0000
0330
0000
,
0011
0100
1010
0100
,
0011
0001
1010
1000
,
0001
0010
0001
0010
0100
1000
0100
2000
,
0000
3001
0100
0000
0220
0000
0330
0000
,
0010
0000
1000
0000
0010
0000
0100
0000
0010
1000
0010
1000
0010
0000
1000
0000
,
0001
0000
0010
0000
0001
0000
1000
0000
0001
0010
0001
0010
0001
0000
0010
0000
,
0100
0000
1000
0000
0100
0000
0010
0000
0100
1000
0100
1000
0100
0000
1000
0000
,
0001
0000
0100
0000
0010
0000
0100
0000
0001
0100
0001
0100
0001
0000
0010
0000
,
0100
0000
1000
0000
0100
0000
1000
0000
0100
1000
0100
0010
0001
0000
0100
0000
,
0010
0000
0100
0000
0010
0000
0100
0000
0001
0100
0010
1000
0001
0000
0100
0000
,
0010
1000
0010
1000
0001
0100
0001
0200
,
0000
0000
0301
0000
0100
0000
0000
0000
0001
0100
0010
1000
0001
0100
0010
1000
,
0001
0000
0010
0000
0100
0000
1000
2000
,
0000
3001
0100
0010
1010
0000
0101
0000
,
0100
0000
0010
1000
0010
0000
0100
0000
0001
0000
0100
0010
0100
0000
0010
0000
,
1000
0001
1000
0000
0001
1000
0001
0000
0200
0000
0000
0000
0300
0000
0000
0000
,
1010
0000
0010
0000
0100
0000
0001
1000
,
1001
1000
0100
0010
0011
0000
1100
0000
,
0100
0000
0010
0001
0010
0000
0100
0000
1000
0000
0100
0010
0100
0000
0010
0000
,
0110
0000
0000
0000
1001
0000
0000
0000
1000
0100
1000
0001
0100
0001
0100
0000
,
0001
0100
0010
0000
0100
0010
1000
0000
0010
1000
0001
0000
0100
0000
0020
0000
,
0000
0000
0130
0010
1000
0000
0100
0000
0010
0000
0000
0000
0110
0000
0000
0000
,
0001
0000
1000
0100
1000
0000
0010
0000
0100
0000
0001
1000
0001
0000
1000
0000
,
0100
0010
0100
0000
1000
0001
1000
0000
0200
0000
0000
0000
0300
0000
0000
0000
,
1000
0100
0010
0000
0100
0010
0001
0000
0010
0001
1000
0000
0100
0000
0020
0000
,
0000
0000
0130
0010
0001
0000
0100
0000
0010
0000
0000
0000
0110
0000
0000
0000
,
1000
0000
0001
0100
0001
0000
0010
0000
0001
0000
1000
0001
1000
0000
0001
0000
,
0100
0100
0010
0010
1000
1000
0001
0001
,
1000
0100
0100
1000
0100
0100
1000
0010
,
0220
0000
0330
2200
0000
3300
0101
0000
,
0100
0001
0001
0100
0010
0010
0100
0010
,
2020
0000
3030
0220
0000
0330
0101
0000
,
1000
0010
0010
1000
0010
0010
1000
0100
,
0220
0000
0330
0022
0000
0033
1010
0000
,
0010
1000
1000
0010
0100
0100
0010
0100
,
0202
0000
0303
0220
0000
0330
1010
0000
,
1000
0000
0010
1000
0010
0000
1000
0000
0010
1000
0010
0000
0100
0000
0001
0000
,
0011
0000
0010
0110
0000
0100
1100
0000
,
0001
0000
0010
0001
0010
0000
0001
0000
0010
0001
0010
0000
0100
0000
1000
0000
,
1010
0000
0010
0110
0000
0100
0101
0000
,
0001
0000
1000
0001
0100
0000
0010
0000
0100
0001
1000
0000
0010
0000
0100
0000
,
1001
0000
1000
1100
0000
0001
0101
0000
,
1000
0000
0001
1000
0100
0000
0010
0000
0100
1000
0001
0000
0010
0000
0100
0000
,
1001
0000
0000
0110
0000
0000
1001
0000
,
0010
0001
0010
0001
1000
0100
1000
0100
,
1000
0010
1000
0010
0100
0001
0100
0001
,
0010
0000
0100
0010
0100
0000
0010
0000
0001
0000
1000
0001
1000
0000
0001
0000
,
0100
0000
0010
0100
0010
0000
0100
0000
0001
0000
1000
0001
1000
0000
0001
0000
,
0100
0001
0100
0001
1000
0010
1000
0010
,
1000
0100
1000
0100
0010
0001
0010
0001
,
0100
0000
0010
0100
0010
0000
0100
0000
0001
0000
1000
0001
1000
0000
0001
0000
,
0010
0000
0100
0010
0100
0000
0010
0000
0100
0000
0010
0000
0001
0000
1000
0000
,
0200
1000
0000
1000
,
0000
0000
1000
0000
0000
1000
0000
1000
,
2300
0001
0000
0001
,
0000
0001
0000
0001
,
3200
0010
0000
0010
,
0320
0100
0000
0100
,
0130
0100
0100
0000
0010
0010
0010
0000
,
1010
0000
0000
0000
0101
0000
0000
0000
0110
0000
0000
0001
0100
0000
0010
0000
,
1000
0001
0010
0000
0100
1000
0001
0000
1000
0010
0100
0000
0010
0000
0020
0000
,
0000
0000
1030
0100
0010
0000
0001
0000
1000
0000
0000
0000
1001
0000
0000
0000
,
1000
0000
0010
0100
0001
0000
0010
0000
0100
0000
0010
0100
1000
0000
0100
0000
,
1000
0100
1000
0000
0001
0100
0001
0000
0200
0000
0000
0000
0300
0000
0000
0000
,
0001
1000
0010
0000
0100
0001
1000
0000
0001
0010
0100
0000
0010
0000
0020
0000
,
0000
0000
0031
0100
0010
0000
1000
0000
0001
0000
0000
0000
1001
0000
0000
0000
,
0001
0000
0010
0100
1000
0000
0010
0000
0100
0000
0010
0100
0001
0000
0100
0000
,
0001
0100
0001
0000
0100
0010
0100
0000
0010
1000
0010
0000
0100
0010
0100
0000
,
0001
0010
0100
0000
0100
0010
0001
0000
1000
0010
0100
0000
0001
0000
2000
0000
,
0000
0000
3001
0010
0100
0000
0010
0000
0100
0000
0000
0000
0110
0000
0000
0000
,
1000
0000
0001
0100
0001
0000
0010
0000
0100
0000
1000
0100
1000
0000
0010
0000
,
0100
0001
0100
0000
0010
1000
0010
0000
0200
0000
0000
0000
0300
0000
0000
0000
,
0001
0010
0100
0000
0100
0010
0001
0000
1000
0010
0100
0000
0001
0000
2000
0000
,
0000
0000
3001
0010
0100
0000
0010
0000
0100
0000
0000
0000
0110
0000
0000
0000
,
0001
0000
1000
0100
1000
0000
0010
0000
0100
0000
0001
0100
0001
0000
0010
0000
,
0100
0100
0010
0010
0001
0001
1000
1000
,
0001
0000
0100
0001
0100
0000
0001
0000
1000
0100
0010
0000
0001
0000
1000
0000
,
1001
0000
0010
1010
0000
0100
0101
0000
,
1000
0000
0100
1000
0100
0000
1000
0000
0001
0100
0010
0000
1000
0000
0001
0000
,
1001
0000
0010
0011
0000
0100
1100
0000
,
0010
0000
0100
0010
0001
0000
1000
0000
0001
0100
0010
0000
1000
0000
0100
0000
,
0010
0000
0100
0110
0000
1000
1001
0000
,
0010
0000
0100
0010
1000
0000
0001
0000
1000
0100
0010
0000
0001
0000
0100
0000
,
0010
0000
0100
0110
0000
0001
1001
0000
,
1000
0000
0100
0010
0100
0000
0001
0000
0100
0010
0100
0000
1000
0000
0001
0000
,
2000
0010
3010
0200
0010
0310
1001
0000
,
0001
0000
0100
0010
0100
0000
1000
0000
0100
0010
0100
0000
0001
0000
1000
0000
,
0002
0010
0013
0200
0010
0310
1001
0000
,
1000
0000
0010
1000
0100
0000
0010
0000
0100
1000
0010
0000
0100
0000
0001
0000
,
0020
0100
0130
0020
0001
0031
0110
0000
,
0001
0000
0010
0001
0100
0000
0010
0000
0100
0001
0010
0000
0100
0000
1000
0000
,
0110
0000
0000
1001
0000
0000
0110
0000
,
0000
0000
0000
0000
0000
0000
0000
2002
0000
0000
0000
0000
0000
0000
0000
0000
,
0000
0000
0000
0000
,
0000
0000
0000
0000
,
3003
0000
0000
0000
,
0000
0000
0000
0000
;
#NOTES:
     dance-double:
     :
     Easy:
     9:
     :
00000000
00000000
00000000
00000000
,
00000000
00000000
00000000
00000000
,
00000000
00000000
00000000
00000000
,
00000000
00000000
00000000
00000000
,
00000000
00000000
00000000
00000000
,
10000000
00000000
00100000
00000000
01000000
00100000
01000000
00000000
,
00001000
00000000
00010000
00000000
00001000
00010000
00001000
00000000
,
00000100
00000010
00000100
00000000
00000001
00000010
00000001
00000000
,
00001000
00000001
00001000
00000000
00000100
00010000
00001000
00000000
,
00020000
00000000
00032000
00000000
,
00203000
00000000
00320000
00000000
,
01030000
01000000
00100000
00100000
,
10000000
01000000
02200000
03300000
,
00020000
00000000
00032000
00000000
,
00003020
00000000
00000230
00000000
,
00000310
00000010
00000100
00000100
,
00001000
00000010
00000220
00000330
,
00000001
00000010
00000001
00000000
00000100
00000000
00000010
00000000
,
00000100
00000010
00000100
00000000
00001000
00000000
00010000
00000000
,
00001000
00010000
00001000
00000000
00100000
00000000
01000000
00000000
,
00100000
01000000
00100000
00000000
00010000
00000000
10000000
00000000
,
00010000
01000000
00100000
00000000
01000000
00000000
00001000
00000000
,
00010000
00001000
00100000
00000000
00001000
00000000
00010000
00000000
,
00001000
00000100
00000010
00000000
00001000
00000000
00000001
00000000
,
00000001
00000010
00000100
00000000
00002002
00000000
00003003
00000000
,
00000001
00000000
00000100
00000000
00000010
00000000
00001000
00000100
,
00000000
00010000
00001000
00010000
00001000
00000000
00011000
00000000
,
00010000
01000000
10000000
00100000
,
01000000
00100000
01000000
00000000
02200000
00000000
03300000
00000000
,
10000000
00000000
01000000
00000000
00100000
00000000
00010000
01000000
,
00000000
00001000
00010000
00001000
00010000
00000000
00011000
00000000
,
00001000
00000100
00000001
00000010
,
00000100
00000010
00000001
00001000
,
00000010
00000000
00001000
00000000
00000100
00000000
00000010
00000001
,
00000000
00001000
00000100
00010000
00001000
00000000
00011000
00000000
,
00001000
00100000
01000000
10000000
,
01000000
00100000
00010000
00000000
20020000
00000000
30030000
00000000
,
00100000
00000000
00010000
00000000
01000000
00000000
00100000
10000000
,
00000000
00010000
01000000
00001000
00010000
00000000
00011000
00000000
,
00010000
00000010
00000100
00000001
,
00001000
00001000
00000001
00000001
,
00000010
00000001
00000100
00000010
,
00001000
00000000
00000000
00000100
00000000
00000000
00011000
00000000
,
00100000
00010000
01000000
00001000
,
00010000
00000000
00000000
00001000
00000000
00000000
00011000
00000000
,
00001000
00100000
00010000
01000000
,
00100000
00000000
00000000
01000000
00000000
00000000
01100000
00000000
,
10000000
01000000
00100000
00010000
,
00100000
00000000
00000000
00001000
00000000
00000000
00011000
00000000
,
00001000
00000100
00000001
00000010
,
00000100
00000000
00000000
00000010
00000000
00000000
00001001
00000000
,
00000001
00000100
00001000
00010000
,
01000000
00000000
00000000
10000000
00000000
00000000
10010000
00000000
,
00100000
01000000
00001000
00010000
,
00000100
00000000
00000000
00000010
00000000
00000000
00000110
00000000
,
00000001
00000001
00001000
00001000
,
00000100
00000000
00000000
00010000
00000000
00000000
00011000
00000000
,
00001000
00001000
00010000
00010000
,
00100000
00100000
01000000
01000000
,
00100000
01000000
00100000
00000000
10000000
01000000
10000000
00000000
,
00010000
01000000
00010000
00000000
00100000
00001000
00010000
00000000
,
00010000
00010000
00001000
00001000
,
00000010
00000010
00000100
00000100
,
00000010
00000100
00000010
00000000
00000001
00000100
00000001
00000000
,
00001000
00000100
00001000
00000000
00002002
00000000
00003003
00000000
,
00000200
00001000
00000000
00001000
,
00000000
00001000
00000000
00001300
,
00000020
00000100
00000000
00000100
,
00000000
00000100
00000000
00000130
,
00002000
00010000
00000000
00013000
,
00020000
00001000
00000000
00031000
,
00001000
00001000
00010000
00010000
,
00001000
00010000
00001000
00010000
00000100
00001000
00000010
00000000
,
00001000
00000000
00000010
00000000
00000100
00000000
00000001
00000010
,
00000000
00000001
00000010
00000100
00001000
00000000
00001001
00000000
,
00000001
00000100
00001000
00010000
,
01000000
00010000
01000000
00000000
20020000
00000000
30030000
00000000
,
00010000
00000000
00100000
00000000
01000000
00000000
10000000
00100000
,
00000000
10000000
00100000
01000000
00010000
00000000
10010000
00000000
,
10000000
01000000
00010000
00001000
,
00000010
00000100
00000010
00000001
,
00000001
00000000
00000100
00000000
00000010
00000000
00001000
00000100
,
00000000
00001000
00000100
00010000
00001000
00000000
00011000
00000000
,
01000000
00010000
00100000
01000000
,
10000000
01000000
10000000
00000000
20020000
00000000
30030000
00000000
,
10000000
00000000
01000000
00000000
00100000
00000000
00010000
01000000
,
00000000
00010000
01000000
00001000
00010000
00000000
00011000
00000000
,
00000100
00001000
00000010
00000100
,
00000001
00000001
00001000
00001000
,
00000001
00000010
00000100
00001000
,
00000100
00000000
00000000
00010000
00000000
00000000
00011000
00000000
,
00001000
01000000
00010000
00100000
,
01000000
00000000
00000000
00100000
00000000
00000000
01100000
00000000
,
10000000
00100000
01000000
00001000
,
00010000
00000000
00000000
00001000
00000000
00000000
00011000
00000000
,
00000100
00000010
00000001
00001000
,
00000010
00000000
00000000
00000100
00000000
00000000
00000110
00000000
,
00000001
00000100
00001000
00010000
,
00001000
00000000
00000000
00010000
00000000
00000000
00011000
00000000
,
00010000
01000000
10000000
00100000
,
01000000
00000000
00000000
00100000
00000000
00000000
10010000
00000000
,
10000000
00100000
00010000
00001000
,
00010000
00000000
00000000
00001000
00000000
00000000
00011000
00000000
,
00001000
00000100
00000001
00000010
,
00000100
00000000
00000000
00000010
00000000
00000000
00000110
00000000
,
00000000
00000000
00000000
00000000
00000000
00000000
00000000
00001001
00000000
00000000
00000000
00000000
00000000
00000000
00000000
00000000
,
00000000
00000000
00000000
00000000
;
#NOTES:
     dance-double:
     :
     Medium:
     13:
     :
00000000
00000000
00000000
00000000
,
00000000
00000000
00000000
00000000
,
00000000
00000000
00000000
00000000
,
00000000
00000000
00000000
00000000
,
00000000
00000000
00000000
00000000
,
00000101
00000000
00000001
00000000
00000010
00000100
00001000
00000000
,
00001100
00000000
00000100
00000000
00010000
00001000
00100000
00000000
,
00010000
01000000
00010000
00000000
10000000
00100000
10000000
00000000
,
10000000
01000000
10000000
01000000
00010000
00001000
00010000
00001000
,
00010000
00000000
00001000
00000000
00010000
00000000
00000100
00002000
,
00000000
00003100
00000010
00000000
00000001
00000000
00001000
00000000
,
00000001
00000000
00000100
00000000
00001000
00000000
00010000
00002000
,
00000000
00013000
00100000
00000000
02200000
00000000
03300000
00000000
,
20200000
30300000
02020000
03030000
,
00022000
00033000
00002200
00003300
,
00001000
00000100
00000001
00000000
00000010
00000001
00000100
00000020
,
00000000
00010030
00001000
00000000
00022000
00000000
00033000
00000000
,
00010000
00001000
00100000
00010000
01000000
00100000
10000000
00000000
,
01000000
00100000
00010000
00100000
00001000
00010000
00000100
00000000
,
00001000
00000100
00000010
00000001
00000100
00000010
00001000
00000000
,
00000100
00010000
00001000
00100000
00010000
01000000
00100000
00000000
,
10000000
01000000
00100000
00010000
00001000
00000100
00000001
00000000
,
00000100
00001000
00000010
00000001
00000010
00000100
00000010
00000000
,
00000100
00001000
00010000
01000000
10000000
00100000
01000000
00020000
,
00000000
10030000
00100000
00000000
02000000
00000000
03000000
00000000
,
10100000
00000000
01010000
00000000
00011000
00000000
00001000
00000100
,
00000000
00000100
00000001
00000010
00000100
00000000
00000110
00000000
,
00000001
00000010
00001000
00010000
00001000
00000010
00000001
00000100
,
00001000
00010000
00001000
00000100
00000020
00000000
00000030
00000000
,
00000011
00000000
00001100
00000000
00011000
00000000
00010000
01000000
,
00000000
01000000
10000000
00100000
01000000
00000000
01100000
00000000
,
10000000
00100000
00010000
00001000
00010000
00100000
10000000
01000000
,
00010000
00001000
00000100
00000010
,
00000110
00000000
00001100
00000000
00000101
00000000
00000001
00000100
,
00000000
00000001
00000100
00001000
00010000
00000000
00011000
00000000
,
00001000
00010000
01000000
10000000
00100000
00010000
00100000
10000000
,
01000000
00100000
00001000
00010000
02000000
00000000
03000000
00000000
,
01100000
00000000
01010000
00000000
11000000
00000000
10000000
01000000
,
00000000
10000000
01000000
00010000
00001000
00000000
00011000
00000000
,
00010000
00001000
00000100
00000001
00000010
00001000
00000010
00000001
,
00000100
00000010
00010000
00001000
,
00001000
00010000
00100000
00010000
00100000
10000000
01000000
00100000
,
02200000
00000000
03300000
00220000
00000000
00330000
00011000
00000000
,
00010000
00001000
00000010
00001000
00000010
00000001
00000100
00000010
,
00000220
00000000
00000330
00002020
00000000
00003030
00011000
00000000
,
00010000
00001000
00000100
00001000
00000100
00000001
00000010
00000100
,
00000220
00000000
00000330
00002200
00000000
00003300
00011000
00000000
,
00001000
00010000
01000000
00010000
01000000
10000000
00100000
01000000
,
02200000
00000000
03300000
02020000
00000000
03030000
00011000
00000000
,
00001000
00010000
00010000
00001000
00000100
00000100
00000010
00001000
,
00000200
00000000
00000000
00000320
00000000
00000000
00000130
00000000
,
00010000
00001000
00001000
00010000
01000000
01000000
00100000
00010000
,
02000000
00000000
00000000
03200000
00000000
00000000
01300000
00000000
,
00001000
00010000
00010000
00001000
00100000
00100000
01000000
10000000
,
00200000
00000000
00000000
02300000
00000000
00000000
03100000
00000000
,
00010000
00001000
00001000
00010000
00000010
00000010
00000100
00000001
,
00000020
00000000
00000000
00000230
00000000
00000000
00000310
00000000
,
00000001
00000100
00001000
00000000
00000100
00001000
00010000
00000000
,
00001000
00010000
00100000
00000000
00010000
00100000
10000000
00000000
,
00100000
01000000
00010000
00000000
00010000
00100000
01000000
00000000
,
00100000
01000000
10000000
00000000
00010000
10000000
01000000
00000000
,
10000000
01000000
00010000
00000000
01000000
00010000
00001000
00000000
,
00010000
00001000
00000010
00000000
00001000
00000010
00000001
00000000
,
00000100
00000010
00001000
00000000
00001000
00000100
00000010
00000000
,
00000100
00000010
00000001
00001000
00000010
00000100
00000001
00000010
,
00000200
00001000
00000000
00001000
,
00000000
00000000
00001000
00000000
00000000
00010000
00000000
00010300
,
00020000
00001000
00000000
00001000
,
00000000
00001000
00000000
00001000
,
00032000
00100000
00000000
00100000
,
00203000
01000000
00000000
01000000
,
01300000
00100000
00010000
00000000
01000000
00100000
10000000
00000000
,
10000000
01000000
00010000
00001000
00010000
00000100
00000010
00000000
,
00000001
00000010
00000100
00000000
00000100
00001000
00000010
00000000
,
00000010
00000100
00001000
00010000
00001000
00000000
00011000
00000000
,
00001000
00010000
01000000
10000000
00100000
00010000
00100000
01000000
,
00001000
00001000
00010000
00010000
02000000
00000000
03000000
00000000
,
10000000
00100000
01000000
00000000
01000000
00010000
00100000
00000000
,
00100000
01000000
00010000
00001000
00010000
00000000
00011000
00000000
,
00010000
00001000
00000100
00000001
00000010
00001000
00000010
00000100
,
00010000
00001000
00000100
00000001
,
00000010
00000001
00000100
00000010
00001000
00000100
00010000
00001000
,
00000100
00001000
00010000
00100000
10000000
00000000
00110000
00000000
,
00100000
00100000
00001000
00001000
00010000
01000000
10000000
01000000
,
00010000
00001000
00010000
00100000
02000000
00000000
03000000
00000000
,
00100000
10000000
01000000
00100000
00010000
01000000
00001000
00010000
,
01000000
00010000
00001000
00000010
00000001
00000000
00001010
00000000
,
00000010
00000010
00010000
00010000
00001000
00000100
00000001
00000100
,
00001000
00001000
00000100
00000100
00000001
00000001
00000010
00000000
,
00000010
00000001
00000100
00000010
00001000
00000100
00010000
00001000
,
00020000
00000000
00000000
00032000
00000000
00000000
00013000
00000000
,
00001000
00010000
00001000
00100000
00010000
01000000
00100000
10000000
,
02000000
00000000
00000000
03200000
00000000
00000000
01300000
00000000
,
10000000
01000000
00100000
00001000
00010000
00001000
00000100
00000010
,
00002000
00000000
00000000
00003002
00000000
00000000
00000013
00000000
,
00000001
00000010
00000100
00001000
00000100
00010000
00001000
01000000
,
00020000
00000000
00000000
20030000
00000000
00000000
31000000
00000000
,
10000000
00100000
00010000
00001000
00100000
00010000
00001000
00000100
,
00000020
00000000
00000000
00000230
00000000
00000000
00000310
00000000
,
00000010
00000001
00000100
00001000
00010000
00100000
10000000
00100000
,
02000000
00000000
00000000
03200000
00000000
00000000
01300000
00000000
,
00100000
01000000
00010000
00100000
00001000
00010000
00000100
00001000
,
00000020
00000000
00000100
00000230
00000000
00000010
00000310
00000000
,
00000010
00000100
00001000
00010000
01000000
10000000
00100000
01000000
,
01100000
00000000
00000000
10100000
00000000
00000000
01010000
00000000
,
00000000
00000000
00000000
00000000
00000000
00000000
00000000
20020000
00000000
00000000
00000000
00000000
00000000
00000000
00000000
00000000
,
00000000
00000000
00000000
00000000
,
00000000
00000000
00000000
00000000
,
30030000
00000000
00000000
00000000
,
00000000
00000000
00000000
00000000
;
#NOTES:
     dance-double:
     :
     Hard:
     16:
     :
00000000
00000000
00000000
00000000
,
00000000
00000000
00000000
00000000
,
00000000
00000000
00000000
00000000
,
00000000
00000000
00000000
00000000
,
00000000
00000000
00000000
00000000
,
11000000
00000000
01000000
00000000
10000000
01000000
00010000
00000000
,
00011000
00000000
00001000
00000000
00010000
00001000
00000100
00000000
,
00000001
00000100
00000010
00000000
00001000
00000100
00000010
00000000
,
00000001
00000000
00000100
00000000
00000010
00000000
00001000
00000000
00000100
00001000
00000100
00001000
00000100
00010000
00000100
00010000
,
00001000
00000000
00010000
00000000
00001000
00000000
00010000
00200000
,
00000000
01300000
00100000
00000000
01100000
00000000
10010000
00000000
,
01000000
00000000
00100000
00000000
00001000
00000000
00010000
00002000
,
00000000
00013000
00001000
00000000
00002200
00000000
00003300
00000000
,
00000011
00000100
00001010
00000100
,
00011000
00001000
00110000
01000000
,
10000000
00100000
00010000
00100000
01000000
00010000
00100000
00002000
,
00000000
00000000
00013000
00000000
00000100
00000000
00000000
00000000
00002200
00000000
00000000
00000000
00000000
00003300
00000000
00000000
,
00000010
00000000
00000001
00000000
00000100
00000000
00000010
00000000
00000100
00000010
00000100
00000010
00000100
00000000
00000010
00000000
,
00001000
00000000
00000100
00000000
00010000
00000000
00001000
00000000
00010000
00001000
00010000
00001000
00010000
00000000
00001000
00000000
,
01000000
00000000
00100000
00000000
10000000
00000000
00010000
00000000
00100000
00010000
00100000
00010000
00100000
00000000
01000000
00000000
,
10000000
00000000
00100000
00000000
01000000
00000000
00010000
00000000
10000000
01000000
10000000
01000000
10000000
00000000
01000000
00000000
,
00100000
00000000
00010000
00000000
01000000
00000000
00100000
00000000
10000000
01000000
00100000
00010000
00100000
00000000
00001000
00000000
,
00010000
00000000
00000100
00000000
00001000
00000000
00000010
00000000
00001000
00000010
00000100
00000001
00000010
00000000
00000100
00000000
,
00001000
00000010
00000001
00000010
00001000
00000100
00010000
00002000
,
00000000
00000000
00103000
00000000
00001000
00000000
00010000
00000000
00001000
01000000
00010000
10000000
00100000
01000000
00010000
10000000
,
00100000
00000000
01000000
00000000
00010000
00000000
00100000
00200000
,
00000000
00301000
00010000
00000100
00000010
00000000
00000110
00000000
,
00000001
00000000
00000100
00000010
00000100
00000000
00000010
00000000
00001000
00000000
00000100
00010000
00000100
00000000
00010000
00000000
,
00001000
00010000
00001000
00000000
00100000
00010000
00100000
00000000
02000000
00000000
00000000
00000000
03000000
00000000
00000000
00000000
,
00110000
00000000
01000000
00000000
10100000
00000000
01000000
00020000
,
00000000
10030000
01000000
00010000
00001000
00000000
00011000
00000000
,
00001000
00000000
00000100
00000010
00000100
00000000
00000001
00000000
00000010
00000000
00000100
00000010
00000100
00000000
00001000
00000000
,
00001100
00000000
00000000
00000000
00011000
00000000
00000000
00000000
00001000
00010000
00001000
00100000
00010000
00100000
00010000
00000000
,
01000000
00100000
10000000
00000000
01000000
00100000
00010000
00000000
00100000
00001000
00010000
00000000
00001000
00000000
00020000
00000000
,
00000000
00000000
00031000
00000100
00000010
00000000
00001000
00000000
00000100
00000000
00000000
00000000
00000110
00000000
00000000
00000000
,
00000001
00000000
00000100
00001000
00000100
00000000
00001000
00000000
00010000
00000000
00001000
00010000
00001000
00000000
00010000
00000000
,
01000000
10000000
01000000
00000000
10000000
00010000
10000000
00000000
00200000
00000000
00000000
00000000
00300000
00000000
00000000
00000000
,
10000000
01000000
00100000
00000000
01000000
00100000
00010000
00000000
00100000
00001000
00010000
00000000
00001000
00000000
00020000
00000000
,
00000000
00000000
00031000
00010000
00000100
00000000
00000010
00000000
00000100
00000000
00000000
00000000
00000110
00000000
00000000
00000000
,
00000010
00000000
00000001
00000010
00000001
00000000
00000100
00000000
00000010
00000000
00000100
00000010
00000100
00000000
00001000
00000000
,
00010000
00010000
00001000
00001000
01000000
01000000
00100000
00100000
,
10000000
01000000
00010000
00001000
00100000
00001000
00010000
00000010
,
00000200
00000000
00000300
00000002
00000000
00000003
00000011
00000000
,
00000001
00000100
00001000
00010000
00000010
00010000
00001000
00100000
,
02000000
00000000
03000000
20000000
00000000
30000000
10100000
00000000
,
10000000
00100000
00010000
00001000
01000000
00001000
00010000
00000100
,
00000020
00000000
00000030
00000002
00000000
00000003
00000101
00000000
,
00000001
00000010
00001000
00010000
00000100
00010000
00001000
01000000
,
00200000
00000000
00300000
20000000
00000000
30000000
11000000
00000000
,
10000000
00000000
01000000
00100000
01000000
00000000
00010000
00000000
00001000
00010000
00001000
00000000
00000100
00000000
00000001
00000000
,
00000101
00000000
00000100
00000110
00000000
00000000
00001001
00000000
,
00000001
00000000
00000100
00000010
00000100
00000000
00001000
00000000
00010000
00001000
00010000
00000000
01000000
00000000
10000000
00000000
,
11000000
00000000
01000000
01100000
00000000
00000000
10010000
00000000
,
10000000
00000000
00100000
01000000
00100000
00000000
00010000
00000000
00001000
00010000
00001000
00000000
00000010
00000000
00000001
00000000
,
00000011
00000000
00000010
00000110
00000000
00000000
00001001
00000000
,
00000001
00000000
00000100
00001000
00000100
00000000
00001000
00000000
00010000
00001000
00010000
00000000
01000000
00000000
10000000
00000000
,
11000000
00000000
00000000
01100000
00000000
00000000
00110000
00000000
,
10000000
01000000
10000000
01000000
00100000
00010000
00100000
00010000
,
00001000
00000100
00001000
00000100
00000010
00000001
00000010
00000001
,
00000010
00000000
00000001
00000010
00000001
00000000
00000100
00000000
00000010
00000000
00001000
00000001
00001000
00000000
00000100
00000000
,
00000010
00000000
00000100
00000010
00000100
00000000
00000010
00000000
00000100
00000000
00001000
00000100
00000010
00000000
00000000
00000000
,
00000001
00000100
00001000
00010000
01000000
10000000
00100000
00010000
,
00001000
00000010
00000001
00000100
00001000
00010000
00100000
10000000
,
00010000
00000000
10000000
00010000
10000000
00000000
00100000
00000000
01000000
00000000
00100000
01000000
00100000
00000000
10000000
00000000
,
00010000
00000000
10000000
00010000
10000000
00000000
01000000
00000000
00100000
00000000
00001000
00000000
00010000
00000000
00001000
00000000
,
00000200
00000010
00000000
00000010
,
00000000
00000000
00000010
00000000
00000000
00000001
00000000
00000001
,
00000302
00000010
00000000
00000010
,
00000000
00000010
00000000
00000010
,
00000203
00001000
00000000
00001000
,
00002300
00010000
00000000
00010000
,
00013000
00001000
00000100
00000000
00001000
00010000
01000000
00000000
,
01010000
00000000
00000000
00000000
11000000
00000000
00000000
00000000
10100000
00000000
00000000
10000000
00100000
00000000
01000000
00000000
,
00010000
00100000
00001000
00000000
00010000
00001000
00100000
00000000
00001000
00010000
00000010
00000000
00000100
00000000
00000020
00000000
,
00000000
00000000
00000130
00000010
00001000
00000000
00000001
00000000
00000100
00000000
00000000
00000000
00001001
00000000
00000000
00000000
,
00000001
00000000
00000010
00000100
00001000
00000000
00000100
00000000
00010000
00000000
00001000
00000100
00000010
00000000
00001000
00000000
,
00000100
00001000
00010000
00001000
00000100
00000000
00010100
00000000
,
00001000
00000100
00010000
00000000
00001000
00010000
00000100
00000000
00010000
00001000
01000000
00000000
00100000
00000000
02000000
00000000
,
00000000
00000000
03100000
01000000
00010000
00000000
10000000
00000000
00100000
00000000
00000000
00000000
10010000
00000000
00000000
00000000
,
10000000
00000000
01000000
00100000
00010000
00000000
00100000
00000000
00001000
00000000
00010000
00100000
01000000
00000000
00010000
00000000
,
00100000
00010000
00001000
00010000
00100000
01000000
10000000
00010000
,
10000000
01000000
00100000
00000000
00010000
01000000
00001000
00000000
00010000
00001000
00000010
00000000
00000100
00000000
00000020
00000000
,
00000000
00000000
00000031
00000100
00000010
00000000
00001000
00000000
00000010
00000000
00000000
00000000
00010010
00000000
00000000
00000000
,
00010000
00000000
00001000
00010000
00001000
00000000
00000100
00000000
00001000
00000000
00010000
00001000
00010000
00000000
01000000
00000000
,
00010000
00001000
00000100
00000001
00000020
00000000
00000030
00000000
,
00000001
00000100
00000010
00000000
00001000
00000100
00010000
00000000
00001000
00010000
00100000
00000000
01000000
00000000
00200000
00000000
,
00000000
00000000
10300000
01000000
00100000
00000000
00010000
00000000
00100000
00000000
00000000
00000000
00101000
00000000
00000000
00000000
,
00001000
00000000
00010000
00001000
00010000
00000000
01000000
00000000
00010000
00000000
00001000
00010000
00001000
00000000
00000100
00000000
,
00001000
00010000
00001000
00010000
01000000
00100000
01000000
00100000
,
00010000
00000000
00100000
01000000
10000000
00000000
00100000
00000000
01000000
00100000
10000000
00000000
01000000
00000000
00010000
00000000
,
00011000
00000000
00000010
00001010
00000000
00000000
00001001
00000000
,
00001000
00000000
00000010
00000100
00000001
00000000
00000010
00000000
00000100
00000010
00000001
00000000
00000100
00000000
00001000
00000000
,
00011000
00000000
01000000
01001000
00000000
00000000
00110000
00000000
,
00100000
00000000
00001000
00010000
01000000
00000000
00010000
00000000
00001000
00010000
00000010
00000000
00000100
00000000
00000010
00000000
,
00000100
00000000
00000010
00000110
00000000
00000000
00001010
00000000
,
00000010
00000000
00010000
00001000
00000100
00000000
00001000
00000000
00010000
00001000
00100000
00000000
01000000
00000000
00100000
00000000
,
01000000
00000000
00100000
01100000
00000000
00000000
10010000
00000000
,
10000000
00000000
01000000
00100000
00010000
00000000
00100000
00000000
00010000
01000000
00001000
00000000
00010000
00000000
01000000
00000000
,
00010000
00001000
00001000
00000100
00000010
00000010
00001010
00000000
,
00000001
00000000
00000100
00000010
00001000
00000000
00000010
00000000
00001000
00000100
00010000
00000000
00001000
00000000
00000100
00000000
,
00001000
00010000
00010000
01000000
00100000
00100000
00110000
00000000
,
10000000
00000000
00010000
01000000
00010000
00000000
00100000
00000000
01000000
00010000
00001000
00000000
00010000
00000000
00000010
00000000
,
00000100
00000010
00001000
00010000
01000000
10000000
01000000
00000000
,
00100000
00000000
10000000
01000000
00100000
00000000
00010000
00000000
01000000
00001000
00010000
00000000
00000010
00000000
00001000
00000000
,
00001100
00000000
00000000
00000110
00000000
00000000
00000011
00000000
,
00000000
00000000
00000000
00000000
00000000
00000000
00000000
00002002
00000000
00000000
00000000
00000000
00000000
00000000
00000000
00000000
,
00000000
00000000
00000000
00000000
,
00000000
00000000
00000000
00000000
,
00003003
00000000
00000000
00000000
,
00000000
00000000
00000000
00000000
;
