
//----- song ID: sais -----//
#TITLE:最小三倍完全数;
#ARTIST:DJ TECHNORCH;
#TITLETRANSLIT:Saishou sanbai kanzensuu;
#BANNER:Saishou sanbai kanzensuu.png;
#BACKGROUND:Saishou sanbai kanzensuu-bg.png;
#CDTITLE:./CDTitles/DDR A20.png;
#MUSIC:Saishou sanbai kanzensuu.ogg;
#SAMPLESTART:15.256;
#SAMPLELENGTH:15;
#DISPLAYBPM:55:440;
#BPMS:0=220,41=180,42=160,43=140,44=120,45=100,46=80,47=54.4,48=220,128=110,148=220,183=440,193=220,233=55,238=220,326=440;
#STOPS:326=6.273;
#NOTES:
     dance-single:
     :
     Beginner:
     5:
     :
0000
0000
0000
0000
,
0000
0000
0000
0000
,
0000
0000
0000
0000
,
0000
0000
0000
0000
,
0000
0000
0000
0000
,
0000
0000
0000
0000
,
0000
0000
0000
0000
,
0000
0000
0000
0000
,
0000
0000
0000
0000
,
0000
0000
0000
0000
,
0000
0000
0000
0000
,
0000
0000
0000
0000
,
0001
0000
0000
0001
,
0000
0001
0000
0000
,
0001
0000
0010
0000
,
0000
0010
0000
0010
,
0000
0000
0010
0000
,
1000
0000
0000
1000
,
0000
1000
0000
0000
,
1000
0000
0010
0000
,
0000
0010
0000
0100
,
0000
0000
0100
0000
,
0001
0000
0000
0001
,
0000
0010
0000
0000
,
0010
0000
1000
0000
,
0000
1000
0000
1001
,
0000
0000
0000
0000
,
0001
0000
0000
0010
,
0000
0010
0000
0000
,
0100
0000
0100
0000
,
0000
1000
0000
1000
,
0000
0000
0001
0000
,
1001
0000
0001
0001
,
0001
0000
0001
0000
,
1000
1000
1000
0000
,
0010
0010
0010
0000
,
0010
0000
0100
0100
,
0100
0000
0000
1000
,
0000
1000
0000
0000
,
0010
0000
0010
0000
,
0000
0001
0000
0001
,
0000
0000
0100
0000
,
0100
0000
0000
0001
,
0000
0001
0000
0000
,
0010
0000
0010
0000
,
0000
0000
0000
1001
,
0000
0000
0000
0000
,
0000
0000
0000
0000
,
0000
0000
0000
0000
,
0001
0000
0001
0000
,
0000
0010
0000
0010
,
0000
0000
0100
0000
,
0100
0000
0000
1000
,
0000
1000
0000
0000
,
0010
0000
0010
0000
,
0000
0100
0000
0100
,
0000
0000
0001
0000
,
0001
0000
0000
1000
,
0000
1001
0000
0000
,
0000
0000
0000
0000
,
0000
0001
0001
0001
,
0001
0000
0000
1000
,
1000
1000
1000
0000
,
0000
0001
0001
0001
,
0001
0000
0000
1000
,
1000
1000
1000
0000
,
0000
0010
0010
0010
,
0000
0000
0100
0100
,
0100
0000
0000
0010
,
0010
0010
0000
0000
,
0100
0100
0001
0000
,
0000
0010
0000
0000
,
1000
0000
0000
0100
,
0000
0000
0001
0000
,
0000
0010
0000
0000
,
1000
0000
0000
0100
,
0000
0000
0001
0000
,
0000
0100
0000
1000
,
0000
0000
0010
0000
,
0001
0000
0000
0100
,
0000
1000
0000
0000
,
0010
0000
1001
0000
,
0000
0000
0000
0000
,
0000
0000
0000
0000
,
0000
0000
0000
0000
,
1001
0000
0000
0000
,
0000
0000
0000
0000
;
#NOTES:
     dance-single:
     :
     Easy:
     11:
     :
0000
0000
0000
0000
,
0000
0000
0000
0000
,
0001
0100
0001
1000
,
0002
0000
1003
0000
,
0010
0100
0010
0001
,
0020
0000
0130
0000
,
1000
0001
1000
0100
,
2000
0000
3001
0000
,
0100
0010
0100
1000
,
0100
0000
0110
0000
,
2002
0000
0000
0000
,
0000
0000
0000
3003
,
0001
0000
0000
1000
0000
0000
0001
0000
,
0010
0000
0100
0000
0000
0010
0000
0000
,
0100
0000
1000
0000
0010
0000
0000
0010
,
0000
1000
0010
0100
,
0000
0001
0000
0000
0010
0000
0100
0000
,
0001
0000
0000
0001
0000
0000
1000
0000
,
0100
0000
0001
0000
0000
1000
0000
0000
,
0001
0000
0100
0000
1000
0000
0000
1000
,
0000
0001
0100
1000
,
0000
0001
0000
0000
1000
0000
0100
0000
,
0001
0000
0000
0001
0000
0000
0010
0000
,
0100
0000
1000
0000
0000
1000
0000
0000
,
0010
0000
0100
0000
0001
0000
0000
0001
,
0000
1000
0100
2002
,
0000
0000
0000
3003
,
0001
0010
0001
0100
,
0100
0010
1000
0010
,
0100
0100
0001
1000
,
0100
1000
1000
0100
,
0010
0001
1000
1000
,
0001
0001
1000
1000
,
0010
0100
0100
0010
,
0010
1000
0100
0010
,
0001
0100
0010
0100
,
0001
1000
0100
0100
,
0010
0001
0010
0001
,
0001
1000
0100
1000
,
0100
0100
0001
0100
,
0001
0100
0100
0010
,
1000
0010
1000
1000
,
0001
0010
0100
1000
,
0001
1000
0100
0010
,
0001
0001
1000
0010
,
0100
0001
1000
2002
,
0000
0000
0000
0000
,
0000
0000
0000
0000
,
0000
0000
3003
0000
0000
1000
0000
0000
,
0001
0000
0010
0000
0100
0000
0000
0100
,
0000
1000
0010
0100
,
0000
0100
0000
0000
0001
0000
0100
0000
,
0010
0000
0000
0010
0000
0000
1000
0000
,
0100
0000
0010
0000
0000
0010
0000
0000
,
0001
0000
0010
0000
1000
0000
0000
1000
,
0000
0001
0100
1000
,
0000
1000
0000
0000
1000
0000
0010
0000
,
0001
0000
0000
0001
0000
0000
1000
0000
,
0100
0001
0000
0000
,
0000
0000
0000
0000
1000
0000
0000
1000
,
0000
0100
0010
0100
,
0010
0000
0000
0010
0000
0000
0001
0000
,
0100
0000
0001
0000
0100
0000
0000
0100
,
0000
0001
1000
0001
,
1000
0000
0000
1000
0000
0000
0010
0000
,
1000
0000
0010
0000
1000
0000
0000
0001
,
0000
0100
0100
0001
,
0000
1000
0000
0000
0100
0000
0100
0000
,
1000
0000
0000
0001
0000
0000
0010
0000
,
0010
0000
0001
0000
0000
1000
0000
0000
,
0010
0010
1000
0100
,
1000
0010
0100
0001
,
0010
0001
0010
0100
,
1000
0001
1000
0000
0001
0000
0100
0000
,
0001
0010
0100
1000
,
0010
0100
0010
1000
,
0001
1000
0001
0000
1000
0000
0010
0000
,
1000
0100
0010
0001
,
0100
0001
0010
0100
,
1000
0100
0001
0100
,
1000
0001
0010
1000
,
0010
0001
1001
0000
,
0000
0000
0001
0010
,
0100
1000
0100
0010
,
0001
0000
1000
0000
,
1001
0000
0000
0000
,
0000
0000
0000
0000
;
#NOTES:
     dance-single:
     :
     Medium:
     14:
     :
0000
0000
0000
0000
,
0000
0000
0000
0000
,
0010
1000
0001
0200
,
0010
0000
0000
0010
0000
0000
0310
0000
,
0100
0001
1000
0020
,
0100
0000
0000
0100
0000
0000
0130
0000
,
0001
0010
0100
2000
,
0001
0000
0000
0001
0000
0000
3001
0000
,
1000
0001
0100
0010
,
1000
0000
0000
1000
0000
0000
1000
0000
,
2002
0000
0000
0000
,
0000
0000
0000
3003
,
0001
0010
0100
0000
0010
0001
1000
0000
,
0010
0000
0100
0001
1000
0000
0001
0100
,
0010
0000
1000
0000
0001
0100
0010
0000
,
0100
0010
1000
0000
0001
0000
0100
0010
,
1000
0000
0001
0010
0100
0000
1000
0000
,
0010
0100
0001
0000
0010
0100
0010
0000
,
0001
0000
1000
0010
0100
0000
1000
0100
,
0010
0000
0100
0000
0001
1000
0100
0000
,
0010
0001
0100
0000
0001
0000
1000
0001
,
0010
0000
0100
0001
0100
0000
0010
0000
,
0001
1000
0001
0100
0010
1000
0010
1000
,
0100
0000
0010
0001
1000
0001
0010
0100
,
1000
0000
0001
0000
0100
0000
0000
0000
0010
0000
0000
1000
0000
0000
0010
0000
,
0000
0100
0000
0000
0001
0000
0000
0100
0000
0000
0010
0000
1000
0000
0000
0000
,
0000
0001
0000
0000
0000
0000
1000
0000
0000
0000
0000
0001
0000
0000
0000
0000
,
1000
0100
1000
0100
0010
0001
0100
0001
,
0100
0000
0001
0100
0001
0100
0010
1000
,
0100
1000
0100
0000
1000
0010
1000
0010
,
0100
0001
0010
0100
0010
0000
0001
0100
,
0001
0100
0010
1000
0100
0010
0100
0000
,
0110
0000
0001
0000
1000
0000
0001
0000
0100
0010
0100
0010
1000
0010
1000
0000
,
0001
0010
0001
0000
1000
0000
0010
0000
1000
0100
0010
0001
1000
0010
1000
0000
,
0001
0100
0010
0000
1000
0100
0010
0000
0001
0000
0100
0000
0010
1000
0010
1000
,
0001
1000
0001
0000
0100
0010
0100
0000
0010
0100
0010
0000
0100
0000
0001
0000
,
0010
0100
1000
0001
1000
0100
0010
0000
0001
0100
0001
0000
1000
0100
1000
0000
,
1001
0000
0001
0010
0001
0100
0010
1000
,
0100
0010
0100
0001
0100
0010
0001
1000
,
0010
0100
0010
1000
0001
0100
0010
0100
,
0010
1000
0100
0010
0001
0100
0010
0001
,
0010
0100
0010
1000
0001
0100
0001
1000
,
0100
1000
0010
0100
0001
0010
0001
0100
,
0001
0010
0100
1000
0001
0100
0010
0001
,
0010
0100
0001
0010
0100
1000
0001
0010
,
0100
0001
0100
0010
0001
0000
2002
0000
,
0000
0000
0000
0000
,
0000
0000
0000
3003
,
0000
0000
1000
0001
1000
0010
0100
0001
,
0010
0100
1000
0000
0001
0100
0010
1000
,
0100
0010
0100
1000
0010
0000
0100
0001
,
0010
0001
1000
0010
1000
0100
0010
0000
,
0001
0100
0010
1000
0100
0010
0001
1000
,
0100
0000
1000
0100
0001
0100
0010
0001
,
0100
0010
1000
0000
0001
0100
1000
0100
,
0010
1000
0100
0010
0001
0000
1000
0100
,
1000
0100
0001
0100
1000
0010
0001
1000
,
0100
0010
1000
0100
0010
1000
0001
0100
,
0010
0001
0200
0000
0000
0000
0000
0300
,
0000
0000
0000
0000
1010
0000
0000
0101
,
0000
0000
1100
0000
0110
0000
0001
0100
,
1000
0000
0000
1100
0000
0000
0110
0000
,
1001
0000
0010
0100
0001
0000
0000
0011
,
0000
0000
0110
0000
1100
0000
0010
1000
,
0100
0000
0000
0110
0000
0000
0011
0000
,
1010
0000
0001
1000
0100
0000
0000
0110
,
0000
0000
0011
0000
0001
0100
0010
0000
,
0000
0110
0000
0000
1001
0000
0100
0001
,
0010
0000
0000
0011
0000
0000
1100
0000
,
0010
0100
0001
0000
0000
1001
0000
0000
,
0010
0000
0110
0000
1000
0100
0010
0001
,
0100
0010
1000
0001
0100
0001
0100
0001
,
0010
0100
1000
0010
0100
0010
1000
0100
,
0010
0001
0100
0010
0100
1000
0001
0010
,
0100
0010
1000
0001
0100
0010
1000
0100
,
0010
0001
0010
0100
0010
1000
0001
0100
,
0010
0001
1001
0000
0010
0100
0010
1000
,
0100
1000
0010
0100
0001
0010
0100
0010
,
0100
0001
1000
0010
0001
1000
0100
0010
,
0100
1000
0010
0100
0001
0010
0100
1000
,
0001
1000
0100
0010
0100
0001
1000
0010
,
0100
1000
0010
0000
1001
0000
0000
0000
,
0010
0000
0001
0000
1000
0001
1000
0000
,
0010
0000
1000
0000
0100
0010
0100
0000
,
1000
0000
0010
0000
,
1001
0000
0000
0000
,
0000
0000
0000
0000
;
#NOTES:
     dance-single:
     :
     Hard:
     17:
     :
0000
0000
0000
0000
,
0000
0000
0000
0000
,
0001
1000
0001
0000
1000
0001
1000
0000
,
0010
0100
0000
0100
0010
0000
0010
0000
,
1000
0001
1000
0000
0001
1000
0001
0000
,
0010
0100
0000
0100
0010
0000
0010
0000
,
0001
0010
0001
0000
1000
0100
1000
0000
,
0010
0100
0000
0100
0001
0000
0001
0000
,
1000
0010
1000
0000
0001
0100
0001
0000
,
0010
0100
0000
0100
1000
0000
1000
0000
,
2002
0000
0000
0000
,
0000
0000
0000
3003
,
0001
0010
0001
0100
0010
0100
0010
0000
,
0110
0000
0010
1000
0010
1000
0100
1000
,
0100
0000
0110
0000
0010
0001
0010
0001
,
1000
0001
1000
0000
1001
0000
0100
0001
,
0100
0001
1000
0001
1000
0000
1001
0000
,
0001
0000
1000
0100
1000
0000
0001
0000
1000
0100
1000
0000
0001
0000
0000
0000
,
1001
0000
0000
0000
0010
0000
0100
0001
0100
0000
0010
0000
0100
0001
0100
0000
,
0010
0000
0000
0000
0110
0000
0000
0000
1000
0000
0001
0010
0001
0000
1000
0000
,
0001
0010
0001
0000
1000
0000
0000
0000
1001
0000
0000
0000
0100
0000
0010
1000
,
0010
0000
0100
0000
0010
1000
0010
0000
0100
0000
0000
0000
0110
0000
0000
0000
,
0100
0000
1000
0001
1000
0000
0010
0000
1000
0001
1000
0000
0100
0000
0000
0000
,
0110
0000
0000
0000
1000
0000
0010
0100
0010
0000
1000
0000
0100
0010
0100
0000
,
1000
0000
0000
0000
1001
0000
0000
0000
0001
0000
0000
0010
0000
0000
0100
0000
,
0000
1000
0000
0000
0100
0000
0000
0010
0000
0000
0001
0000
1000
0000
0000
0000
,
0000
0010
0000
0000
0000
0000
0100
0000
0000
0000
0000
0001
0000
0000
0000
0000
,
0100
0000
0010
1000
0010
0000
0100
0000
0001
0000
0010
0000
0100
1000
0100
1000
,
0100
0000
0000
0000
1000
0000
0010
0100
0010
0000
1000
0000
0001
0000
0010
0000
,
0001
1000
0001
1000
0001
0000
0000
0000
0100
0000
0010
1000
0010
0000
0100
0000
,
0001
0000
1000
0000
0001
0100
0001
0100
0001
0000
0000
0000
0010
0000
0100
0010
,
0100
0000
0010
0000
0001
0000
0100
0000
0010
1000
0010
1000
0010
0000
0000
0000
,
1000
0000
0100
0000
0001
0000
0000
0000
0001
0000
0100
0000
0010
0000
0001
0000
1000
0000
0001
1000
0001
0000
0000
0000
0100
0000
0010
0000
1000
0000
0010
0000
,
0100
0000
0001
0000
0100
0000
0001
0000
1000
0000
0100
0000
0010
0000
0000
0000
0001
0000
1000
0000
0100
0000
1000
0000
0010
0100
0010
0000
1000
0000
0100
0000
,
0010
0001
0010
0001
0010
0000
0100
0010
0001
0010
0100
0000
1000
0010
0001
0010
,
1000
0000
0100
0010
0100
0000
0000
0000
0001
0000
0100
0000
0001
0000
0100
0000
1000
0000
0010
0000
1000
0000
0010
0000
0100
0000
0010
0000
1000
0000
0000
0000
,
0100
0000
0001
0000
0100
0000
0010
0000
0200
0000
0000
0000
0300
0000
1000
0000
0001
0000
0010
0000
0100
0000
1000
0000
0001
0010
0001
0010
0100
1000
0100
1000
,
0001
0100
0001
0010
0100
1000
0010
1000
,
1010
0000
1000
0001
0100
0001
0010
0100
,
1000
0010
1010
0000
0100
0010
0001
1000
,
0100
0010
0001
0010
0011
0000
0010
0100
,
0010
0100
1000
0010
0100
0001
0101
0000
,
0001
0100
0001
0100
0001
0000
1000
0001
1000
0001
1000
0000
0100
0000
0010
0000
,
0110
0000
0000
0000
0100
1000
0100
1000
0100
0000
1000
0010
1000
0010
1000
0000
,
0001
0000
1000
0000
1001
0000
0000
0000
0001
0010
0001
0010
0001
0000
0100
0010
,
0100
0010
0100
0000
0001
0000
0010
0000
0011
0000
0000
0000
2002
0000
0000
0000
,
0000
0000
0000
0000
,
0000
0000
0000
3003
,
0000
0000
0001
1000
0001
1000
0100
0010
,
0001
0010
0100
1000
0001
0000
1000
0100
1000
0000
0010
0000
1000
0000
0001
0000
,
0100
0000
0001
0000
1000
0010
0100
0001
1000
0000
0001
0100
0001
0000
1000
0000
,
0100
0000
1000
0000
0001
0000
0010
0000
0001
0010
0100
0010
0001
0000
1000
0100
,
0010
0000
0001
0000
1000
0000
0001
0000
0100
0000
0010
0000
1000
0010
0100
0010
,
1000
0000
0001
0100
0010
0000
1000
0000
0010
0000
0100
0000
0001
0000
0010
0000
,
0100
0001
1000
0010
0100
1000
0001
0100
,
1000
0001
0010
1000
0001
0010
0100
0010
,
0001
1000
0010
1000
0010
1000
0001
0010
,
0001
1000
0100
1000
0001
0010
0001
0010
0100
1000
0001
0010
0001
1000
0100
0010
,
0001
1000
0100
0010
0002
0000
0000
0000
0000
0000
0000
0000
0000
0000
0003
0000
,
0000
0000
0000
0000
0001
1000
0001
1000
,
0010
1000
0100
0010
0001
1000
1001
0000
,
0010
0100
0010
0100
0001
0100
0010
1000
,
0100
0010
0110
0000
0010
0001
0010
0100
,
1000
0100
0010
0001
0100
0010
1010
0000
,
1000
0010
1000
0001
0100
0001
0010
0100
,
1000
0001
0011
0000
0001
0100
0010
1000
,
0100
0010
0001
0100
0110
0000
0010
1000
,
0001
0100
0001
0010
0100
1000
1001
0000
,
0100
0001
0010
0001
0100
0010
1000
0100
,
1100
0000
0010
0001
1000
0010
0100
0001
,
0010
0000
0001
0000
0101
0000
0000
0000
0001
0000
0100
0010
1000
0000
0100
0000
,
0010
0100
1000
0000
0001
1000
0001
1000
0001
0000
0010
0000
0100
0000
0000
0000
,
1000
0000
0001
0010
0100
0000
1000
0000
0001
0100
0010
0000
1000
0001
1000
0001
,
1000
0000
0001
0000
0100
0000
0000
0000
0001
0000
1000
0010
1000
0000
0001
0000
,
0100
0010
0100
0000
0001
1000
0100
0010
0001
0000
1000
0000
0001
0000
0000
0000
,
1000
0000
0001
0010
0001
0000
0100
0000
0010
1000
0010
0000
0100
0001
1000
0010
,
0100
0000
0001
0000
1000
0000
0000
0000
0001
0000
1000
0010
0100
0000
0001
0000
,
0010
0100
1000
0000
0001
0100
0001
1000
0010
0000
0000
0000
1000
0000
0001
0010
,
0100
0000
0010
0000
0001
1000
0010
0000
0100
0001
1000
0100
0010
0000
0000
0000
,
0001
0000
1000
0010
0100
0000
0001
0000
0100
0010
0100
0000
0001
1000
0100
1000
,
0001
0000
0000
1000
0010
1000
0001
0100
0010
1000
0001
0100
,
0010
0000
1000
0000
0010
0000
0100
0000
0010
0000
1000
0000
0100
0000
0010
0000
0002
0003
0000
0000
0000
0000
0000
0000
0000
0000
0000
0000
0000
0000
0000
0000
,
1000
0001
2000
0000
3001
0010
0100
1000
,
0010
0100
0001
0100
0001
0010
0100
1000
,
0001
0100
0010
1000
0100
0010
,
1001
0000
0000
0000
,
0000
0000
0000
0000
;
#NOTES:
     dance-double:
     :
     Easy:
     11:
     :
00000000
00000000
00000000
00000000
,
00000000
00000000
00000000
00000000
,
10000000
01000000
10000000
01000000
,
00200000
00000000
00310000
00000000
,
00100000
00001000
00010000
00001000
,
00020000
00000000
00031000
00000000
,
00000100
00001000
00000100
00001000
,
00000020
00000000
00000130
00000000
,
00000001
00000010
00000001
00000010
,
00000100
00001000
00010000
00000000
,
00011000
00000000
00000000
00000000
,
00000000
00000000
00000000
00000000
,
10000000
00000000
00000000
00100000
00000000
00000000
10000000
00000000
,
01000000
00000000
00100000
00000000
00000000
00001000
00000000
00000000
,
01000000
00000000
00010000
00000000
00100000
00000000
00000000
00001000
,
00000000
00010000
00000010
00000100
,
00000000
00000001
00000000
00000000
00000020
00000000
00000030
00000000
,
00000001
00000000
00000000
00000010
00000000
00000000
00000001
00000000
,
00000100
00000000
00000010
00000000
00000000
00010000
00000000
00000000
,
00000100
00000000
00001000
00000000
00000010
00000000
00000000
00010000
,
00000000
00001000
00100000
01000000
,
00000000
10000000
00000000
00000000
00200000
00000000
00300000
00000000
,
10000000
00000000
00000000
01000000
00000000
00000000
00010000
00000000
,
01000000
00000000
00100000
00000000
00000000
00001000
00000000
00000000
,
00010000
00000000
00001000
00000000
00010000
00000000
00000000
00000010
,
00000000
00000100
00000001
00002002
,
00000000
00000000
00000000
00003003
,
00000001
00000010
00000010
00001000
,
00001000
00000010
00000100
00000100
,
00001000
00001000
00010000
00100000
,
00100000
01000000
01000000
00010000
,
10000000
10000000
01000000
01000000
,
10000000
01000000
10000000
00000000
00100000
00000000
01000000
00000000
,
00001000
00000000
00010000
00001000
00010000
00000000
00000100
00000000
,
00000010
00000000
00000001
00000000
00000100
00000010
00000100
00000000
,
00001000
00000000
00010000
00000000
00000100
00000000
00010000
00001000
,
00010000
00100000
10000000
00010000
,
10000000
00100000
01000000
00010000
,
10000000
00100000
01000000
00001000
,
00010000
00000100
00010000
00001000
,
00000010
00000001
00001000
00000100
,
00000010
00000001
00001000
00000010
,
00000100
00001000
00010000
00001000
,
00010000
00100000
10000000
00010000
,
10000000
01000000
00010000
00001000
,
00000010
00001000
00010000
00022000
,
00000000
00000000
00000000
00000000
,
00000000
00000000
00000000
00000000
,
00000000
00000000
00033000
00000000
00000000
00001000
00000000
00000000
,
00000010
00000000
00000001
00000000
00000010
00000000
00000000
00000010
,
00000000
00001000
00010000
00001000
,
00000000
00001000
00000000
00000000
00010000
00000000
00100000
00000000
,
00010000
00000000
00000000
00010000
00000000
00000000
00001000
00000000
,
00010000
00000000
00001000
00000000
00000000
00001000
00000000
00000000
,
00000100
00000000
00001000
00000000
00010000
00000000
00000000
00010000
,
00000000
01000000
00010000
00001000
,
00000010
00000001
00001000
00000010
,
00000001
00001000
00000100
00000010
,
00010000
00011000
00000000
00000000
,
00000000
00000000
00000000
00000000
10000000
00000000
00000000
01000000
,
00000000
00100000
00010000
00100000
,
00001000
00000000
00000000
00010000
00000000
00000000
00001000
00000000
,
00000100
00000000
00001000
00000000
00000100
00000000
00000000
00000001
,
00000000
00000010
00000100
00000010
,
00000100
00000000
00000000
00010000
00000000
00000000
00001000
00000000
,
00010000
00000000
00001000
00000000
00010000
00000000
00000000
01000000
,
00000000
10000000
00100000
10000000
,
00000000
00010000
00000000
00000000
00100000
00000000
00001000
00000000
,
00010000
00000000
00000000
00001000
00000000
00000000
00000100
00000000
,
00000001
00000000
00000100
00000000
00000000
00000010
00000000
00000000
,
00001000
00000001
00000010
00000100
,
00001000
00000000
00000100
00000000
00010000
00001000
00010000
00000000
,
00001000
00100000
01000000
10000000
,
00010000
10000000
00010000
00000000
01000000
00000000
00100000
00000000
,
10000000
00000000
00010000
00000000
01000000
00100000
01000000
00000000
,
00100000
00010000
00001000
00000100
,
00000010
00000100
00000010
00000000
00001000
00000000
00000001
00000000
,
00000010
00000100
00001000
00000000
00000100
00000000
00010000
00000000
,
00001000
00000000
00100000
01000000
10000000
00000000
10010000
00000000
,
01000000
00000000
00100000
00000000
01000000
00001000
00010000
00000000
,
00001000
00010000
00000100
00000010
,
00000001
00001000
00000100
00000000
00000110
00000000
00000000
00000000
,
00000000
00000000
00000001
00000100
,
00000010
00010000
00001000
01000000
,
00100000
00000000
10000000
00000000
,
10010000
00000000
00000000
00000000
,
00000000
00000000
00000000
00000000
;
#NOTES:
     dance-double:
     :
     Medium:
     15:
     :
00000000
00000000
00000000
00000000
,
00000000
00000000
00000000
00000000
,
00000001
00000100
00001000
00000100
,
00000010
00000000
00000000
00000010
00000000
00000000
00000010
00000000
,
00010000
00001000
00010000
01000000
,
10000000
00000000
00000000
10000000
00000000
00000000
10000000
00000000
,
00100000
00010000
00100000
10000000
,
01000000
00000000
00000000
01000000
00000000
00000000
01000000
00000000
,
00010000
00001000
00000010
00000001
,
00000100
00000000
00000000
00000100
00000000
00000000
00000100
00000000
,
00000220
00000000
00000000
00000000
,
00000000
00000000
00000000
00000330
,
00000010
00001000
00000100
00000000
00010000
00001000
00010000
00000000
,
00001000
00000000
00100000
00010000
10000000
00000000
00100000
01000000
,
00010000
00000000
10000000
00000000
01000000
00100000
00001000
00000000
,
00010000
00000100
00000010
00000000
00000001
00000000
00001000
00000010
,
00000100
00000000
00001000
00010000
00100000
00000000
01000000
00000000
,
10000000
01000000
00010000
00000000
00100000
01000000
00010000
00000000
,
00001000
00000000
00000010
00000001
00000100
00000000
00001000
00000100
,
00000010
00000000
00001000
00000000
00010000
01000000
00100000
00000000
,
10000000
00010000
00100000
00000000
00001000
00000000
00000010
00000100
,
00000001
00000000
00001000
00000010
00000001
00000000
00000100
00000000
,
00010000
00001000
00010000
00000000
01000000
00100000
01000000
00000000
,
10000000
00000000
00010000
00100000
00010000
00000000
00001000
00000100
,
00001000
00000000
00000100
00000000
00000010
00001000
00000001
00000010
,
00000100
00001000
00010000
00100000
01000000
00000000
10000000
00000000
,
00000000
00100000
00000000
00000000
00000000
00000000
00001000
00000000
00000000
00000000
00000000
00000010
00000000
00000000
00000000
00000000
,
00000001
00000010
00010000
00000000
00001000
00100000
10000000
00010000
,
01000000
00000000
10000000
00010000
01000000
00000000
00001000
00000100
,
00000001
00000010
00000100
00000000
00000001
00000100
00010000
00000000
,
00001000
01000000
00100000
10000000
01000000
00000000
10000000
01000000
,
00001000
00000000
00010000
00000010
00000001
00001000
00000100
00000000
,
00000001
00000000
00000100
00000000
00000110
00000000
00000001
00001000
00000000
00001000
00000100
00000000
00010000
00001000
00010000
00000000
,
00100000
00000000
10000000
00000000
00010000
00000000
01000000
00000000
01100000
00000000
10000000
00100000
00000000
00100000
01000000
00000000
,
00001000
00000000
00010000
00000000
00000010
00000000
00000010
00000000
00000100
00000000
00000001
00000000
00001001
00000000
00000100
00000010
,
00000000
00000010
00010000
00000000
00001000
00100000
00001000
00000000
01000000
00000000
10000000
00000000
00010000
00000000
00100000
00000000
,
01100000
00000000
10000000
01000000
00000000
00100000
00010000
00000000
00001000
00000100
00000010
00000000
00000001
00000000
00001000
00000000
,
00000001
00000100
00000010
00010000
00001000
00000100
00000010
00010000
,
00001000
00000000
00010000
00000010
00010000
00001000
01000000
00100000
,
10000000
00100000
01000000
00000000
00010000
10000000
01000000
00100000
,
00001000
00010000
01000000
00100000
00001000
00000000
00010000
00001000
,
00100000
00001000
00010000
00000100
00000010
00000001
00000010
00000000
,
00000001
00000100
00000010
00010000
00001000
00100000
00010000
10000000
,
01000000
00000000
10000000
00100000
01000000
00001000
00010000
00000010
,
00000100
00000001
00000010
00000000
00000001
00000100
00001000
00010000
,
00100000
01000000
00010000
00100000
01000000
00010000
00002000
00000000
,
00000000
00000000
00000000
00000000
,
00000000
00000000
00000000
00003000
,
00000000
00000000
00010000
00000000
01000000
10000000
00000000
00100000
,
00010000
00000000
00011000
00000000
00001000
00000000
00000100
00000001
,
00000000
00000010
00001000
00000000
00011000
00000000
00010000
00000000
,
00100000
10000000
00000000
01000000
00010000
00000000
00011000
00000000
,
00001000
00000000
00000010
00000001
00000000
00000100
00001000
00000000
,
00011000
00000000
00010000
00000000
00100000
10000000
00000000
01000000
,
00001000
00000000
00011000
00000000
00001000
00000000
00000010
00000001
,
00000000
00000100
00010000
00000000
00011000
00000000
00001000
00100000
,
00010000
01000000
00001000
00100000
00010000
01000000
00001000
00000000
,
00010000
00000010
00001000
00000100
00010000
00000010
00001000
00000100
,
00010000
00001000
00020000
00000000
00000000
00000000
00000000
00030000
,
00000000
00000000
00000000
00000000
10010000
00000000
00000000
01100000
,
00000000
00100000
00001000
00000100
,
00000110
00000000
00000000
00001001
00000000
00000000
00000010
00000000
,
00010000
00000000
00100000
00000000
01100000
00000000
00000000
10100000
,
00000000
10000000
00010000
00001000
,
00001010
00000000
00000000
00000101
00000000
00000000
00000001
00000000
,
00001000
00000000
00010000
00000000
00110000
00000000
00000000
11000000
,
00000000
00010000
00001000
00000110
,
00000000
00000011
00000000
00000000
00001000
00000000
00010000
00000000
,
01100000
00000000
00000000
10100000
00000000
00000000
00010000
00000000
,
00001000
00000000
00000110
00000000
00000000
00000101
00000000
00000000
,
00000010
00000000
00000100
00000000
00000001
00000100
00001000
00000000
,
00010000
00001000
00000010
00000000
00010000
00100000
10000000
00000000
,
10000000
01000000
00010000
00000000
00001000
00010000
00100000
00000000
,
00001000
00000010
00000001
00000000
00000001
00000010
00001000
00000000
,
00010000
00001000
00000100
00000000
00010000
01000000
10000000
00000000
,
10000000
00100000
00010000
00000000
00001000
00010000
01000000
00000000
,
00001000
00000100
00000001
00000000
00000001
00000100
00001000
01000000
,
00010000
10000000
00100000
00000000
10010000
00000000
10000000
01000000
,
00010000
00000100
00001000
00000001
00000010
00000000
00001001
00000000
,
00000001
00000010
00000100
00000010
00000100
00001000
00000100
00001000
,
00010000
00010000
00001000
00010000
00100000
00010000
00100000
01000000
,
00100000
01000000
10000000
01000000
10000000
00000000
00000000
00000000
,
00000000
00000000
00000000
00000000
00000001
00000010
00000001
00000000
,
00001000
00000000
00000100
00000000
00010000
00001000
00010000
00000000
,
00001000
00000000
01000000
00010000
,
10000000
00000000
00000000
00000000
,
00000000
00000000
00000000
00000000
;
#NOTES:
     dance-double:
     :
     Hard:
     17:
     :
00000000
00000000
00000000
00000000
,
00000000
00000000
00000000
00000000
,
00000001
00000100
00000010
00000000
00001000
00000100
00000010
00000000
,
00000110
00000000
00000000
00010100
00000000
00000000
00011000
00000000
,
00001000
00100000
01000000
00000000
00010000
01000000
10000000
00000000
,
10100000
00000000
00000000
01100000
00000000
00000000
01010000
00000000
,
00100000
01000000
00001000
00000000
00010000
00000100
00001000
00000000
,
00001100
00000000
00000000
00000110
00000000
00000000
00000011
00000000
,
00001000
00000100
00000010
00000000
00000001
00001000
00000100
00000000
,
00001100
00000000
00000000
00011000
00000000
00000000
00110000
00000000
,
10010000
00000000
00000000
00000000
,
00000000
00000000
00000000
00000000
,
00000001
00000100
00000001
00000010
00000100
00001000
00000010
00000000
,
00000110
00000000
00000100
00001000
00000100
00001000
00010000
00100000
,
00010000
00000000
00011000
00000000
00010000
01000000
00100000
00010000
,
01000000
00100000
10000000
00000000
10100000
00000000
10000000
01000000
,
00010000
00001000
00100000
00001000
00010000
00000000
00011000
00000000
,
00000100
00010000
00000100
00001000
00000001
00000010
00000100
00000000
,
00000110
00000000
00000010
00001000
00000010
00001000
00010000
00001000
,
00000100
00000000
00001100
00000000
00001000
00010000
00100000
00010000
,
00001000
00010000
01000000
00000000
01100000
00000000
10000000
00100000
,
01000000
00100000
01000000
00010000
00100000
00000000
01100000
00000000
,
01000000
00000000
10000000
00010000
10000000
00000000
00100000
00000000
01000000
00001000
01000000
00000000
00001000
00000000
00010000
00000000
,
00000100
00000000
00000010
00000000
00000001
00000000
00001000
00000010
00001000
00000000
00000100
00000000
00000010
00000001
00000010
00000000
,
00000001
00000000
00001000
00000000
00000010
00000000
00000100
00000000
00000001
00000000
00000000
00000100
00000000
00000000
00001000
00000000
,
00000000
00010000
00000000
00000000
00100000
00000000
00000000
10000000
00000000
00000000
00000000
00000000
10000000
00000000
00000000
00000000
,
00000000
01100000
00000000
00000000
00000000
00000000
00001000
00000000
00000000
00000000
00000000
00000110
00000000
00000000
00000000
00000000
,
00000001
00000000
00001000
00000100
00001000
00000000
00000010
00000000
00000100
00000010
00000100
00000000
00000010
00000000
00001000
00000000
,
00000010
00000000
00010000
00000000
00001000
00000000
00100000
00010000
00100000
00000000
00001000
00000000
01000000
00010000
01000000
00000000
,
00010000
00000000
00100000
00000000
01000000
00000000
10000000
00000000
00100000
00000000
01000000
00010000
01000000
00000000
00010000
00000000
,
10000000
01000000
10000000
00000000
01000000
00000000
00100000
00000000
00001000
00000000
00010000
00000000
00000100
00000000
00001000
00000100
,
00001000
00000000
00000010
00000000
00010000
00001000
00010000
00000000
00000100
00000000
00000010
00000000
00000001
00000000
00001000
00000000
,
00000001
00000000
00000000
00000000
00000110
00000000
00000000
00000000
00010000
00000000
00001000
00000000
00100000
00000000
00010000
00000000
10000000
00000000
00100000
01000000
00100000
00000000
00000000
00000000
10000000
00000000
01000000
00000000
10000000
00000000
01000000
00000000
,
00100000
00000000
00010000
00000000
01000000
00000000
00001000
00000000
00100000
00000000
00000000
00000000
01100000
00000000
00000000
00000000
00010000
00000000
10000000
00000000
00100000
00000000
00010000
00000000
00001000
00010000
00001000
00000000
00010000
00000000
00001000
00000000
,
00000010
00000001
00000010
00000001
00000100
00000000
00000100
00000010
00000100
00000000
00001001
00000000
00000001
00001000
00000100
00001000
,
00000100
00000000
00010000
00001000
00010000
00000000
00000000
00000000
00001000
00000000
01000000
00000000
00010000
00000000
01000000
00000000
00100000
00000000
10000000
00000000
00100000
00000000
01000000
00000000
00010000
00000000
00000000
00000000
10010000
00000000
00000000
00000000
,
10000000
00000000
01000000
00000000
00100000
00000000
00001000
00000000
00020000
00000000
00000000
00000000
00030000
00000000
00001000
00000000
00000010
00000000
00000001
00000000
00001000
00000000
00000100
00000000
00000010
00000001
00000010
00000001
00001000
00000100
00001000
00000100
,
00000010
00000001
00000100
00001000
00000100
00000010
00010000
00001000
,
00100000
00001000
00010000
00001000
00010000
01000000
00100000
00001000
,
01000000
00100000
00010000
00100000
01000000
00100000
10000000
01000000
,
00010000
01000000
00100000
00001000
00010000
00100000
00010000
00100000
,
00010000
00001000
00000100
00000001
00000010
00000100
00000010
00000000
,
00000001
00000010
00000001
00000010
00000001
00000000
00001000
00000100
00001000
00000100
00001000
00000000
00000100
00000000
00010000
00000000
,
00001000
00000000
00100000
00000000
00010000
00100000
00010000
00100000
00010000
00000000
10000000
01000000
10000000
01000000
10000000
00000000
,
00100000
00000000
01000000
00000000
00001000
00000000
00010000
00000000
00001000
00010000
00001000
00010000
00001000
00000000
00010000
00001000
,
00010000
00001000
00010000
00000000
00001000
00000000
00000100
00000000
00000001
00000000
00000000
00000000
00002002
00000000
00000000
00000000
,
00000000
00000000
00000000
00000000
,
00000000
00000000
00000000
00003003
,
00000000
00000000
00000001
00001000
00000001
00000100
00000010
00000100
,
00000010
00010000
00000010
00010000
00001000
00000000
00010000
00000100
00001000
00000000
00000100
00000000
00010000
00000000
00001000
00000000
,
00100000
00000000
00010000
00000000
00100000
01000000
00100000
01000000
10000000
00000000
00010000
10000000
01000000
00000000
00100000
00000000
,
00010000
00000000
10000000
00000000
00100000
00000000
01000000
00000000
00010000
01000000
00010000
01000000
00001000
00000000
00100000
00001000
,
00010000
00000000
00000010
00000000
00001000
00000000
00000100
00000000
00001000
00000000
00000001
00000000
00000100
00000010
00000100
00000010
,
00001000
00000000
00000100
00010000
00001000
00000000
00010000
00000000
00001000
00000000
01000000
00000000
00010000
00000000
01000000
00000000
,
00100000
10000000
01000000
00010000
01000000
00100000
00001000
00010000
,
00001000
00000100
00000010
00001000
00000100
00000001
00001000
00000010
,
00000001
00000100
00000010
00000100
00001000
00010000
00001000
00100000
,
00010000
00100000
00010000
00100000
00010000
00100000
00001000
01000000
00001000
01000000
00001000
01000000
00001000
00010000
00001000
00010000
,
00000010
00001000
00000010
00001000
00000010
00000000
00000000
00000000
00000000
00000000
00000000
00000000
00000000
00000000
00000000
00000000
,
00000000
00000000
00000000
00000000
10000000
00100000
01000000
00010000
,
00100000
00010000
10000000
00100000
00010000
00001000
00000100
00000000
,
00000001
00000010
00000100
00001000
00000010
00001000
00000001
00000100
,
00001000
00010000
00100000
00000000
10000000
00100000
00010000
00100000
,
01000000
00001000
00010000
00000100
00001000
00000100
00000010
00000000
,
00000001
00000010
00001000
00000010
00000100
00010000
00001000
01000000
,
00010000
01000000
00100000
00000000
10000000
01000000
00100000
00001000
,
00010000
00000100
00001000
00000010
00000100
00000000
00000001
00000100
,
00000010
00010000
00001000
01000000
00010000
00100000
01000000
00000000
,
10000000
00100000
00010000
00001000
00100000
00010000
00001000
00000100
,
00000010
00000000
00000001
00000010
00001000
00010000
00000010
00001000
,
00010000
00000000
01000000
00000000
00100000
00000000
00000000
00000000
00010000
00000000
10000000
01000000
10000000
00000000
00100000
00000000
,
01000000
00010000
10000000
00000000
01000000
00100000
01000000
00100000
00010000
00000000
00100000
00000000
00001000
00000000
00000000
00000000
,
00010000
00000000
00000100
00001000
00000100
00000000
00001000
00000000
00000001
00000010
00000100
00000000
00001000
00000001
00001000
00000001
,
00000100
00000000
00000001
00000000
00000010
00000000
00000000
00000000
00000001
00000000
00000100
00000010
00000100
00000000
00000010
00000000
,
00010000
00001000
00010000
00000000
00001000
00100000
00001000
00100000
00010000
00000000
01000000
00000000
00100000
00000000
00000000
00000000
,
10000000
00000000
00100000
01000000
00100000
00000000
01000000
00000000
00001000
00010000
00001000
00000000
00010000
00000100
00010000
00000100
,
00001000
00000000
00000010
00000000
00001000
00000000
00000000
00000000
00000001
00000000
00000010
00000100
00001000
00000000
00000001
00000000
,
00000100
00000010
00001000
00000000
00000100
00010000
00000100
00010000
00001000
00000000
00010000
00000000
00001000
00000000
01000000
00010000
,
10000000
00000000
00100000
00000000
10000000
01000000
00100000
00000000
00010000
10000000
00010000
10000000
01000000
00000000
00100000
00000000
,
00001000
00000000
00010000
00000100
00001000
00000000
00000001
00000000
00001000
00000100
00000010
00000000
00000001
00001000
00000001
00001000
,
00000001
00000000
00000000
00000001
00000010
00000100
00001000
00000010
00010000
00001000
01000000
00100000
,
10000000
00000000
01000000
00000000
10000000
00000000
01000000
00000000
00100000
00000000
00001000
00000000
00100000
00000000
00001000
00000000
00020000
00030000
00000000
00000000
00000000
00000000
00000000
00000000
00000000
00000000
00000000
00000000
00000000
00000000
00000000
00000000
,
00000000
00000000
00000000
00000000
00001000
00010000
00001000
00010000
,
00000010
00001000
00000010
00001000
00000001
00000010
00000001
00000010
,
00000001
00001000
00000010
00010000
00001000
00010000
,
00011000
00000000
00000000
00000000
,
00000000
00000000
00000000
00000000
;
