
//----- song ID: swho -----//
#TITLE:SWEET HOME PARTY;
#ARTIST:劇団レコード;
#ARTISTTRANSLIT:Gekidan Record;
#BANNER:SWEET HOME PARTY.png;
#BACKGROUND:SWEET HOME PARTY-bg.png;
#CDTITLE:./CDTitles/jubeat prop.png;
#MUSIC:SWEET HOME PARTY.ogg;
#SAMPLESTART:60.083;
#SAMPLELENGTH:15;
#DISPLAYBPM:134:180;
#BPMS:0=134,127=110,128.333=100,131=134,149=144,151=150,153=154,155=160,157=164,161=174,165=180,168.938=178.6,169=70,170=80,171=95,172=100,173=115,175=120,177=134,179=140,181=144,183=150,185=154,187=158;
#STOPS:168.938=0.999;
#NOTES:
     dance-single:
     :
     Beginner:
     5:
     :
0000
0000
0000
0000
,
0000
0000
0000
0000
,
0000
0000
0000
0000
,
0000
0000
0000
0000
,
0000
0000
0000
0000
,
0000
0001
0001
0001
,
0000
1000
1000
1000
,
0000
0001
0001
0001
,
0000
1000
1000
1000
,
0000
0020
0000
0000
,
0000
0030
0000
0000
,
0000
1000
0000
0100
,
0000
1000
1000
1000
,
0000
0001
0000
0010
,
0000
0001
0001
0001
,
0000
1001
0000
0010
,
0000
1001
0000
0010
,
0000
0001
0000
0100
,
0000
2000
0000
0000
,
0000
3000
0000
1000
,
1000
1000
0000
0010
,
0010
0010
0000
0100
,
0100
0100
0000
0001
,
0000
0001
0010
0001
,
0000
0100
0000
1000
,
0000
1000
0010
1000
,
0000
0100
0000
0001
,
0000
1001
0000
0000
,
0110
0000
0000
1001
,
0000
0000
0110
0000
,
0000
0001
0000
1000
,
0000
0001
0000
1000
,
0000
2002
0000
3003
,
0000
0001
0100
0001
,
0000
0001
0100
0001
,
0000
0010
0000
0001
,
0000
1000
1000
1000
,
0000
1000
0000
0100
,
0000
0010
0000
0001
,
0000
0100
0000
0010
,
0000
2000
0000
3000
,
0000
0001
0000
0001
,
0001
0000
1000
0000
,
0100
0000
0010
0000
,
0001
0001
0000
0001
,
0000
0100
0000
0010
,
0000
1000
0000
1000
,
0000
0000
0000
1001
,
0000
0110
0000
0001
,
0001
0001
0000
1001
,
0000
0110
0000
1000
,
1000
1000
0000
1001
,
0000
0020
0000
0000
,
0030
0000
0000
0000
,
0000
0000
0000
0000
;
#NOTES:
     dance-single:
     :
     Easy:
     8:
     :
0000
0000
0000
0000
,
0000
0000
0000
0000
,
0000
0000
0000
0000
,
0000
0000
0000
0000
,
0000
0000
0000
0000
,
0000
1001
0110
1001
,
0110
0000
0010
1000
0010
0000
0100
0001
,
0100
1001
0110
1001
,
0110
0000
0001
1000
0001
0000
0000
0000
,
1001
0001
0100
1000
,
0100
0001
0100
1000
,
0100
0001
0010
0001
,
0010
0000
0100
1000
0100
0000
2000
0000
,
3000
0010
1000
0010
,
1000
0000
0001
0100
0001
0000
0010
0000
,
0100
0000
0110
0000
0000
0000
0001
1000
,
0001
1000
0001
0000
0000
0000
0100
0010
,
0100
0010
0100
0000
0100
0000
0010
0000
,
0010
2002
0000
0000
,
3003
1000
1000
0100
,
0000
0001
0001
0100
,
0000
0010
0010
1000
,
0000
0010
0010
0001
,
0000
1000
0100
1000
,
0010
0001
0100
0001
,
0010
1000
0100
0001
,
0100
0000
2000
0000
3000
0000
0001
0001
,
0001
0001
0010
0011
,
1000
0100
1100
0010
,
1000
1010
0100
0001
,
0101
1000
1010
1000
,
1100
0001
0011
0010
,
0000
2002
0000
3003
,
0000
0000
0001
0010
0001
0000
1001
0000
,
0101
0000
1000
0010
1000
0000
0220
0000
,
0330
1000
0010
0001
,
0010
1000
2002
3003
,
1001
0001
0001
0010
,
0010
0100
0100
1000
,
1000
0010
0100
0010
,
0100
0110
0000
1001
,
0000
1000
0001
0100
,
0010
0000
1001
0000
,
0110
0000
1001
0000
,
0110
0010
1000
0100
,
1000
0001
0010
0001
,
0100
0010
1000
0001
,
0010
0000
0000
1001
,
0110
0000
1001
0000
0110
0000
0010
1000
,
0100
0000
0010
0001
0100
0000
1001
0000
,
0110
0000
1001
0000
0110
0000
0010
0100
,
0010
0000
0010
1001
,
0000
0200
0000
0000
,
0300
0000
0000
0000
,
0000
0000
0000
0000
;
#NOTES:
     dance-single:
     :
     Medium:
     12:
     :
0000
0000
0000
0000
,
0000
0000
0000
0000
,
0000
0000
0000
0000
,
0000
0000
0000
0000
,
0000
0000
0000
0000
,
0000
0000
1000
0100
0110
0000
0001
0100
,
0110
0000
1000
0100
0001
0100
1000
0001
,
1001
0000
0001
0010
0110
0000
1000
0010
,
0110
0000
0001
0100
0020
0000
0000
0000
,
0130
0000
0001
0100
0010
0000
1000
0100
,
0010
0000
0001
1000
0100
0000
1000
0001
,
0100
0000
0001
0100
1000
0100
0001
0010
,
1000
0010
0001
0100
1000
0100
0010
0100
,
1001
0000
1000
0100
0001
0100
1000
0010
,
0001
0010
1000
0100
0001
0100
0010
0100
,
1001
0000
1001
0000
0000
0000
0010
0100
,
0110
0001
1000
0001
0000
0000
0010
0100
,
0110
1000
0001
0100
0001
0100
0010
1000
,
0100
0010
1002
0000
0100
0000
0010
0000
,
1003
0000
0000
0000
0000
0000
0100
0000
0000
0010
0000
0100
0000
0000
0010
0100
0000
0000
0010
0000
0000
0000
0000
0000
,
1001
0000
0000
0000
0000
0000
0001
0000
0000
1000
0000
0001
0000
0000
1000
0001
0000
0000
1000
0000
0000
0000
0000
0000
,
0110
0000
0000
0000
0000
0000
1000
0000
0000
0001
0000
1000
0000
0000
0001
1000
0000
0000
0001
0000
0000
0000
0000
0000
,
1001
0000
0000
0000
0000
0000
0010
0000
0000
0100
0000
0010
0000
0000
0100
0010
0000
0000
0100
0000
0000
0100
0000
0000
,
0000
0000
0110
0000
0000
0000
2000
0000
0000
0100
0000
0000
0000
0000
0100
0000
0000
0000
3100
0000
0000
0000
0000
0000
,
1001
0000
0000
0000
0000
0000
0002
0000
0000
0100
0000
0000
0000
0000
0100
0000
0000
0000
0103
0000
0000
0000
0000
0000
,
1001
0000
0000
0000
0000
0000
2000
0000
0000
0010
0000
0000
0000
0000
0010
0000
0000
0000
3010
0000
0000
0000
0000
0000
,
1001
0000
0000
0000
0000
0000
0002
0000
0000
0010
0000
0000
0000
0000
0010
0000
0000
0000
0013
0000
0000
0010
0000
0000
,
0100
0100
1000
0100
1000
0100
1100
1000
,
0001
0100
0001
0100
0101
0001
1000
0010
,
1000
0010
1010
1000
0001
0010
0001
0010
,
0011
0001
1000
0100
1100
0000
1000
0001
,
0011
0000
0000
0000
0000
0000
0100
0000
0000
1000
0000
0000
0010
0000
0000
0100
0000
0000
0001
0000
0000
0000
1000
0000
,
0000
0001
0000
2002
0000
0000
0000
0000
0000
3003
0000
0000
,
0000
0000
0000
0000
0000
0000
0010
0000
0000
1000
0000
0000
0100
0000
0000
1000
0000
0000
0010
0000
0000
0100
0000
0001
,
0100
0010
1000
0100
0001
0100
1000
0001
,
1001
0000
0000
0000
0000
0000
1000
0000
0000
0010
0000
0000
0100
0000
0000
0010
0000
0000
1000
0000
0000
0001
0000
0100
,
0001
0010
0100
1000
0010
0001
0010
1000
,
0100
0000
0000
0010
0000
0000
0001
0000
0000
0010
0000
0000
0001
0000
0010
0001
0000
0000
1000
0000
0000
0010
0000
0000
,
1000
0000
0010
1000
0000
0000
0010
0000
0000
1000
0000
0000
0100
0000
0000
0010
0000
0000
0001
0000
0000
1000
0000
0001
,
1000
0010
0200
0000
0310
1000
0001
1000
,
0100
0010
0002
0000
0100
0000
1003
0000
,
0000
0010
2000
0000
3010
0100
0001
0010
,
0100
1000
0001
0100
1000
0100
0001
0100
,
1000
0100
0001
0010
1000
0010
0001
0010
,
1000
0000
0000
0010
0000
0000
0001
0000
0000
0100
0000
0010
0100
0000
0000
0010
0000
0000
1000
0000
0000
0100
0000
0000
,
0001
0100
0100
1000
1010
0000
0100
0001
,
0011
0000
0000
0000
0000
0000
1000
0000
0000
0010
0000
0100
0010
0000
0000
0100
0000
0000
0001
0000
0000
0010
0000
0000
,
1000
0010
0000
0000
0000
0000
0001
0100
,
1100
0000
0000
0000
0000
0000
1000
0000
0000
0010
0000
0000
0011
0000
0000
0000
0000
0000
0001
0000
0000
1000
0000
0100
,
0010
0100
0010
0001
1001
0000
0001
0010
,
1010
0000
0000
0000
0000
0000
1000
0000
0000
0100
0000
0000
0101
0000
0000
0000
0000
0000
0010
0000
0000
0100
0000
1000
,
0020
0000
0130
1001
,
0000
0200
0000
0000
,
0300
0000
0000
0000
,
0000
0000
0000
0000
;
#NOTES:
     dance-single:
     :
     Hard:
     16:
     :
0000
0000
0000
0000
,
0000
0000
0000
0000
,
0000
0000
0000
0000
,
0000
0000
0000
0000
,
0000
0000
0000
0000
,
0000
0000
1001
0001
0011
1000
1100
0001
,
0101
0000
0000
0010
0000
0000
1000
0000
0000
0001
0000
0100
0010
0000
0000
1000
0000
0000
1100
0000
0000
0001
0000
0000
,
0101
0100
1010
0010
0110
0001
0110
1000
,
0001
0000
0010
0100
0000
1000
0001
0000
0000
0100
0000
0002
2000
0000
0000
0000
0000
0000
3003
0000
0000
0000
0000
0000
,
0110
0000
0000
0000
0000
0000
1000
0000
0100
0010
0000
0000
0001
0000
0100
0010
0000
0000
1000
0000
0020
0000
0000
0000
,
0100
0000
0000
0130
0000
0000
0001
0000
0010
1000
0000
0000
0010
0000
0001
0100
0000
0000
0001
0000
0001
0010
0000
0010
,
0100
0000
0100
1000
0000
0000
1001
0000
0000
0010
0000
0100
0010
0000
0000
1000
0000
0000
0001
0000
0000
0100
0000
0000
,
1000
0000
0000
0100
0000
0100
0001
0000
0010
1000
0000
0010
0100
0000
0000
1000
0000
0000
2100
0000
0000
0010
0000
0000
,
0000
0000
0000
3001
0000
0000
1001
0000
0000
0100
0000
0010
0100
0000
0000
0001
0000
0000
1000
0000
0000
0010
0000
0000
,
0001
0000
0000
0010
0000
0010
1000
0000
0100
0010
0000
0001
1000
0000
0000
0010
0000
0000
0120
0000
0000
0000
0000
0000
,
0031
0000
0000
0010
0000
1000
0010
0000
0000
1000
0000
0000
0100
0000
0000
0001
0000
0000
0011
0000
0000
1010
0000
0000
,
1100
0101
1001
0110
0100
1000
1010
0011
,
0101
0000
0000
1000
0000
0100
1000
0000
0000
1010
0000
0000
0000
0000
0000
0010
0000
0000
0100
0000
0000
0100
0000
0000
,
0001
0001
2001
0000
0100
0000
0010
0000
,
3001
0000
0000
0000
0000
0000
1000
0000
0000
0010
0000
0100
0000
0000
0010
0100
0000
0000
0001
0000
0001
0010
0000
0010
,
1000
0000
1000
0010
0000
0010
0001
0000
0000
0100
0000
0010
0000
0000
0100
0010
0000
0000
1000
0000
1000
0100
0000
0100
,
0001
0000
0001
0100
0000
0100
1000
0000
0000
0001
0000
0010
0000
0000
1000
0010
0000
0000
0100
0000
0100
0010
0000
0010
,
0100
0000
0100
0010
0000
0010
0001
0000
0000
1000
0000
0100
0000
0000
0001
0100
0000
0000
0010
0000
0000
0100
0000
0010
,
0000
0000
0110
0000
0000
0000
0001
0000
0000
0100
0000
0010
0000
0000
1000
0010
0000
0000
0100
0000
0100
0001
0000
0001
,
1000
0000
1000
0100
0000
0100
1000
0000
0000
0010
0000
0100
0000
0000
0001
0100
0000
0000
0010
0000
0010
1000
0000
1000
,
0001
0000
0001
0100
0000
0100
0001
0000
0000
1000
0000
0100
0000
0000
0100
0001
0000
0000
0100
0000
0100
1000
0000
1000
,
0010
0000
0010
0001
0000
0001
0010
0000
0000
0100
0000
0010
0000
0000
0100
0010
0000
0000
1010
0000
0000
1100
0000
0000
,
0101
0000
0011
0000
1001
0000
0001
0100
0010
0000
0110
0000
1000
0100
0010
0000
,
0011
0000
0001
1000
0010
0000
0110
0000
1000
0100
1000
0000
0011
0000
0010
0100
,
1000
0000
1010
0000
0001
0100
0010
0000
0110
0000
1000
0100
0001
0000
0110
0000
,
0001
0100
1000
0000
0010
1000
0010
1000
0001
0100
0001
0000
0100
0010
1000
0100
,
0010
0000
0000
0001
0000
0000
1000
0000
0000
0000
0000
0000
0001
0000
0000
0010
0000
0000
0100
0000
0000
1000
0000
0000
0010
0000
0000
1000
0000
0000
0010
0000
0000
0000
0000
0000
1010
0000
0000
0000
0000
0000
0000
0000
0110
0000
0000
0000
,
0000
0101
0000
2002
0000
0000
0000
0000
0000
3003
0000
0000
,
0000
0000
0000
0000
0000
0000
0010
0000
0000
1000
0000
0001
0100
0000
0000
0001
0000
0000
0011
0000
0000
1000
0000
0000
,
1010
0000
0000
0100
0000
0000
0110
0000
0000
0001
0000
1000
0100
0000
0000
0010
0000
0000
0012
0000
0000
0000
0000
0000
,
1003
0000
0000
0010
0000
0000
0100
0000
0000
1000
0000
0000
0100
0000
0000
0001
0000
0000
0010
0000
0000
0100
1000
0100
,
1000
0001
0101
0010
0220
0000
0330
1000
,
0001
0000
0000
1000
0000
0000
0001
0000
0000
0010
0000
0100
1000
0000
0001
1000
0000
0100
0010
0000
0000
0001
0000
0100
,
0001
0000
0000
1000
0000
0000
1010
0000
0000
0110
0000
0000
0101
0000
0000
1001
0000
0000
0110
0000
0000
0010
0100
0010
,
0100
0000
0010
0000
1000
0100
1000
0100
0010
0000
0001
0000
0101
0000
0100
0000
,
1100
0000
0100
0000
0001
0100
0001
0100
0001
0100
0001
0000
0100
0001
0100
0001
,
0010
0100
1000
0000
0100
1000
0100
0010
0001
0100
0001
0000
0101
0000
1100
0000
,
1010
0000
0000
0011
0000
0000
1001
0000
0001
0100
0000
0000
1001
0000
1000
0100
0000
0000
1001
0000
0001
0010
0000
0000
,
1001
0000
1000
0010
0000
0000
0110
0000
0010
1000
0000
0000
0110
0000
0010
0001
0000
0000
1010
0000
0000
0011
0000
0000
,
2002
0000
0000
3003
0000
0000
1000
0000
0000
0100
0000
0001
0100
0000
0000
1000
0000
0000
1010
0000
0000
0100
0000
0000
,
0101
0000
0000
0001
0000
0001
1000
0000
1000
0010
0000
0010
0100
0000
0000
0001
0000
0000
1002
0000
0000
0100
0000
0000
,
0000
0000
0000
0013
0000
0000
0001
0000
0000
0100
0000
1000
0100
0000
0000
0001
0000
0000
0011
0000
0000
1000
0000
0000
,
1010
0100
0220
0000
0000
0330
1001
0100
,
0110
0000
0000
0001
0000
0000
0011
0000
0000
1000
0000
0000
1100
0000
0000
0010
0000
0000
0110
0000
0000
1000
0000
0001
,
0100
0010
1010
1100
0101
0001
0110
1000
,
1001
0000
0000
0010
0000
0000
1010
0000
0000
0100
0000
0000
0001
0000
0010
1000
0000
0001
0100
0000
0000
1000
0000
0010
,
0200
0000
0310
1001
,
0000
0200
0000
0000
,
0300
0000
0000
0000
,
0000
0000
0000
0000
;
#NOTES:
     dance-double:
     :
     Easy:
     8:
     :
00000000
00000000
00000000
00000000
,
00000000
00000000
00000000
00000000
,
00000000
00000000
00000000
00000000
,
00000000
00000000
00000000
00000000
,
00000000
00000000
00000000
00000000
,
00000000
00001001
00001001
00000110
,
00000110
00000000
00000010
00001000
00000010
00000000
00010000
00001000
,
00010000
00011000
00011000
00110000
,
00110000
00000000
00100000
01000000
10000000
00000000
00000000
00000000
,
10010000
10000000
01000000
00100000
,
00010000
00001000
00000100
00000010
,
00000001
00000001
00000100
00000010
,
00001000
00000000
00000100
00000010
00000100
00000000
00000220
00000000
,
00000330
00001000
00010000
01000000
,
00100000
00000000
00010000
01000000
00010000
00000000
10000000
00000000
,
00010000
00000000
10010000
00000000
00000000
00000000
01000000
00100000
,
01000000
00100000
01000000
00000000
00000000
00000000
00001000
00010000
,
00001000
00010000
00001000
00000000
00001000
00000000
00000010
00000000
,
00000010
00002002
00000000
00000000
,
00003003
00000010
00000010
00000001
,
00000000
00001000
00001000
00000100
,
00000000
00000100
00000100
00010000
,
00000000
00001000
00001000
00100000
,
00000000
00010000
10000000
01000000
,
00100000
00010000
01000000
00100000
,
00010000
00001000
00000100
00000010
,
00001000
00000000
00000100
00000000
00000010
00000000
00000001
00000001
,
00000001
00000001
00000100
00000101
,
00001000
00000100
00001100
00010000
,
00001000
00011000
00100000
00010000
,
00110000
10000000
11000000
01000000
,
01100000
00001000
00011000
00011000
,
00000000
00022000
00000000
00033000
,
00000000
00000000
00001000
00000010
00001000
00000000
00000010
00000000
,
00000011
00000000
00000001
00000100
00000001
00000000
00002002
00000000
,
00003003
00000000
00000100
00010000
00001000
00000000
00010000
00001000
,
00010000
00000000
00001000
00100000
00020000
00000000
00030000
00000000
,
10010000
10000000
10000000
01000000
,
01000000
00010000
00010000
00001000
,
00001000
00000010
00000001
00000100
,
00000001
00000020
00000030
00002000
,
00003000
00020000
01030000
10000000
,
00010000
00000000
10010000
00000000
,
00110000
00000000
00011000
00000000
,
00001100
00000100
00000010
00000001
,
00000010
00000100
00001000
00000010
,
00010000
00001000
01000000
00100000
,
01000000
00000000
00000000
10010000
,
10010000
00000000
01100000
00000000
01100000
00000000
01000000
00010000
,
01000000
00000000
00001000
00010000
00001000
00000000
00011000
00000000
,
00011000
00000000
00001100
00000000
00001100
00000000
00000100
00000010
,
00000001
00000000
00001001
00001001
,
00000000
00000200
00000000
00000000
,
00000300
00000000
00000000
00000000
,
00000000
00000000
00000000
00000000
;
#NOTES:
     dance-double:
     :
     Medium:
     12:
     :
00000000
00000000
00000000
00000000
,
00000000
00000000
00000000
00000000
,
00000000
00000000
00000000
00000000
,
00000000
00000000
00000000
00000000
,
00000000
00000000
00000000
00000000
,
00000000
00000000
10000000
01000000
00100000
00100000
00010000
01000000
,
00100000
00100000
00010000
00001000
00000100
00000001
00001000
00000001
,
00001001
00000000
00000001
00000010
00000100
00000100
00001000
00000010
,
00000100
00000100
00001000
00010000
00002000
00000000
00003000
00000000
,
00011000
00000000
00010000
01000000
00100000
00000000
00010000
01000000
,
00100000
00000000
10000000
00100000
00010000
00000000
00001000
00000010
,
00000001
00000000
00000001
00000100
00000010
00000100
00001000
00010000
,
00001000
00000010
00001000
00100000
00010000
01000000
00100000
10000000
,
10010000
00000000
10000000
00100000
01000000
00100000
00010000
00001000
,
00010000
01000000
00010000
00000100
00001000
00000010
00000100
00000001
,
00001001
00000000
00000110
00000000
00000000
00000000
00000110
00001000
,
00010000
00001000
00010000
01100000
00000000
00000000
01100000
00010000
,
00001000
00010000
00001000
00000010
00000001
00000010
00001000
00010000
,
00100000
00010000
00002000
00000000
01000000
00000000
00000100
00000000
,
01003000
00000000
00000000
00000000
00000000
00000000
00100000
00000000
00000000
10000000
00000000
00100000
00000000
00000000
10000000
00100000
00000000
00000000
10000000
00000000
00000000
00010000
00000000
00000000
,
00100000
00000000
00000000
01000000
00000000
00000000
00010000
00000000
00000000
00001000
00000000
00010000
00000000
00000000
00001000
00010000
00000000
00000000
00001000
00000000
00000000
00000100
00000000
00000000
,
00001000
00000000
00000000
00010000
00000000
00000000
00001000
00000000
00000000
00000010
00000000
00000001
00000000
00000000
00000010
00000001
00000000
00000000
00000010
00000000
00000000
00000001
00000000
00000000
,
00001000
00000000
00000000
00000010
00000000
00000000
00000100
00000000
00000000
00001000
00000000
00010000
00000000
00000000
00001000
00010000
00000000
00000000
00001000
00000000
00000000
00001000
00000000
00000000
,
00000000
00000000
00011000
00000000
00000000
00000000
00200000
00000000
00000000
01000000
00000000
00000000
00000000
00000000
01000000
00000000
00000000
00000000
01300000
00000000
00000000
00000000
00000000
00000000
,
10010000
00000000
00000000
00000000
00000000
00000000
02000000
00000000
00000000
00001000
00000000
00000000
00000000
00000000
00001000
00000000
00000000
00000000
03001000
00000000
00000000
00000000
00000000
00000000
,
00011000
00000000
00000000
00000000
00000000
00000000
00000200
00000000
00000000
00000010
00000000
00000000
00000000
00000000
00000010
00000000
00000000
00000000
00000310
00000000
00000000
00000000
00000000
00000000
,
00000110
00000000
00000000
00000000
00000000
00000000
00000002
00000000
00000000
00000010
00000000
00000000
00000000
00000000
00000010
00000000
00000000
00000000
00000013
00000000
00000000
00000100
00000000
00000000
,
00010000
00001000
00100000
00010000
00100000
00010000
00110000
10000000
,
00100000
01000000
00100000
01000000
01100000
00010000
00001000
00010000
,
00001000
00010000
00011000
00000010
00000100
00000010
00000100
00000010
,
00000110
00000001
00000100
00001000
00001100
00000000
00001000
00010000
,
00011000
00000000
00000000
00000000
00000000
00000000
00010000
00000000
00000000
01000000
00000000
00000000
01010000
00000000
00000000
00000000
00000000
00000000
00010000
00000000
00000000
00000000
00001000
00000000
,
00000000
00010000
00000000
00022000
00000000
00000000
00000000
00000000
00000000
00033000
00000000
00000000
,
00000000
00000000
00000000
00000000
00000000
00000000
00001000
00000000
00000000
00010000
00000000
00000000
00000100
00000000
00000000
00001000
00000000
00000000
00000010
00000000
00000000
00000100
00000000
00000010
,
00000100
00000001
00000010
00000100
00010000
00001000
00100000
00010000
,
10010000
00000000
00000000
00000000
00000000
00000000
10000000
00000000
00000000
00100000
00000000
00000000
01000000
00000000
00000000
00010000
00000000
00000000
00100000
00000000
00000000
00001000
00000000
00010000
,
00001000
00010000
00000100
00001000
00000010
00000001
00000010
00000100
,
00000001
00000000
00000000
00000010
00000000
00000000
00000100
00000000
00000000
00010000
00000000
00000000
00001000
00000000
00100000
00010000
00000000
00000000
10000000
00000000
00000000
00100000
00000000
00000000
,
01000000
00000000
00100000
10000000
00000000
00000000
00100000
00000000
00000000
10000000
00000000
00000000
01000000
00000000
00000000
00010000
00000000
00000000
00001000
00000000
00000000
00000010
00000000
00000100
,
00000010
00000001
00002000
00000000
00003010
00000100
00001000
00000100
,
00000010
00010000
00021000
00000000
00000100
00000000
00032000
00000000
,
01003000
00000000
00200000
00000000
10300000
01000000
00100000
00010000
,
00001000
00000100
00000001
00000100
00001000
00000100
00000001
00000010
,
00001000
00010000
01000000
10000000
00100000
00010000
00100000
10000000
,
01000000
00000000
00000000
00010000
00000000
00000000
00001000
00000000
00000000
00000010
00000000
00000100
00000010
00000000
00000000
00000001
00000000
00000000
00000100
00000000
00000000
00000010
00000000
00000000
,
00001000
00000100
00010000
00001000
00011000
00000000
00100000
01000000
,
01100000
00000000
00000000
00000000
00000000
00000000
10000000
00000000
00000000
01000000
00000000
00100000
01000000
00000000
00000000
00010000
00000000
00000000
00001000
00000000
00000000
00000010
00000000
00000000
,
00000001
00001000
00000000
00000000
00000000
00000000
00000001
00001000
,
00000010
00001000
00000001
00000100
00001000
00010000
01000000
10000000
,
00100000
10000000
00010000
01000000
01100000
00000000
10000000
00010000
,
00100000
00010000
10000000
01000000
00010000
00001000
00000100
00000001
,
00000020
00000000
00000130
00001001
,
00000000
00000200
00000000
00000000
,
00000300
00000000
00000000
00000000
,
00000000
00000000
00000000
00000000
;
#NOTES:
     dance-double:
     :
     Hard:
     16:
     :
00000000
00000000
00000000
00000000
,
00000000
00000000
00000000
00000000
,
00000000
00000000
00000000
00000000
,
00000000
00000000
00000000
00000000
,
00000000
00000000
00000000
00000000
,
00000000
00000000
00001001
00000001
00000101
00000100
00001100
00001000
,
00011000
00000000
00000000
00010000
00000000
00000000
00010010
00000000
00000000
00000100
00000000
00000001
00000010
00000000
00000000
00001000
00000000
00000000
00010000
00000000
00000000
01000000
00000000
00000000
,
01100000
00100000
10010000
10000000
11000000
01000000
01010000
00010000
,
00011000
00000000
00001000
00100000
00000000
01000000
00010000
00000000
00000000
00001000
00000000
00000010
00000002
00000000
00000000
00000000
00000000
00000000
00000000
00000000
00000000
00000003
00000000
00000000
,
00001001
00000000
00000000
00000000
00000000
00000000
00000001
00000000
00000100
00000010
00000000
00000000
00001000
00000000
00000100
00000010
00000000
00000000
00001000
00000000
00020000
00000000
00000000
00000000
,
00001000
00000000
00000000
00031000
00000000
00000000
00010000
00000000
01000000
10000000
00000000
00000000
00100000
00000000
01000000
00010000
00000000
00000000
00110000
00000000
00000000
01010000
00000000
00000000
,
10010000
00000000
00000000
00000000
00000000
00000000
10000000
00000000
00000000
00100000
00000000
01000000
00100000
00000000
00000000
00010000
00000000
00000000
00001000
00000000
00000000
00000010
00000000
00000000
,
00001000
00000000
00000000
00010000
00000000
00010000
00001000
00000000
00001000
00000100
00000000
00000100
00000001
00000000
00000000
00000010
00000000
00000000
00001002
00000000
00000000
00000100
00000000
00000000
,
00000000
00000000
00000000
00000013
00000000
00000000
00000001
00000000
00000000
00000010
00000000
00000100
00000010
00000000
00000000
00001000
00000000
00000000
00010000
00000000
00000000
00100000
00000000
00000000
,
00010000
00000000
00000000
00001000
00000000
00001000
00010000
00000000
00010000
01000000
00000000
01000000
10000000
00000000
00000000
00100000
00000000
00000000
10010000
00000000
00000000
00000000
00000000
00000000
,
01100000
00000000
00000000
00100000
00000000
10000000
01000000
00000000
00000000
01000000
00000000
00000000
00010000
00000000
00000000
00010000
00000000
00000000
00011000
00000000
00000000
00001100
00000000
00000000
,
00000101
00000000
00000000
00000010
00000000
00000001
00000100
00000000
00000000
00000100
00000000
00000000
00001000
00000000
00000000
00001000
00000000
00000000
00011000
00000000
00000000
01010000
00000000
00000000
,
11000000
00000000
00000000
10000000
00000000
00100000
01000000
00000000
00000000
00100000
00000000
00000000
00000000
00000000
00000000
00100000
00000000
00000000
00010000
00000000
00000000
00001000
00000000
00000000
,
00000010
00000001
00002001
00000000
00000100
00000000
00010000
00000000
,
00003100
00000000
00000000
00000000
00000000
00000000
00000010
00000000
00000000
00010000
00000000
00001000
00000000
00000000
00010000
00001000
00000000
00000000
00010000
00000000
00010000
01000000
00000000
01000000
,
10000000
00000000
10000000
00100000
00000000
00100000
00010000
00000000
00000000
00001000
00000000
00010000
00000000
00000000
00001000
00010000
00000000
00000000
00001000
00000000
00001000
00000100
00000000
00000100
,
00000001
00000000
00000001
00000010
00000000
00000010
00001000
00000000
00000000
00010000
00000000
00100000
00000000
00000000
00010000
00001000
00000000
00000000
00000010
00000000
00000010
00001000
00000000
00001000
,
00010000
00000000
00010000
01000000
00000000
01000000
10000000
00000000
00000000
00100000
00000000
00010000
00000000
00000000
00001000
00010000
00000000
00000000
01000000
00000000
00000000
00100000
00000000
01000000
,
00000000
00000000
01100000
00000000
00000000
00000000
00010000
00000000
00000000
00001000
00000000
00000010
00000000
00000000
00001000
00010000
00000000
00000000
00001000
00000000
00001000
00000100
00000000
00000100
,
00000001
00000000
00000001
00000010
00000000
00000010
00001000
00000000
00000000
00010000
00000000
00100000
00000000
00000000
00010000
00001000
00000000
00000000
00010000
00000000
00010000
01000000
00000000
01000000
,
10000000
00000000
10000000
00100000
00000000
00100000
00010000
00000000
00000000
00001000
00000000
00000010
00000000
00000000
00000010
00001000
00000000
00000000
00010000
00000000
00000010
00001000
00000000
00000100
,
00010000
00000000
00000010
00001000
00000000
00000100
00010000
00000000
00000000
00001000
00000000
01000000
00000000
00000000
01000000
00010000
00000000
00000000
01010000
00000000
00000000
11000000
00000000
00000000
,
10100000
00000000
00110000
00000000
00011000
00000000
00001000
00000010
00000001
00000000
00001001
00000000
00000100
00000010
00001000
00000000
,
00001010
00000000
00000100
00010000
00001000
00000000
00011000
00000000
00010000
01000000
10000000
00000000
01100000
00000000
10000000
00100000
,
01000000
00000000
01100000
00000000
00010000
00100000
01000000
00000000
01010000
00000000
00010000
00001000
00000010
00000000
00000110
00000000
,
00000100
00001000
00000001
00000000
00000001
00000100
00000010
00001000
00000100
00010000
00001000
00000000
00010000
00001000
00100000
00010000
,
10000000
00000000
00000000
00100000
00000000
00000000
01000000
00000000
00000000
00000000
00000000
00000000
00100000
00000000
00000000
10000000
00000000
00000000
01000000
00000000
00000000
00100000
00000000
00000000
00001000
00000000
00000000
00010000
00000000
00000000
00001000
00000000
00000000
00000000
00000000
00000000
00011000
00000000
00000000
00000000
00000000
00000000
00000000
00000000
00001010
00000000
00000000
00000000
,
00000000
00000110
00000000
00002002
00000000
00000000
00000000
00000000
00000000
00003003
00000000
00000000
,
00000000
00000000
00000000
00000000
00000000
00000000
00000001
00000000
00000000
00000100
00000000
00000010
00010000
00000000
00000000
00001000
00000000
00000000
00011000
00000000
00000000
00000010
00000000
00000000
,
00001010
00000000
00000000
00010000
00000000
00000000
00011000
00000000
00000000
00010000
00000000
00100000
10000000
00000000
00000000
00100000
00000000
00000000
02200000
00000000
00000000
00000000
00000000
00000000
,
03300000
00000000
00000000
00100000
00000000
00000000
10000000
00000000
00000000
01000000
00000000
00000000
00100000
00000000
00000000
00001000
00000000
00000000
00010000
00000000
00000000
00001000
00010000
00001000
,
00010000
00001000
00000010
00000001
00002002
00000000
00003003
00000001
,
00000010
00000000
00000000
00001000
00000000
00000000
00010000
00000000
00000000
01000000
00000000
01000000
10000000
00000000
10000000
00100000
00000000
00100000
00010000
00000000
00000000
00001000
00000000
00000000
,
00001100
00000000
00000000
00000001
00000000
00000000
00000011
00000000
00000000
00001000
00000000
00000000
00001010
00000000
00000000
00000010
00000000
00000000
00011000
00000000
00000000
00001000
00010000
00001000
,
00010000
00000000
00001000
00000000
00100000
00010000
00100000
00010000
00100000
00000000
01000000
00000000
11000000
00000000
00100000
00000000
,
01100000
00000000
00001000
00000000
00010000
00001000
00010000
00001000
00010000
00001000
00010000
00000000
00001000
00010000
00001000
00000000
,
00000010
00000001
00000010
00000000
00000001
00000100
00000001
00000100
00000010
00010000
00001000
00000000
00100000
00010000
00100000
00010000
,
10000000
00000000
00000000
00010000
00000000
00000000
01000000
00000000
00000000
00000000
00000000
00000000
00000001
00000000
00000000
00000000
00000001
00000000
00000100
00000000
00000000
00000000
00000000
00000000
00001000
00000000
00000000
00000000
00001000
00000000
00000100
00000000
00000000
00000000
00000000
00000000
00000001
00000000
00000000
00000000
00000001
00000000
00000010
00000000
00000000
00000000
00000000
00000000
,
00001000
00000000
00000000
00010000
00000000
00000000
01000000
00000000
01000000
10000000
00000000
00000000
00100000
00000000
00100000
00010000
00000000
00000000
00100000
00000000
00100000
10000000
00000000
00000000
,
01000000
00000000
00000000
00010000
00000000
00000000
00001000
00000000
00000000
00000010
00000000
00000001
00000010
00000000
00000000
00000001
00000000
00000000
00001001
00000000
00000000
00000100
00000000
00000000
,
00000110
00000000
00000000
00000010
00000000
00000010
00010000
00000000
00010000
00001000
00000000
00001000
01000000
00000000
00000000
00100000
00000000
00000000
20010000
00000000
00000000
01000000
00000000
00000000
,
00000000
00000000
00000000
30100000
00000000
00000000
10000000
00000000
00000000
00100000
00000000
01000000
00100000
00000000
00000000
00010000
00000000
00000000
00011000
00000000
00000000
00000100
00000000
00000000
,
00000110
00000001
00000000
00000000
00000000
00000000
00001001
00000010
,
00000110
00000000
00000000
00010000
00000000
00000000
00011000
00000000
00000000
00100000
00000000
00000000
01100000
00000000
00000000
10000000
00000000
00000000
01000000
00000000
00000000
00010000
00000000
00001000
,
00100000
00001000
00010000
00100000
01100000
01000000
10010000
01000000
,
01100000
00000000
00000000
00001000
00000000
00000000
00011000
00000000
00000000
00000100
00000000
00000000
00000110
00000000
00000010
00000001
00000000
00000100
00000001
00000000
00000000
00000010
00000000
00001000
,
00020000
00000000
00130000
10010000
,
00000000
02000000
00000000
00000000
,
03000000
00000000
00000000
00000000
,
00000000
00000000
00000000
00000000
;
