
//----- song ID: rtrw -----//
#TITLE:Right Time Right Way;
#ARTIST:KAN TAKAHIKO;
#BANNER:Right Time Right Way.png;
#BACKGROUND:Right Time Right Way-bg.png;
#CDTITLE:./CDTitles/DDR A20.png;
#MUSIC:Right Time Right Way.ogg;
#SAMPLESTART:47.531;
#SAMPLELENGTH:15;
#BPMS:0=174;
#BGSTAGE:16;
#NOTES:
     dance-single:
     :
     Beginner:
     4:
     :
0000
0000
0000
0000
,
0000
0000
0000
0000
,
0000
0000
0000
0000
,
0000
0000
0000
0000
,
0000
0000
0000
0000
,
1000
0000
0000
0000
,
0100
0000
0000
0000
,
0010
0000
0000
0000
,
0001
0000
0000
0000
,
1000
0000
1000
0000
,
0001
0000
0001
0000
,
1000
0000
1000
0000
,
0001
0000
0001
0000
,
0010
0000
0010
0000
,
0100
0000
0100
0000
,
0010
0000
0010
0000
,
0100
0000
0100
0000
,
1001
0000
0000
0000
,
1000
0000
0000
0000
,
0001
0000
0000
0000
,
1000
0000
0000
0000
,
0010
0000
0000
0000
,
0100
0000
0000
0000
,
0010
0000
0000
0000
,
0100
0000
0000
0000
,
2002
0000
0000
3003
,
0000
0000
0000
0000
,
2002
0000
0000
3003
,
0000
0000
0000
0000
,
2002
0000
0000
3003
,
0000
0000
0000
0000
,
0010
0000
0010
0000
,
1000
0000
1000
0000
,
0001
0000
0001
0000
,
0100
0100
0100
0000
,
0010
0000
0010
0000
,
0100
0100
0100
0000
,
0001
0000
0001
0000
,
1000
1000
1000
0000
,
0010
0000
0010
0000
,
0100
0100
0100
0000
,
1000
0000
1000
0000
,
0001
0001
0001
0000
,
0010
0000
0100
0000
,
0010
0000
0100
0000
,
0001
0000
1000
0000
,
0001
0000
1000
0000
,
0001
0000
0100
0000
,
0001
0000
0100
0000
,
0010
0000
1000
0000
,
0010
0000
1000
0000
,
0020
0000
0000
0030
,
0200
0000
0000
0300
,
0002
0000
0000
0003
,
2000
0000
0000
3000
,
0001
0001
0001
0000
,
1000
1000
1000
0000
,
0010
0010
0010
0010
,
0010
0000
0000
0000
,
1000
0000
0001
0000
,
1000
1000
1000
0000
,
0010
0000
0100
0000
,
0001
0001
0001
0000
,
1000
0000
0001
0000
,
0100
0100
0100
0000
,
0010
0000
0010
0000
,
0100
0100
0100
0000
,
0001
0000
0100
0000
,
0001
0000
0100
0000
,
0010
0000
1000
0000
,
0010
0000
1000
0000
,
0001
0000
0010
0000
,
0001
0000
0010
0000
,
0100
0000
1000
0000
,
0100
0000
1000
0000
,
1001
0000
0000
0000
,
0000
0000
0000
0000
;
#NOTES:
     dance-single:
     :
     Easy:
     7:
     :
0000
0000
0000
0000
,
0000
0000
0000
0000
,
0000
0000
0000
0000
,
0000
0000
0000
0000
,
0000
0000
0000
0000
,
0001
0000
0000
1000
0000
0001
0000
0000
,
0010
0000
0000
0100
0000
0010
0000
0000
,
0001
0000
0000
1000
0000
0001
0000
0000
,
0100
0000
0000
0010
0000
0100
0000
0000
,
1001
0010
1000
0100
,
1000
0010
0100
0001
,
1001
0010
0001
0100
,
0001
0010
0100
1000
,
0110
1000
0010
1000
,
0001
0010
1000
0010
,
0110
0001
0100
0001
,
0010
1000
0010
0100
,
2001
0000
0000
0000
,
0000
0000
0000
0000
,
3002
0000
0000
0000
,
0000
0000
0000
0000
,
1003
0000
1000
0000
,
0001
0000
0001
0000
,
0100
0000
0000
0100
0000
0000
0100
0000
,
0000
0100
0000
0000
0100
0000
0000
0000
,
1001
0000
0000
0110
0000
0000
1001
0000
,
0000
0000
0010
0100
,
0110
0000
0000
1001
0000
0000
0110
0000
,
0000
0000
0001
1000
,
1001
0000
0000
0110
0000
0000
1001
0000
,
0000
0000
0100
0001
,
0010
0010
0001
0001
,
1000
1000
0100
0100
,
0010
0001
1000
0100
,
0010
0100
0010
0000
0100
0000
1001
0000
,
0001
0010
0001
0010
,
0100
0000
1000
0000
0100
1000
0100
0000
,
1000
0010
1000
0010
,
0100
0000
0001
0000
0100
0001
0100
0000
,
0001
0100
1000
0100
,
0001
0000
0010
0000
0100
0010
0100
0000
,
1000
0100
0001
0100
,
1000
0000
0010
0000
0100
0010
0100
0000
,
0001
0001
0100
0010
,
1000
1000
0100
1001
,
0100
0100
1000
0001
,
0010
0010
0100
1001
,
1000
0001
0010
0010
,
0001
1000
0010
0010
,
1001
0100
0001
0010
,
1000
0100
0001
0010
,
2001
0000
3002
0000
,
2003
0000
3002
0000
,
0023
0000
0230
0000
,
0320
0000
0230
0000
,
1300
0100
1000
0000
0010
0000
1001
0000
,
0001
0100
0001
0000
0010
0000
1001
0000
,
0010
1000
0001
0100
,
0020
0000
0000
0130
,
0001
1000
0100
0100
,
1000
0002
1000
1003
,
0010
1000
0001
0100
,
0010
2000
0001
3001
,
0010
0100
1000
0001
,
0010
0200
0010
0310
,
0001
0000
0000
1000
0000
0000
0010
0000
,
0100
0100
0000
0000
,
1001
0010
1000
0100
,
0010
0001
1000
0001
,
0110
1000
0001
0100
,
0010
1000
0001
0110
,
0001
1000
0001
0100
,
0010
1000
0110
1001
,
0001
0100
0010
1000
,
0010
0100
1001
0110
,
0001
0000
1000
0000
0000
0010
0000
0100
,
0000
0000
0000
0000
;
#NOTES:
     dance-single:
     :
     Medium:
     11:
     :
0000
0000
0000
0000
,
0000
0000
0000
0000
,
0000
0000
0000
0000
,
0000
0000
0000
0000
,
0000
0000
0000
0000
,
0001
0000
0010
0001
0000
1000
0100
0000
,
0010
0000
0001
0010
0000
0100
1000
0000
,
0010
0000
1000
0001
0000
0100
0010
0000
,
0100
0001
0000
1000
0100
0010
0001
0100
,
0010
0000
1000
0100
0000
0010
0100
1000
,
0100
0000
0010
0100
0000
1000
0001
0000
,
1001
0000
0001
0010
0000
0100
1000
0001
,
0100
0000
0010
0100
0000
0001
1000
0000
,
0110
0000
1000
0010
0000
0100
0001
1000
,
0100
0000
0010
0001
0000
0100
1000
0000
,
0110
0000
1000
0010
0000
1000
0010
0001
,
0010
0000
0100
0010
0000
1000
0100
0000
,
1001
0000
0000
0000
0000
0000
0001
1000
,
0000
0010
0000
0100
0000
0001
0000
0000
,
1000
0000
0000
0100
0000
0000
0010
0000
,
0000
0001
0000
0000
1000
0000
0001
0000
,
1001
0000
0100
0000
0001
1000
0100
1000
,
0000
0010
0000
1000
0100
0001
0000
0000
,
0020
0000
0000
0032
0000
0000
0203
0000
,
0000
0302
0000
0000
1003
0000
0000
0000
,
1000
0001
0100
0010
0000
1000
0100
0010
,
0001
0010
0000
0000
0100
0000
0010
0000
,
0001
1000
0010
1000
0000
0001
0100
1000
,
0100
0010
0000
0000
1100
0000
0101
0000
,
0001
1000
0010
0100
0000
0001
0010
0100
,
1000
0100
0000
0000
0100
0000
0010
0000
,
0001
1000
0010
1000
0000
0001
0100
1000
,
0000
0100
0001
1000
0000
0100
1000
0010
,
0000
1000
0100
0010
0001
1000
0100
0010
,
0001
1000
0110
1001
,
0010
1000
0100
1000
0000
0100
0010
0001
,
0100
0001
0000
1000
0001
0000
0110
0000
,
0010
1000
0001
0100
0000
0010
1000
0001
,
1000
0100
0000
0010
0100
0000
1001
0000
,
0010
0001
0100
1000
0000
0100
0001
0100
,
1000
0100
0000
0001
1000
0000
0110
0000
,
0010
1000
0100
0001
0000
0100
1000
0100
,
0001
0100
0000
0010
0100
0000
0110
0000
,
1000
0000
1100
0000
0001
0100
0010
1000
,
0000
0001
0100
0000
0010
1000
0100
0000
,
0010
0000
0101
0000
1000
0100
0010
0001
,
0000
1000
0100
0000
0010
0001
0100
0000
,
0001
0100
0010
0001
0000
0010
1000
0100
,
0010
0001
0000
0100
0010
1000
0001
0000
,
1000
0100
0010
1000
0000
0010
0001
0100
,
0010
0001
0000
1000
0100
0001
0010
0000
,
0200
0000
2300
0000
,
3002
0000
0023
0000
,
0230
0000
2300
0000
,
3002
0000
2003
0000
,
3001
0010
0001
0010
0001
0000
1001
0000
,
1000
0010
1000
0010
1000
0000
1001
0000
,
0010
1000
0001
0100
,
0000
0100
0001
1000
0010
0100
1001
0000
,
0001
0010
0100
2000
0000
3020
0000
0230
,
0000
0301
1000
0000
0001
0100
0010
0000
,
1000
0010
0100
0002
0000
0023
0000
0230
,
0000
1300
0001
0100
0010
1000
0001
0000
,
0010
0100
1000
0002
0000
0023
0000
0230
,
0000
1300
0100
0001
0100
1000
0010
0000
,
0100
0000
0010
0100
0000
0001
1000
0000
,
0100
0010
0100
0010
0000
0000
0000
0000
,
1001
0000
1000
0100
0000
0100
1000
0010
,
0100
0001
0000
1000
0100
0000
0110
0000
,
1001
0000
0001
0100
0000
0100
0001
0010
,
0100
1000
0000
0001
0100
0000
0110
0000
,
1100
0000
0001
0100
0000
0100
1000
0000
,
0100
0001
0000
0001
0010
1000
0010
0000
,
0011
0000
1000
0010
0000
0010
0001
0000
,
0010
1000
0000
1000
0100
0001
0100
1000
,
0010
0100
0001
0010
0000
0011
0000
1100
,
0000
0000
0000
0000
;
#NOTES:
     dance-single:
     :
     Hard:
     14:
     :
0000
0000
0000
0000
,
0000
0000
0000
0000
,
0000
0000
0000
0000
,
0000
0000
0000
0000
,
0000
0000
0000
0000
,
0010
0000
1000
0100
0000
0010
0001
0010
,
1000
0000
0010
0001
0100
0010
0000
0010
,
1000
0000
0001
0100
1000
0100
0000
0001
,
0010
0000
0100
0000
0000
0000
0010
0000
0100
1000
0100
0000
0010
0000
0100
0000
,
1001
0000
0010
0000
0100
0000
0010
0000
0001
0000
0100
0000
0010
0100
0001
0000
,
1000
0000
0100
0000
0001
0000
0100
0000
0010
0000
1000
0000
0010
0001
0100
0000
,
0001
0000
0100
0000
1000
0000
0100
0000
0010
0000
1000
0000
0001
1000
0100
0000
,
0010
0000
0001
0000
0100
0000
0010
0000
1000
0000
0001
0000
0010
0100
1000
0000
,
0010
0000
0100
0000
0001
0000
0010
0000
1000
0000
0010
0000
0001
0100
0010
0000
,
1000
0000
0010
0000
0001
0000
0010
0000
1000
0000
0100
0000
0010
0100
1000
0000
,
0010
0000
0100
0000
0001
0000
0010
0000
1000
0000
0010
0000
0001
1000
0100
0000
,
0010
0000
0100
0000
1000
0000
0100
1000
0000
0000
0010
0000
1000
0001
0100
0000
,
1001
0000
0000
0000
0000
0000
0001
0100
,
0000
1010
0000
0101
0000
1001
0000
0000
,
0020
0000
0000
0230
0000
0000
0320
0000
,
0000
0032
0000
0000
2003
0000
0000
0000
,
3002
0000
0013
0000
0100
1000
0001
1000
,
0000
1100
0000
0101
0000
0100
0010
0000
,
2002
0000
0000
3003
0000
0000
2020
0000
0000
3030
0000
0000
0202
0000
0000
0303
,
0000
0000
2002
0000
0000
3003
0000
0000
0220
0000
0000
0000
0330
0000
0000
0000
,
1100
0100
0010
0011
0000
0001
0101
0100
,
0010
1000
0000
0000
1000
0001
0100
0010
,
0110
1000
0001
1001
1000
0010
0110
0000
,
0000
0000
1000
0000
0001
0000
0000
0000
0001
0000
1000
0000
0001
1000
0001
0000
,
1001
0010
0100
0110
0001
1000
1001
0001
,
0100
0010
0010
0000
1000
0001
0110
1000
,
1001
0100
0010
0001
1000
0100
0010
0001
,
0001
0100
0010
1000
0001
0100
0010
1000
,
0010
1000
0010
0000
0100
0001
0100
0000
0001
0010
0001
0000
0010
0100
0010
0000
,
0100
1000
0100
0000
1000
0100
1000
0000
0100
0010
0100
1000
0001
0000
0000
0000
,
0100
0010
1000
0010
0000
0010
1000
0010
,
0100
0000
0001
0000
0000
0000
1000
0000
0100
1000
0100
0000
0010
0000
0001
0000
,
0010
1000
0010
0001
0000
0001
0010
1000
,
0010
0000
0001
0000
0000
0000
0100
0000
0010
1000
0010
0000
0100
0010
0100
0000
,
0010
1000
0100
0001
0000
0001
0100
1000
,
0010
0000
0100
0000
0000
0000
0010
0000
1000
0100
1000
0000
0001
0100
0001
0000
,
0010
0100
1000
0010
0000
0010
1000
0010
,
0001
0000
0010
0000
1000
0000
0100
0010
0000
0000
0100
0000
0010
0001
1000
0000
,
0010
0100
1000
0001
0000
0001
0010
1000
,
0100
0000
0001
0000
0000
0000
0100
0000
0010
0100
0010
0000
0100
0000
0100
0000
,
0010
0001
0100
1000
0000
1000
0100
0010
,
1000
0000
0001
0000
1000
0000
0010
0000
0100
0001
1000
0000
0001
0000
0001
0000
,
0100
0010
1000
0100
0000
0100
0010
0001
,
0010
0000
1000
0000
0000
0000
1000
0000
0010
0001
0010
0000
0100
0000
0100
0000
,
0010
0001
0010
1000
0000
1000
0001
0100
,
1000
0000
0100
0000
0010
0000
0001
0000
1000
0100
1000
0000
0001
0000
0001
0000
,
0002
0000
0100
0203
0000
0010
0320
0000
,
1000
2030
0000
0000
0000
0000
0000
0000
,
3002
0000
0010
0023
0000
0100
0230
0000
,
1000
2300
0000
0000
0000
0000
0000
0000
,
3001
0000
0100
0000
0010
0000
1000
0000
0100
0000
1000
0000
0100
1000
0100
0000
,
1000
0000
0100
0000
0010
0000
0001
0000
0100
0000
0001
0000
0100
0001
0100
0000
,
0010
0000
0010
0000
1000
0000
0001
0000
0100
0000
0010
0000
0100
0010
0100
0000
,
0000
0001
0100
0010
1000
0100
1001
0000
,
1000
0010
0100
0101
0000
0110
0000
2100
,
0000
3010
1000
0100
0001
0100
1200
0000
,
1300
0010
0001
0110
0000
0101
0000
2100
,
0000
0000
3010
0000
0100
0000
0001
0000
0010
0001
0020
0000
0000
0000
0000
0000
,
0031
0100
1000
1100
0000
0110
0000
0201
,
0000
0000
0301
0000
0010
0000
0100
0000
1000
0100
2000
0000
0000
0000
3000
0000
,
1001
0100
0010
0110
0100
0010
1001
1000
,
0001
0000
0100
0000
0010
0100
0010
0100
0000
0000
0000
0000
0000
0000
0000
0000
,
1000
0000
0100
0000
0010
0000
0001
0010
0000
0000
0001
0000
0100
0000
0010
0000
,
1000
0000
0100
0010
0000
0000
0001
0000
0010
0000
1000
0000
0010
0000
0001
0000
,
0100
0000
0010
0000
1000
0000
0001
0100
0000
0000
0010
0000
1000
0000
0001
0000
,
1000
0000
0010
0100
0000
0000
0001
0000
0010
0000
0100
0000
1000
0000
0010
0000
,
0110
0000
0100
0000
0010
0000
1000
0100
0000
0000
0100
0000
0110
0000
0010
0000
,
0001
0000
0100
0010
0000
0000
0010
0000
1000
0000
0001
0000
0100
0000
0010
0000
,
0100
0010
1000
0001
0000
0010
0100
1000
,
0001
0000
0100
0010
1000
0000
0100
0010
0001
0000
0100
0010
0100
0010
0100
0000
,
0010
1000
0001
0100
0000
1100
0000
0101
,
0000
0000
0000
0000
;
#NOTES:
     dance-single:
     :
     Challenge:
     16:
     :
0000
0000
0000
0000
,
0000
0000
0000
0000
,
0000
0000
0000
0000
,
0000
0000
0000
0000
,
0000
0000
0000
0000
,
0001
0001
1000
0100
1000
0001
0100
0010
,
1000
1000
0001
0010
0001
1000
0010
0100
,
0001
0001
0010
0100
1000
0010
0100
0001
,
0020
0000
0100
0000
0000
0000
0031
0000
0010
0001
1000
0000
0010
0000
0100
0000
,
1001
0000
1000
0001
0010
1000
1010
0000
,
0110
0000
0001
1000
0010
0001
0011
0000
,
0110
0000
0010
1000
0100
0001
0101
0000
,
0100
0000
1000
0000
0001
0000
0100
0000
0010
1000
0001
0000
0010
0001
1000
0000
,
1001
0000
0001
1000
0010
0001
0011
0000
,
0110
0000
1000
0001
0010
1000
1010
0000
,
0110
0000
0010
0001
0100
1000
1100
0000
,
0100
0000
0001
0000
0011
0000
0000
1001
0000
0000
1100
0000
0001
1000
0100
0000
,
0020
0000
0030
0000
0000
0000
0001
0200
,
0000
1000
0000
0010
0000
0301
0000
0000
,
0002
0000
0000
0010
0000
0000
1000
0000
,
0000
0010
0000
0000
0200
0000
0303
0000
,
2002
3003
0000
0000
0000
0000
1000
0200
,
0000
0001
0000
0010
0000
1300
0000
0000
,
2020
3030
0000
0202
0303
0000
0022
0033
,
0000
2200
3300
0000
0220
0000
0330
0000
,
0011
0001
1000
1200
0000
0310
1100
1000
,
0001
0201
0000
0010
0000
1300
0100
0001
,
0101
1000
0001
0021
0000
0130
0011
1000
,
0020
0000
0100
0000
0000
0000
0001
0000
0000
0000
1030
0000
0001
1000
0010
0000
,
1010
1000
0001
0201
0000
0310
0101
0001
,
1000
1200
0000
0010
0000
0301
0100
1000
,
1100
0001
1000
0010
0100
0001
0010
0100
,
1000
0010
0100
0001
0010
0001
0100
0010
,
1000
0001
0010
0001
1000
0010
1000
0001
0010
0100
1000
0001
0100
0010
1000
0100
,
0010
0001
0100
0001
0010
0100
1000
0010
1000
0100
0010
0001
1000
0000
0000
0000
,
0001
0010
0100
0000
0001
0000
0100
0010
0001
0000
0100
0000
0001
0100
0010
0000
,
0001
0000
0010
0100
0001
0000
1000
0000
0100
0010
0100
0000
1000
0000
0010
0000
,
1000
0010
0100
0000
1000
0000
0100
0010
1000
0000
0100
0000
1000
0100
0010
0000
,
1000
0000
0010
0100
1000
0000
0001
0000
0100
0010
0100
0000
0001
0000
1000
0000
,
0001
0010
0100
0000
0001
0000
1000
0010
0100
0000
1000
0000
0001
0100
0010
0000
,
0001
0000
1000
0100
0010
0000
1000
0000
0001
1000
0001
0000
0010
0000
0100
0000
,
1000
0010
0100
0000
1000
0000
0001
0010
0100
0000
0001
0000
1000
0100
0010
0000
,
1000
0000
0001
0100
0010
0000
0000
0110
0000
0000
0001
0000
1001
0000
0000
0000
,
1000
0010
0100
0000
1000
0000
0100
0010
1000
0000
0100
0000
1000
0100
0010
0000
,
1000
0000
0010
0100
1000
0000
0001
0000
0100
0010
0100
0000
0001
0000
1000
0000
,
0001
0010
0100
0000
0001
0000
0100
0010
0001
0000
0100
0000
0001
0100
0010
0000
,
0001
0000
0010
0100
0001
0000
1000
0000
0100
0010
0100
0000
1000
0000
0001
0000
,
1000
0010
0100
0000
1000
0000
0001
0010
0100
0000
0001
0000
1000
0100
0010
0000
,
1000
0000
0001
0100
0010
0000
0001
0000
1000
0001
1000
0000
0010
0000
0100
0000
,
0001
0010
0100
0000
0001
0000
1000
0010
0100
0000
1000
0000
0001
0100
0010
0000
,
0001
0000
1000
0100
0010
1000
0001
0010
0100
1000
0001
0100
0010
0000
0000
0000
,
2000
0000
3100
0020
0000
0031
2000
0000
,
3001
0200
0000
0000
1000
0000
0010
0000
,
0301
0000
0100
0020
0000
1030
0001
0000
,
1000
0200
0000
0000
0001
0000
0010
0000
,
1300
0100
0100
1000
0001
0100
0100
0001
,
1000
0010
0010
1000
0001
0010
0010
0100
,
1000
1000
0010
0010
0100
0100
0001
0020
,
0000
1030
0010
0001
0100
0010
0110
0000
,
0201
0000
0000
0010
0000
0001
0000
0010
,
0000
1300
0100
0001
1000
0100
0010
0000
,
1200
1000
0000
0010
0000
1000
0000
0010
,
0000
0301
0100
1000
0001
0200
0010
0310
,
0100
0001
0010
0100
0000
0110
0000
1001
,
0000
1000
0010
0100
0001
0020
0100
0130
,
0110
0001
1000
0110
0001
1000
0110
0001
,
0100
0000
0010
0000
1000
0001
1000
0001
0000
0000
0000
0000
0000
0000
0000
0000
,
1000
0100
0001
0000
0100
0000
0010
0001
1000
0000
0001
0000
1000
0010
0001
0000
,
0010
0000
0100
0001
1000
0000
0001
0000
1000
0100
0010
0000
0100
0000
1000
0000
,
0001
0100
1000
0000
0100
0000
0010
1000
0001
0000
1000
0000
0001
0010
1000
0000
,
0010
0000
0100
1000
0001
0000
1000
0000
0001
0100
0010
0000
0100
0000
0001
0000
,
1000
0100
0010
0000
1000
0000
0001
0100
1000
0000
0001
0000
1000
0010
0100
0000
,
1000
0000
0001
0010
1000
0000
0001
0000
1000
0100
0010
0000
0100
0000
1000
0000
,
0001
0100
0010
0000
0001
0000
1000
0100
0001
0000
1000
0000
0001
0010
0100
0000
,
0001
0000
1000
0010
0001
0000
1000
0010
0001
0010
0100
0001
1000
0001
0010
0100
,
1000
0001
0200
1000
0000
0010
0000
0002
,
0000
0300
0000
0003
0000
0000
0000
0000
,
0000
0000
0000
0000
;
#NOTES:
     dance-double:
     :
     Easy:
     8:
     :
00000000
00000000
00000000
00000000
,
00000000
00000000
00000000
00000000
,
00000000
00000000
00000000
00000000
,
00000000
00000000
00000000
00000000
,
00000000
00000000
00000000
00000000
,
00000001
00000000
00000000
00000010
00000000
00000001
00000000
00000000
,
00001000
00000000
00000000
00000100
00000000
00010000
00000000
00000000
,
00001000
00000000
00000000
00100000
00000000
00010000
00000000
00000000
,
01000000
00000000
00000000
00100000
00000000
10000000
00000000
00000000
,
01100000
00100000
01000000
00010000
,
00100000
00001000
00000100
00000001
,
00001001
00000001
00000010
00000100
,
00010000
00001000
01000000
00100000
,
10010000
01000000
00100000
01000000
,
00001000
00010000
00000100
00000010
,
00001001
00000100
00000010
00010000
,
00001000
01000000
00010000
00100000
,
10020000
00000000
00000000
00000000
,
00000000
00000000
00000000
00000000
,
00032000
00000000
00000000
00000000
,
00000000
00000000
00000000
00000000
,
00003100
00000000
00000001
00000000
,
00000010
00000000
00001000
00000000
,
00010000
00000000
00000000
00001000
00000000
00000000
00010000
00000000
,
00000000
00001000
00000000
00000000
00010000
00000000
00000000
00000000
,
00011000
00000000
00000000
00110000
00000000
00000000
10010000
00000000
,
00000000
00000000
00001000
00010000
,
00011000
00000000
00000000
00001010
00000000
00000000
00001001
00000000
,
00000000
00000000
00000010
00000100
,
00001001
00000000
00000000
00001100
00000000
00000000
00010100
00000000
,
00000000
00000000
00010000
00001000
,
00010000
00010000
00100000
00100000
,
10000000
10000000
01000000
01000000
,
00100000
00010000
00001000
00000100
,
00000010
00000100
00000010
00000000
00000001
00000000
00000110
00000000
,
00000001
00000010
00000100
00001000
,
00010000
00100000
00010000
01000000
,
00100000
10000000
01000000
00010000
,
00001000
00000100
00000001
00000010
,
00001000
00000010
00000001
00000010
,
00001000
00010000
01000000
10000000
,
00100000
00010000
00001000
00000100
,
00001000
00010000
01000000
00100000
,
00010000
00010000
01000000
00100000
,
00010000
00000000
00001000
00000000
00010000
00001000
00010000
00000000
,
00001000
00001000
00000100
00000010
,
00010000
00000000
00001000
00000000
00010000
00001000
00010000
00000000
,
00001000
00100000
00010000
01000000
,
00100000
00000000
10000000
00000000
01000000
00100000
01000000
00000000
,
00010000
00001000
00000100
00000001
,
00000010
00000000
00000100
00000000
00000010
00000100
00001000
00000000
,
00002001
00000000
00003002
00000000
,
00000203
00000000
00000320
00000000
,
00020030
00000000
00032000
00000000
,
02003000
00000000
03200000
00000000
,
10300000
10000000
00010000
00110000
,
00001000
00001000
01000000
01001000
,
00010000
00010000
00001000
00001000
,
00000200
00000000
00000000
00000310
,
00001000
00000001
00000010
00000010
,
00001000
00020000
00001000
00031000
,
00100000
00010000
01000000
00100000
,
10000000
02000000
00100000
03100000
,
00010000
01000000
00001000
00001000
,
00000100
00000020
00000100
00000130
,
00000010
00000000
00000000
00001000
00000000
00000000
00000100
00000000
,
00010000
00001000
00000000
00000000
,
00011000
00010000
00100000
10000000
,
01000000
00010000
00001000
00000100
,
00000110
00000010
00001000
00010000
,
01000000
00100000
10000000
01000000
,
10010000
00100000
00010000
00001000
,
00000100
00000010
00000001
00000100
,
00001001
00000100
00001000
00010000
,
01000000
10000000
01100000
10010000
,
00100000
00000000
01000000
00000000
00000000
00001000
00000000
00010000
,
00000000
00000000
00000000
00000000
;
#NOTES:
     dance-double:
     :
     Medium:
     12:
     :
00000000
00000000
00000000
00000000
,
00000000
00000000
00000000
00000000
,
00000000
00000000
00000000
00000000
,
00000000
00000000
00000000
00000000
,
00000000
00000000
00000000
00000000
,
00001000
00000000
00000010
00000100
00000000
00001000
00010000
00000000
,
00010000
00000000
01000000
00100000
00000000
00001000
00010000
00000000
,
00010000
00000000
00000100
00000010
00000000
00000001
00000010
00000000
,
00000100
00010000
00000000
00010000
00000100
00001000
00010000
00100000
,
01000000
00000000
10000000
01000000
00000000
00100000
00010000
00100000
,
01000000
00000000
00010000
00001000
00000000
00001000
00010000
00000000
,
00011000
00000000
00001000
00000100
00000000
00000100
00000001
00000010
,
00000100
00000000
00010000
00001000
00000000
00001000
00010000
00000000
,
00011000
00000000
00010000
00100000
00000000
10000000
01000000
00100000
,
10000000
00000000
00100000
00010000
00000000
00010000
01000000
00000000
,
00011000
00000000
00001000
00000100
00000000
00000001
00000010
00000100
,
00000001
00000000
00000100
00001000
00000000
00001000
00000010
00000000
,
00000110
00000000
00000000
00000000
00000000
00000000
00000001
00000100
,
00000000
00001000
00000000
00010000
00000000
01000000
00000000
00000000
,
10000000
00000000
00000000
00100000
00000000
00000000
00010000
00000000
,
00000000
01000000
00000000
00000000
10000000
00000000
01000000
00000000
,
01100000
00000000
10000000
00000000
01000000
00010000
00001000
00000100
,
00000000
00000001
00000000
00001000
00000010
00000100
00000000
00000000
,
00000020
00000000
00000000
00002030
00000000
00000000
00003200
00000000
,
00000000
00020300
00000000
00000000
01030000
00000000
00000000
00000000
,
10000000
01000000
00100000
00010000
00000000
00100000
00001000
00010000
,
00100000
10000000
00000000
00000000
00010000
00000000
00001000
00000000
,
00010000
00001000
00000100
00000010
00000000
00000001
00000010
00001000
,
00000100
00010000
00000000
00000000
00001100
00000000
00000101
00000000
,
00000001
00000100
00001000
00010000
00000000
00001000
00000100
00001000
,
00010000
01000000
00000000
00000000
00100000
00000000
01000000
00000000
,
10000000
00100000
01000000
00010000
00000000
00100000
01000000
00010000
,
00000000
01000000
00010000
00001000
00000000
00010000
00001000
00000100
,
00000000
00000010
00001000
00000100
00000010
00000001
00000100
00001000
,
00010000
00001000
00010000
00011000
,
00001000
00010000
00001000
00100000
00000000
00010000
01000000
10000000
,
01000000
00010000
00000000
00100000
00010000
00000000
11000000
00000000
,
00100000
01000000
00001000
00010000
00000000
00001000
00010000
00001000
,
00000100
00000001
00000000
00001000
00000010
00000000
00000101
00000000
,
00000001
00000100
00001000
00010000
00000000
00000100
00000010
00000100
,
00001000
00010000
00000000
00100000
00010000
00000000
11000000
00000000
,
00100000
10000000
01000000
00010000
00000000
00010000
00001000
00000100
,
00000001
00000010
00000000
00000100
00000010
00000000
00000110
00000000
,
00000001
00000000
00000010
00000100
00000000
00001000
00000100
00010000
,
00000000
00001000
00010000
00000000
01000000
10000000
00100000
00000000
,
10000000
00000000
01000000
00100000
00000000
00001000
00010000
00000010
,
00000000
00001000
00000100
00000000
00000010
00000100
00001000
00000000
,
00000001
00000010
00001000
00000010
00000000
00000010
00001000
00010000
,
00001000
01000000
00000000
00100000
10000000
00010000
01000000
00000000
,
10000000
00100000
00010000
00100000
00000000
00100000
00010000
00001000
,
00010000
00000100
00000000
00000010
00000001
00001000
00000100
00000000
,
00000200
00000000
00002300
00000000
,
00003020
00000000
00020030
00000000
,
00032000
00000000
00203000
00000000
,
02300000
00000000
23000000
00000000
,
30100000
01000000
00100000
01000000
00010000
00000000
01001000
00000000
,
00010000
00000100
00010000
00000100
00000010
00000000
00000011
00000000
,
00000100
00000010
00010000
00001000
,
00000000
01000000
10000000
00100000
01000000
00010000
01010000
00000000
,
10000000
01000000
00100000
00020000
00000000
02030000
00000000
03002000
,
00000000
00013000
00000010
00000000
00001000
00000010
00000001
00000000
,
00000010
00001000
00000100
00020000
00000000
00032000
00000000
02003000
,
00000000
03010000
10000000
00100000
00010000
00100000
01000000
00000000
,
10000000
01000000
00010000
02000000
00000000
03002000
00000000
00023000
,
00000000
00030010
00010000
00001000
00000010
00000001
00000100
00000000
,
00000010
00000000
00001000
00010000
00000000
01000000
00010000
00000000
,
00100000
01000000
00100000
01000000
00000000
00000000
00000000
00000000
,
10010000
00000000
00100000
00010000
00000000
00010000
01000000
00001000
,
00010000
00000100
00000000
00000010
00000001
00000000
00000110
00000000
,
00001001
00000000
00000100
00001000
00000000
00001000
00000010
00010000
,
00001000
00100000
00000000
01000000
10000000
00000000
01100000
00000000
,
10100000
00000000
10000000
01000000
00000000
01000000
00010000
00000000
,
00001000
00000010
00000000
00001000
00000010
00000001
00000100
00000000
,
00000101
00000000
00000001
00000010
00000000
00000010
00001000
00000000
,
00010000
01000000
00000000
00010000
01000000
10000000
00100000
00000000
,
10000000
00010000
00100000
01000000
00000000
00110000
00000000
11000000
,
00000000
00000000
00000000
00000000
;
#NOTES:
     dance-double:
     :
     Hard:
     15:
     :
00000000
00000000
00000000
00000000
,
00000000
00000000
00000000
00000000
,
00000000
00000000
00000000
00000000
,
00000000
00000000
00000000
00000000
,
00000000
00000000
00000000
00000000
,
10000000
00000000
00100000
01000000
00000000
00010000
00100000
00010000
,
01000000
00000000
00001000
00000100
00000010
00001000
00000000
00000001
,
00000010
00000000
00001000
00000010
00000001
00000100
00000000
00001000
,
00010000
00000000
01000000
00000000
00000000
00000000
00100000
00000000
01000000
10000000
01000000
00000000
00100000
00000000
00010000
00000000
,
00110000
00000000
00100000
00000000
00001000
00000000
00010000
00000000
00000100
00000000
00000010
00000000
00000001
00000010
00000100
00000000
,
00001000
00000000
00000010
00000000
00000001
00000000
00000010
00000000
00001000
00000000
00000100
00000000
00010000
00001000
00010000
00000000
,
00001000
00000000
00100000
00000000
00010000
00000000
00100000
00000000
10000000
00000000
00100000
00000000
00010000
01000000
00100000
00000000
,
01000000
00000000
10000000
00000000
01000000
00000000
00010000
00000000
00100000
00000000
00001000
00000000
00010000
00001000
00010000
00000000
,
00000010
00000000
00000100
00000000
00000001
00000000
00000100
00000000
00001000
00000000
00000100
00000000
00000001
00000100
00000010
00000000
,
00001000
00000000
00000100
00000000
00010000
00000000
00001000
00000000
00100000
00000000
10000000
00000000
00100000
01000000
00100000
00000000
,
00010000
00000000
00100000
00000000
10000000
00000000
00100000
00000000
00010000
00000000
01000000
00000000
00001000
00010000
00000100
00000000
,
00001000
00000000
00000100
00000000
00000001
00000000
00000100
00001000
00000000
00000000
00000100
00000000
00001000
00000100
00010000
00000000
,
00011000
00000000
00000000
00000000
00000000
00000000
00010000
00001000
,
00000000
00100000
00000000
00010000
00000000
01000000
00000000
00000000
,
00200000
00000000
00000000
02300000
00000000
00000000
03002000
00000000
,
00000000
00003200
00000000
00000000
00000302
00000000
00000000
00000000
,
00000023
00000000
00000130
00000000
00001000
00000100
00010000
00001000
,
00000000
01000000
00000000
00010000
00000000
00100000
01000000
00000000
,
20200000
00000000
00000000
30300000
00000000
00000000
02020000
00000000
00000000
03030000
00000000
00000000
00022000
00000000
00000000
00033000
,
00000000
00000000
00002200
00000000
00000000
00003300
00000000
00000000
00000220
00000000
00000000
00000000
00000330
00000000
00000000
00000000
,
00000001
00000100
00001000
00011000
00000000
00001000
00011000
00010000
,
01000000
10000000
00000000
00000000
10000000
00010000
01000000
00100000
,
01100000
01000000
00001000
00011000
00010000
00000100
00000110
00000000
,
00000000
00000000
00000001
00000000
00000010
00000000
00000000
00000000
00000100
00000000
00001000
00000000
00000100
00001000
00000100
00000000
,
00001100
00010000
00001000
00011000
00100000
00010000
10010000
10000000
,
00010000
01000000
01000000
00000000
00100000
01000000
10010000
00100000
,
01100000
10000000
01000000
00010000
01000000
00010000
00001000
00010000
,
00001000
00000010
00001000
00000010
00000001
00000100
00000001
00000010
,
00000001
00000100
00001000
00010000
01000000
10000000
00100000
01000000
,
00100000
01000000
00100000
00000000
10000000
01000000
10000000
00000000
01000000
00010000
00001000
00010000
00001000
00000000
00000000
00000000
,
00010000
00001000
00100000
01000000
00000000
01000000
10000000
00100000
,
00010000
00000000
00001000
00000000
00000000
00000000
00010000
00000000
00001000
00010000
00001000
00000000
00010000
00000000
00000100
00000000
,
00000001
00000100
00001000
00000010
00000000
00000010
00001000
00000100
,
00000001
00000000
00000100
00000000
00000000
00000000
00010000
00000000
00001000
00010000
00100000
00000000
01000000
00100000
01000000
00000000
,
00100000
10000000
01000000
00010000
00000000
00010000
00001000
00000100
,
00001000
00000000
00010000
00000000
00000000
00000000
00001000
00000000
00000100
00001000
00000100
00000000
00000010
00000100
00000001
00000000
,
00000010
00000100
00010000
00001000
00000000
00001000
00100000
10000000
,
00100000
00000000
01000000
00000000
10000000
00000000
00100000
00010000
00000000
00000000
00100000
00000000
10000000
01000000
00100000
00000000
,
00010000
00100000
00001000
00010000
00000000
00010000
00001000
00010000
,
00000100
00000000
00000010
00000000
00000001
00000000
00001000
00000000
00000100
00000010
00000100
00000000
00001000
00000000
00001000
00000000
,
00000100
00010000
00001000
01000000
00000000
01000000
00100000
10000000
,
00100000
00000000
00010000
00000000
00100000
00000000
01000000
00000000
00100000
00010000
00001000
00000000
00010000
00000000
00010000
00000000
,
00000100
00001000
00000010
00000001
00000000
00000001
00000010
00001000
,
00000100
00000000
00010000
00000000
00000000
00000000
00001000
00000000
00010000
01000000
00100000
00000000
01000000
00000000
01000000
00000000
,
10000000
00100000
00010000
00100000
00000000
00100000
00010000
00001000
,
00000100
00000000
00000001
00000000
00000100
00000000
00000010
00000000
00001000
00000100
00001000
00000000
00000100
00000000
00000100
00000000
,
00010000
00001000
00000000
00010000
00001000
00100000
00000000
00010000
,
10000000
01000000
00000000
00100000
00010000
01000000
00000000
00010000
,
00100000
00001000
00000000
00010000
00000100
00000010
00000000
00000001
,
00000100
00000010
00000000
00001000
00000100
00010000
00000000
00001000
,
00011000
00000000
00000000
00000000
00100000
00000000
00010000
00000000
01000000
00000000
00100000
00000000
10000000
01000000
10000000
00000000
,
11000000
00000000
00000000
00000000
00100000
00000000
00010000
00000000
01000000
00000000
00001000
00000000
00010000
00001000
00010000
00000000
,
00001000
00001000
00000100
00000100
00000010
00001000
00000001
00000100
,
00000000
00000001
00000100
00001000
00010000
01000000
01100000
00000000
,
00010000
00100000
01000000
01100000
00000000
00101000
00000000
00021000
,
00000000
00030100
00001000
00000010
00000001
00000010
00000120
00000000
,
00000130
00001000
00010000
00011000
00000000
00101000
00000000
01020000
,
00000000
00000000
00130000
00000000
00001000
00000000
00010000
00000000
00001000
00010000
00002000
00000000
00000000
00000000
00000000
00000000
,
00013000
01000000
10000000
11000000
00000000
01100000
00000000
00201000
,
00000000
00000000
00301000
00000000
00010000
00000000
00001000
00000000
00000100
00000001
00000020
00000000
00000000
00000000
00000030
00000000
,
00000110
00000100
00001000
00001100
00000100
00010000
00011000
00001000
,
00100000
00000000
00010000
00000000
10000000
00010000
10000000
00010000
00000000
00000000
00000000
00000000
00000000
00000000
00000000
00000000
,
00100000
00000000
10000000
00000000
01000000
00000000
00010000
00001000
00000000
00000000
00010000
00000000
00001000
00000000
00000100
00000000
,
00000001
00000000
00000010
00000100
00000000
00000000
00000010
00000000
00000001
00000000
00000100
00000000
00000010
00000000
00001000
00000000
,
00000010
00000000
00000100
00000000
00001000
00000000
00010000
00100000
00000000
00000000
00010000
00000000
00100000
00000000
10000000
00000000
,
01000000
00000000
00100000
00010000
00000000
00000000
00010000
00000000
00100000
00000000
01000000
00000000
10000000
00000000
00010000
00000000
,
00100000
00010000
00100000
00000000
00001000
00000000
00010000
00001000
00000000
00000000
00010000
00001000
00010000
00000000
00001000
00000000
,
00000100
00000000
00000010
00000100
00000000
00000000
00000010
00000000
00001000
00000000
00000001
00000000
00000100
00000000
00001000
00000000
,
00010000
00000100
00010000
00001000
00000000
00010000
00001000
01000000
,
10000000
00000000
01000000
00100000
01000000
00000000
00010000
01000000
00100000
00000000
10000000
01000000
10000000
01000000
10000000
00000000
,
01000000
00010000
00001000
00000100
00000000
00001100
00000000
00000101
,
00000000
00000000
00000000
00000000
;
#NOTES:
     dance-double:
     :
     Challenge:
     16:
     :
00000000
00000000
00000000
00000000
,
00000000
00000000
00000000
00000000
,
00000000
00000000
00000000
00000000
,
00000000
00000000
00000000
00000000
,
00000000
00000000
00000000
00000000
,
00011000
00001000
00100000
01000000
00010000
10000000
00100000
00001000
,
00011000
00010000
00000010
00000100
00001000
00000001
00000010
00010000
,
00011000
00001000
01000000
00100000
00010000
10000000
01000000
00001000
,
00011000
00000000
00010000
00000000
00000100
00000000
00000010
00000000
00001000
00000001
00001000
00000000
00000010
00000000
00000100
00000000
,
00010000
00000000
00001000
00000000
00000100
00000000
00000010
00000000
00001000
00000000
00000001
00000000
00000100
00000000
00001000
00010000
,
00100000
00000000
01000000
00000000
00010000
00000000
01000000
00000000
00001000
00000000
00010000
00000000
01000000
00000000
10000000
00100000
,
01000000
00000000
00010000
00000000
00100000
00000000
00001000
00000000
00010000
00000000
00000100
00000000
00000010
00000000
00000001
00001000
,
00000010
00000000
00000100
00000000
00010000
00000000
00000100
00000000
00000010
00000000
00010000
00000000
00001000
00000000
00000010
00000100
,
00001000
00000000
00000010
00000000
00010000
00000000
00001000
00000000
00010000
00000000
01000000
00000000
10000000
00000000
00010000
01000000
,
10000000
00000000
01000000
00000000
00010000
00000000
00100000
00000000
00001000
00000000
00010000
00000000
00000010
00000000
00001000
00000100
,
00000001
00000000
00000100
00000000
00001000
00000000
00000010
00000000
00010000
00000000
00001000
00000000
01000000
00000000
00010000
00100000
,
01000000
00000000
10000000
00000000
00010000
00000000
01000000
00100000
00000000
00000000
00010000
00000000
00001000
00010000
00000100
00000000
,
00000120
00000000
00000030
00000002
00000000
00000003
00000200
00000000
,
00000300
00002000
00000000
00003000
00200000
00000000
00300000
00000000
,
00002000
00000000
00003000
00000200
00000000
00000300
00000002
00000000
,
00000003
00000020
00000000
00000030
00000200
00000000
00000300
00000000
,
00020000
00000000
00030000
00200000
00000000
00300000
20000000
00000000
,
30000000
02000000
00000000
03000000
00200000
00000000
00300000
00000000
,
00002000
00000000
00003000
00000200
00000000
00000300
00000002
00000000
,
00000003
00000000
00000020
00000000
00000000
00000000
00000030
00000000
00000100
00000000
00001000
00000010
00010000
00001000
00010000
00000000
,
00022000
00000000
00033000
00202000
00000000
00303000
02200000
00000000
,
00000000
00000000
00000000
03300000
00001000
00010000
01000000
10000000
,
22000000
00000000
33000000
00202000
00000000
00303000
00022000
00000000
,
00000000
00000000
00000000
00033000
00010000
00100000
00010000
00001000
,
00020200
00000000
00030300
00000022
00000000
00000033
00002002
00000000
,
00000000
00000000
00000000
00003003
00000001
00000010
00000100
00001000
,
00002002
00000000
00000000
00000000
00003003
00000000
00000000
00000000
00000001
00000100
00000001
00000100
00000001
00000100
00000001
00000100
,
00000001
00001000
00000010
00001000
00000001
00000100
00000001
00000010
00000100
00001000
00000001
00000100
00000001
00000010
00000100
00001000
,
00000001
00000100
00000010
00001000
00000001
00000010
00000100
00001000
00000100
00010000
00001000
00010000
00001000
00100000
00010000
00100000
,
01000000
10000000
01000000
10000000
00100000
01000000
00010000
00100000
00001000
00010000
00001000
00000000
00011000
00000000
00000000
00000000
,
00010000
00001000
00000010
00020000
00000000
00030010
00001000
00010000
,
00100000
00002000
00000000
00103000
00010000
00001000
00010000
01000000
,
00001000
00010000
00100000
00002000
00000000
00103000
00010000
00001000
,
00000100
00020000
00000000
00030010
00001000
00010000
01000000
00001000
,
00010000
00001000
00000100
00020000
00000000
00030100
00001000
00010000
,
01000000
00002000
00000000
01003000
00010000
00001000
00010000
00100000
,
00001000
00010000
01000000
00002000
00000000
01003000
00010000
00001000
,
00000010
00000000
00020000
00000000
00000000
00000000
00030100
00001000
00000100
00000000
00010000
00000000
00100000
00000000
01000000
00000000
,
00001000
00000000
00010000
00000000
01000000
00000000
00001000
00010000
00100000
00000000
01000000
00000000
10000000
00000000
00100000
01000000
,
10000000
01000000
00001000
00010000
00000100
00000001
00000100
00001000
,
00000010
00000000
00010000
00000000
00001000
00000000
00010000
00100000
01000000
00000000
00010000
00000000
10000000
00000000
01000000
00010000
,
00001000
00010000
00000010
00000100
00001000
00010000
01000000
00100000
,
00001000
00000000
00010000
00000000
00100000
00000000
10000000
01000000
00100000
00000000
00001000
00000000
01000000
00000000
00100000
00010000
,
00001000
00010000
00001000
00000010
00000001
00000010
00000100
00001000
,
00010000
00000000
10000000
00000000
00100000
00000000
01000000
00010000
00001000
00000000
00000010
00000000
00001000
00000000
00000100
00000000
,
00010000
00000000
00001000
00010000
00001000
00010000
00001000
01000000
00010000
01000000
00100000
10000000
00010000
00000000
00000000
00000000
,
00210000
00000000
00000000
00002000
00000000
00000000
00000000
00300000
,
00000000
00020000
00000000
00003000
00000000
00002000
00030000
00000000
,
00000200
00003000
00000000
00000020
00000300
00000000
00000002
00000000
,
00000003
00002000
00000000
00003000
00020000
00000000
00000000
00030030
,
00010000
00000000
00000100
00000000
00000010
00000000
00001000
00010000
00000010
00000000
00010000
00000000
00000100
00001000
00000010
00000000
,
00010000
00000000
00001000
00000000
00000010
00000000
00000100
00010000
00001000
00000000
00000100
00000000
00000010
00001000
00000001
00000000
,
00001001
00000000
00000000
00001000
00000000
00000000
00001010
00000000
00000000
00000010
00000000
00000000
00010010
00000000
00000000
00010000
00000000
00000000
00011000
00000000
00000000
00001000
00010000
00001000
,
00020000
00000000
00030000
10010000
,
01100000
00000000
00001000
01000000
10100000
00000000
00000000
00100000
,
01000000
00000000
00001000
00000000
00010000
00000000
00001000
00000010
00000001
00000000
00000000
00000000
00000100
00000000
00000000
00000000
,
00000110
00000010
00010000
00000100
00000011
00000001
00000000
00000010
,
00000100
00000000
00010000
00000000
00001000
00000000
00100000
00000000
00110000
00000000
10000000
00000000
00000000
00000000
10000000
01000000
,
00100000
00000000
00001000
00010000
00010100
00000000
00000000
00000011
,
00000010
00000000
00000100
00000000
00010000
00000000
00001000
00010000
00100000
00000000
01000000
00000000
00000000
00000000
00001000
00000000
,
00011000
00000000
00000100
00000000
00000010
00000000
00001001
00000000
00001000
00000000
00000010
00010000
00001000
00000000
00100000
00000000
,
00010000
00000000
00010000
00000000
10000000
00100000
01000000
00010000
00000000
00000000
00000000
00000000
00000000
00000000
00000000
00000000
,
10000000
01000000
00100000
00000000
00010000
00000000
10000000
01000000
00010000
00000000
00001000
00000000
00100000
00010000
00001000
00000000
,
00000100
00000000
00010000
00001000
00000010
00000000
00000001
00000000
00001000
00000100
00000001
00000000
00000100
00000000
00000010
00000000
,
00000001
00000100
00000010
00000000
00001000
00000000
00000001
00000100
00001000
00000000
00010000
00000000
00000010
00001000
00010000
00000000
,
01000000
00000000
00001000
00010000
00100000
00000000
10000000
00000000
00010000
01000000
10000000
00000000
01000000
00000000
00100000
00000000
,
10000000
01000000
00010000
00000000
01000000
00000000
00100000
00010000
00001000
00000000
01000000
00000000
00010000
00001000
00000010
00000000
,
00000100
00000000
00001000
00010000
00000010
00000000
00000100
00000000
00001000
00000100
00000001
00000000
00000100
00000000
00000010
00000000
,
00000001
00000100
00001000
00000000
00000100
00000000
00000010
00001000
00010000
00000000
00000100
00000000
00001000
00010000
00100000
00000000
,
00001000
00000000
00010000
00000000
01000000
00000000
00100000
10000000
00010000
10000000
00010000
10000000
01000000
00100000
00010000
10000000
,
01000000
00010000
00001000
00000200
00000000
00000010
00000000
00000002
,
00000000
00000300
00000000
00000003
00000000
00000000
00000000
00000000
,
00000000
00000000
00000000
00000000
;
