
//----- song ID: reiw -----//
#TITLE:令和;
#ARTIST:ゴールデンボンバー;
#TITLETRANSLIT:Reiwa;
#ARTISTTRANSLIT:Golden Bomber;
#BANNER:Reiwa.png;
#BACKGROUND:Reiwa-bg.png;
#CDTITLE:./CDTitles/DDR A20.png;
#MUSIC:Reiwa.ogg;
#SAMPLESTART:55.659;
#SAMPLELENGTH:15;
#BPMS:0=142;
#NOTES:
     dance-single:
     :
     Beginner:
     3:
     :
0000
0000
0000
0000
,
0000
0000
0000
0000
,
0000
0000
0000
0000
,
0000
0000
0000
0000
,
0000
0000
0000
0000
,
0001
0000
0100
0000
,
1000
0000
0100
0000
,
0001
0000
0100
0000
,
1000
0000
0100
0000
,
0001
0001
0001
0000
,
1000
1000
1000
0000
,
0001
0001
0001
0000
,
0010
0000
0100
0000
,
1000
1000
1000
0000
,
0001
0001
0001
0000
,
1000
1000
1000
0000
,
0010
0000
0100
0000
,
0001
0000
0000
0000
,
0010
0000
0010
0000
,
1000
0000
0000
0000
,
0010
0000
0010
0000
,
0001
0000
0001
0000
,
1000
0000
1000
0000
,
0100
0000
0000
0000
,
1001
0000
0000
0000
,
0002
0000
0003
0000
,
0200
0000
0300
0000
,
2000
0000
3000
0000
,
0020
0000
0030
0000
,
0100
0000
0100
0000
,
0010
0000
0010
0000
,
0100
0000
0100
0000
,
0010
0000
0000
0000
,
0001
1000
0001
0000
,
0010
0000
0010
0000
,
0001
1000
0001
0000
,
0100
0000
0100
0000
,
0001
1000
0001
0000
,
0010
0000
0010
0000
,
1000
0000
0010
0000
,
0100
0000
0001
0000
,
1000
0001
1000
0000
,
0010
0000
0010
0000
,
1000
0001
1000
0000
,
0100
0000
0100
0000
,
1000
0001
1000
0000
,
0010
0000
0010
0000
,
0001
0000
0010
0000
,
0100
0000
1000
0000
,
0001
0001
0001
0000
,
1000
1000
1000
0000
,
0001
0001
0001
0000
,
0010
0000
0100
0000
,
1000
1000
1000
0000
,
0001
0001
0001
0000
,
1000
1000
1000
0000
,
0010
0000
0100
0000
,
0002
0000
0003
0000
,
0200
0000
0300
0000
,
2000
0000
3000
0000
,
0020
0000
0000
0000
,
0030
0000
0000
0000
,
0000
0000
0000
0000
;
#NOTES:
     dance-single:
     :
     Easy:
     4:
     :
0000
0000
0000
0000
,
0000
0000
0000
0000
,
0000
0000
0000
0000
,
0000
0000
0000
0000
,
0000
0000
0000
0000
,
0010
0010
0010
0000
,
0010
0010
0010
0000
,
0010
0010
0010
0000
,
0010
0000
0010
0000
,
0001
0000
0001
0000
,
1000
0000
1000
0000
,
0001
0000
0001
0000
,
1000
1000
0001
0001
,
2000
3000
2000
3000
,
0002
0003
0002
0003
,
2000
3000
2000
3000
,
0001
0001
1000
1000
,
0010
0010
0100
0100
,
0001
0000
0001
0000
,
0010
0010
0100
0100
,
1000
0000
1000
0000
,
0001
0001
1000
1000
,
0001
1000
0001
1000
,
0001
0000
0001
0000
,
1000
0000
1000
0000
,
0002
0000
0000
0003
,
0020
0000
0000
0030
,
2000
0000
0000
3000
,
0200
0000
0000
0300
,
0010
0010
0010
0010
,
0100
0100
0100
0100
,
1000
0010
0001
0010
,
2000
0000
0002
3003
,
0001
0001
0001
1000
,
0002
1000
0000
1003
,
1000
1000
1000
0001
,
2000
0001
0000
3001
,
0001
0001
0001
1000
,
0002
1000
0000
1003
,
1000
0001
1000
0001
,
1000
0001
1000
0001
,
1000
1000
1000
0001
,
2000
0001
0000
3001
,
0001
0001
0001
1000
,
0002
1000
0000
1003
,
1000
1000
1000
0001
,
2000
0001
0000
3001
,
0001
1000
0001
1000
,
0001
1000
0001
1000
,
0001
0000
0001
0000
,
1000
0000
1000
0000
,
0001
0000
0001
0000
,
1000
1000
0001
0001
,
2000
3000
2000
3000
,
0002
0003
0002
0003
,
2000
3000
2000
3000
,
0001
0001
1000
1000
,
2002
0000
0000
0000
,
0000
0000
0000
0000
,
0000
0000
0000
0000
,
0000
0000
0000
0000
,
3003
0000
0000
0000
,
0000
0000
0000
0000
;
#NOTES:
     dance-single:
     :
     Medium:
     7:
     :
0000
0000
0000
0000
,
0000
0000
0000
0000
,
0000
0000
0000
0000
,
0000
0000
0000
0000
,
0000
0000
0000
0000
,
1000
1000
1000
1000
,
0001
0001
0001
0001
,
0010
0010
0100
0100
,
0110
1001
0110
1001
,
1000
0010
1000
0000
0100
0000
0100
0000
,
0010
0001
0010
0000
0100
0000
0100
0000
,
1000
0001
1000
0000
0010
0000
0010
0000
,
0200
0000
0320
0000
,
1030
0100
1000
0000
0001
0000
0001
0000
,
0010
0100
0010
0000
0001
0000
0001
0000
,
1000
0010
1000
0000
0001
0000
0001
0000
,
2000
0000
3002
0000
,
1003
0100
0010
0100
,
0010
0001
0100
0010
,
1000
1000
0001
0001
,
0010
0100
0010
0100
,
0110
0110
1001
1001
,
0110
0000
1001
0000
1000
0001
1000
0000
,
0100
0010
0001
1000
,
0001
0001
1000
1000
,
0010
0000
0000
0010
0000
0000
0000
0000
,
0100
0000
0000
0100
0000
0000
0000
0000
,
0001
0000
0000
0001
0000
0000
0000
0000
,
1000
0000
0000
1000
0000
0000
0000
0000
,
0010
0000
0110
0000
,
0001
0000
1001
0000
,
1000
0100
0010
0001
,
2000
0000
0002
3003
,
0110
1001
0110
1000
,
0001
0000
0100
0000
0010
0100
0010
0000
,
0110
1001
0110
1000
,
0001
0000
0010
0000
0100
0010
0100
0000
,
0110
1001
0110
1000
,
0010
0000
0100
0000
0010
0100
0010
0000
,
0001
0100
0010
1000
,
0100
0010
2002
3003
,
0110
1001
0110
1000
,
0001
0000
0100
0000
0010
0100
0010
0000
,
0110
1001
0110
0001
,
1000
0000
0100
0000
0010
0100
0010
0000
,
0110
1001
0110
0001
,
1000
0000
0001
0000
1000
0100
0010
0000
,
0001
0100
0010
1000
,
0001
0001
1000
1000
,
0010
0010
0100
0100
,
0001
0001
1000
1000
,
0100
0100
0010
0010
,
0001
0010
0001
0000
1000
0010
1000
0000
,
0010
0010
0100
0100
,
0001
0001
1000
1000
,
0100
0100
0010
0010
,
0001
1000
0001
0000
0100
0010
0100
0000
,
0020
0000
0000
0030
,
2000
0000
0000
3000
,
0002
0000
0000
0003
,
0200
0000
0000
0000
,
0300
0000
0000
0000
,
0000
0000
0000
0000
;
#NOTES:
     dance-single:
     :
     Hard:
     10:
     :
0000
0000
0000
0000
,
0000
0000
0000
0000
,
0000
0000
0000
0000
,
0000
0000
0000
0000
,
0000
0000
0000
0000
,
0000
0000
1000
0000
0010
0000
0000
1000
0000
0010
1000
0000
0010
0000
1000
0000
,
0000
0000
0001
0000
0010
0000
0000
0001
0000
0010
0001
0000
0010
0000
0001
0000
,
0000
0000
1000
0000
0001
0000
0000
1000
0000
0001
1000
0000
0001
0000
1000
0000
,
0002
0203
0320
2030
,
3001
1000
0100
0000
1000
0000
0110
0000
,
1000
0001
0100
0000
0010
0000
0110
0000
,
0001
0010
0100
0000
1000
0000
0110
0000
,
2000
0000
3020
0000
0230
0000
0310
0010
,
1000
0010
0100
0000
0001
0010
0100
1000
,
0001
0010
0100
0000
1000
0010
0100
0001
,
1000
0010
0100
0000
0010
0100
0010
1000
,
0002
0203
0320
2030
,
3001
0001
0010
0000
0100
0000
0010
0000
,
0001
0010
0000
0100
1000
0000
1001
0000
,
0010
1000
0010
0000
0100
0001
0100
0010
,
0000
0010
0000
0100
0001
0010
0100
1000
,
0001
0010
0001
0001
1000
0010
1000
1000
,
0000
0110
0000
1001
0001
0001
1000
1000
,
0020
0000
0230
0000
0310
0100
0001
1000
,
0200
0320
0032
2003
,
3001
0000
0000
2200
0000
0000
3300
0000
,
0001
0000
0000
0202
0000
0000
0303
0000
,
0010
0000
0000
0220
0000
0000
0330
0000
,
1000
0000
0000
2002
0000
0000
3003
0000
,
0001
0010
0001
0010
,
0100
1000
0100
1000
,
0010
0100
0001
1000
0010
0100
0001
1000
,
0002
0000
2003
3000
,
1010
0000
0101
0000
1010
0000
0001
0100
,
1000
0100
0001
0010
0100
1000
0001
0000
,
1100
0000
0011
0000
1100
0000
1000
0100
,
0001
0100
1000
0010
0100
0001
1000
0000
,
0110
0000
1001
0000
0110
0000
0001
0010
,
1000
0010
0001
1000
0100
0001
0100
0000
,
0100
1000
1000
0100
0100
0010
0010
0001
,
0002
0000
0023
0100
0000
0130
1000
0000
,
0011
0000
1010
0000
0101
0000
0001
0010
,
1000
0010
0001
0100
1000
0100
0001
0000
,
1010
0000
0011
0000
1100
0000
1000
0010
,
0001
0010
1000
0100
0001
0100
1000
0000
,
1001
0000
0110
0000
1001
0000
1000
0010
,
0100
0001
0010
0100
1000
0010
0100
0000
,
0100
0001
0001
0100
0100
0010
0010
1000
,
1000
0000
0100
0010
0000
0001
1000
0010
,
0100
0000
0110
0000
0100
0001
0010
0000
,
0100
0000
0110
0000
0100
1000
0010
0000
,
0100
0000
1001
0000
1000
0001
0100
0000
,
0002
0023
0230
2300
,
3001
0000
1001
0000
0001
0010
1000
0010
,
0001
0000
1001
0000
1000
0010
0001
0010
,
1000
0000
1001
0000
0001
0010
1000
0010
,
0002
0023
0230
2300
,
3020
0000
0000
0000
,
2030
0000
0000
0000
,
3200
0000
0000
0000
,
0320
0000
0000
0000
,
0030
0000
0000
0000
,
0000
0000
0000
0000
;
#NOTES:
     dance-single:
     :
     Challenge:
     18:
     :
0000
0000
0000
0000
,
0000
0000
0000
0000
,
0000
0000
0000
0000
,
0000
0000
0000
0000
,
0000
0000
0000
0000
,
0000
0000
1000
0000
0010
0000
0000
1000
0000
0100
1000
0000
0001
0100
1000
0000
,
0000
0000
0010
0000
0100
0000
0000
0001
0000
0010
0100
0000
1000
0100
0001
0000
,
0000
0000
0010
0000
0100
0000
0000
1000
0000
0001
0010
0000
0100
1000
0010
0000
,
1000
0010
1000
0010
0000
0000
0100
0001
0100
0001
0000
0000
0010
0100
0010
0100
0000
0000
2002
0000
0000
3003
0000
0000
,
0000
0000
1100
0000
1001
0000
0000
0110
0000
1000
0100
0001
0100
1000
0100
0000
,
0000
0000
0110
0000
1001
0000
0000
0110
0000
0001
0100
1000
0100
0001
0100
0000
,
0000
0000
0011
0000
1100
0000
0000
1001
0000
0010
1000
0100
0010
0001
0100
0010
,
1000
0010
1000
0010
0000
0000
0100
0001
0100
0001
0000
0000
0010
0001
0010
0001
0000
0000
1100
0000
0000
1100
0000
0000
,
0000
0000
1010
0000
0101
0000
0000
1100
0000
1000
0100
0001
0010
1000
0010
0000
,
0000
0000
0011
0000
1100
0000
0000
0101
0000
0001
0100
1000
0010
0001
0010
0000
,
0000
0000
0110
0000
1001
0000
0000
0110
0000
0100
0100
1000
0100
0100
0001
0010
,
0100
0010
0100
0010
0001
1000
0001
1000
0010
0100
0010
0100
0001
1000
0001
1000
0001
1000
0002
0000
0000
0000
0000
0000
,
1003
0010
0001
0010
1000
0000
0110
0000
0100
0001
0010
0000
0100
1000
0010
0000
,
0100
0000
0110
0000
0000
0000
1001
0000
0110
0000
0100
0010
0100
0000
0010
0000
,
1001
0000
0100
0010
0001
0000
0100
0010
1000
0000
0001
0010
1000
0000
0110
0000
,
0000
1001
0000
0110
1010
0101
0011
1100
,
0101
0101
0101
0000
0011
0000
0101
0000
1100
1100
1100
0000
1010
0000
1100
0000
,
0100
0000
0000
1000
0100
0010
0001
0000
0000
0110
0000
0000
0001
0010
1000
0010
0000
0000
1000
0010
0001
0100
0000
0000
,
1010
0000
1000
0010
0100
0000
0001
0010
1000
0000
0010
0001
0100
0000
1000
0100
,
0101
0010
1100
0010
0101
0010
2002
3003
,
0002
0000
0000
0000
,
2003
0000
0000
0000
,
3002
0000
0000
0000
,
2003
0000
0000
0000
0000
0000
0000
0000
0000
0000
0000
0000
3000
0000
1100
0010
,
0001
0000
0101
0010
1000
0000
1010
0100
0001
0000
0011
0100
1000
0000
0001
0100
,
1010
0000
1000
0100
0011
0000
0001
0010
1100
0000
1000
0010
0101
0000
0010
1000
,
0010
1000
0100
0001
0100
1000
0010
0001
0010
1000
0100
0010
0001
1000
0010
0001
,
1000
0000
0000
0100
0000
0000
0001
0000
0000
0010
0000
0000
1000
0000
0000
0010
0000
0000
0001
0000
0000
0100
0000
0000
1000
0000
0001
0000
0010
0000
1000
0000
0001
0000
0010
0000
0100
0000
0000
0000
0000
0000
0000
0000
0000
0000
0000
0000
,
1000
0100
0010
0001
0100
0010
1000
0001
0100
0010
1000
0100
0010
0000
0000
0000
0000
0000
1100
0000
0000
0011
0000
0000
,
0101
0000
1010
0000
0110
0000
0001
0100
0010
0000
1010
0000
0202
0000
0303
0000
,
1000
0010
0001
0010
1000
0100
0010
1000
0001
0100
1000
0010
0100
0000
0000
0000
0000
0000
1010
0000
0000
0101
0000
0000
,
0011
0000
1000
0100
0001
0000
0001
0100
1000
0000
1000
0010
0001
0000
0011
0000
,
0001
0010
0100
0001
0010
0100
0001
0100
1000
0010
0001
0010
0100
0000
0000
0000
0000
0000
1100
0000
0000
0011
0000
0000
,
1100
0000
0000
0202
0000
0000
0303
0000
0000
0101
0000
0000
1010
0000
0000
1000
0100
0010
0001
0000
0000
0000
0000
0000
,
0000
1100
1100
0101
0011
0011
1010
1010
,
0001
0010
0001
0010
0100
1000
0100
1000
0010
0100
0010
0100
0001
1000
0001
0000
,
0001
0010
0100
1000
0010
0100
0001
1000
0010
0100
0001
0010
0110
0000
0000
0000
0000
0000
0011
0000
0000
1100
0000
0000
,
1010
0000
0101
0000
0110
0000
1000
0010
0100
0000
0101
0000
2020
0000
3030
0000
,
0001
0100
1000
0100
0001
0010
0100
0001
1000
0010
0001
0100
0110
0000
0000
0000
0000
0000
0101
0000
0000
1010
0000
0000
,
1100
0000
0001
0010
1000
0000
1000
0010
0001
0000
0001
0100
1000
0000
1100
0000
,
1000
0100
0010
1000
0100
0010
1000
0010
0001
0100
1000
0100
0110
0000
0000
0000
0000
0000
0011
0000
0000
1100
0000
0000
,
0011
0000
0000
2020
0000
0000
3030
0000
0000
1010
0000
0000
0101
0000
0000
0001
0010
0100
1000
0000
0000
0000
0000
0000
,
1000
0100
1000
0100
0010
0001
0010
0001
1000
0010
1000
0010
0100
0001
0100
0001
,
0100
0010
0001
1000
0100
0001
1000
0100
0001
1000
0010
0001
0100
1000
0001
0010
,
0110
0000
0011
0000
1001
0000
0000
0110
0000
0001
0010
1000
0010
0001
0010
0000
,
0000
0000
0110
0000
1001
0000
0000
0110
0000
1000
0010
0001
0010
1000
0010
0000
,
0000
0000
1100
0000
0011
0000
0000
1001
0000
0100
0001
0010
0100
1000
0010
0100
,
0001
0100
0001
0100
0000
0000
0010
1000
0010
1000
0000
0000
0001
0010
0001
0010
0000
0000
0011
0000
0000
0011
0000
0000
,
0000
0000
0101
0000
1010
0000
0000
0011
0000
0001
0010
1000
0100
0001
0100
0010
,
0000
0000
1100
0000
0011
0000
0000
1010
0000
1000
0010
0001
0100
1000
0100
0010
,
0000
0000
0110
0000
1001
0000
0000
0110
0000
0010
0010
0001
0010
0010
1000
0100
,
0010
0000
0000
0000
0100
0000
0000
0000
0010
0000
0000
0000
0100
0000
0000
0000
0010
0000
0000
0000
0100
0000
0000
0000
1000
0000
0000
0000
0001
0000
0000
0000
1000
0000
0000
0000
0001
0000
0000
0000
1000
0000
0000
0000
0001
0000
0000
0000
0100
0000
0000
0000
0010
0000
0000
0000
0100
0000
0000
0000
0010
0000
0000
0000
0100
0000
0000
0000
0010
0000
0000
0000
1000
0000
0000
0001
0000
0000
1000
0000
0000
0001
0000
0000
1000
0000
0000
0001
0000
0000
1000
0000
0000
0001
0000
0000
,
2000
0000
0100
0000
0100
0100
0000
0100
0100
0000
0100
0100
0000
0100
0100
0000
,
3002
0000
0010
0000
0010
0010
0000
0010
0010
0000
0010
0010
0000
0010
0010
0000
,
0023
0000
0100
0000
0100
0100
0000
0100
0100
0000
0100
0100
0000
0100
0100
0000
,
0230
0000
1000
0000
1000
1000
0000
1000
1000
0000
1000
1000
0000
1000
1000
1000
,
0300
0000
0000
0000
,
0000
0000
0000
0000
;
#NOTES:
     dance-double:
     :
     Easy:
     4:
     :
00000000
00000000
00000000
00000000
,
00000000
00000000
00000000
00000000
,
00000000
00000000
00000000
00000000
,
00000000
00000000
00000000
00000000
,
00000000
00000000
00000000
00000000
,
00000000
00000000
00000000
00000000
,
00000000
00000000
00000000
00000000
,
00000000
00000000
00000000
00000000
,
00000000
00000000
00000000
00000000
,
00000001
00000000
00000001
00000000
,
00001000
00000000
00001000
00000000
,
00000001
00000000
00000001
00000000
,
00000100
00001000
00010000
00000000
,
00001000
00000000
00001000
00000000
,
00010000
00000000
00010000
00000000
,
00001000
00000000
00001000
00000000
,
00010000
00100000
10000000
00000000
,
01000000
01000000
00100000
00100000
,
00010000
00000000
10000000
00000000
,
01000000
00010000
00001000
00000000
,
00010000
00001000
00000010
00000000
,
00000001
00000001
00001000
00001000
,
00000001
00001000
00000001
00001000
,
00000001
00000000
00000100
00000000
,
00001000
00000000
00010000
00000000
,
00002000
00000000
00000000
00003000
,
00020000
00000000
00000000
00030000
,
00002000
00000000
00000000
00003000
,
00020000
00000000
00000000
00030000
,
00001000
00001000
00001000
00001000
,
00010000
00010000
00010000
00010000
,
00001000
00000000
00010000
00000000
,
00022000
00000000
00000000
00033000
,
00010000
00010000
00010000
00100000
,
20000000
00010000
00000000
30010000
,
10000000
10000000
10000000
01000000
,
00020000
00001000
00000000
00031000
,
00001000
00001000
00001000
00000010
,
00000002
00001000
00000000
00001003
,
00000001
00000100
00001000
00010000
,
00001000
00010000
00011000
00000000
,
00001000
00001000
00001000
00000010
,
00000002
00001000
00000000
00001003
,
00000001
00000001
00000001
00000100
,
00002000
00010000
00000000
00013000
,
00010000
00010000
00010000
00100000
,
20000000
00010000
00000000
30010000
,
01000000
00010000
00001000
00000010
,
00001000
00010000
00100000
00000000
,
10000000
00000000
10000000
00000000
,
00010000
00000000
00010000
00000000
,
10000000
00000000
10000000
00000000
,
00100000
00010000
00001000
00000000
,
00010000
00000000
00010000
00000000
,
00001000
00000000
00001000
00000000
,
00010000
00000000
00010000
00000000
,
00001000
00000100
00000001
00000000
,
00002002
00000000
00000000
00000000
,
00000000
00000000
00000000
00000000
,
00000000
00000000
00000000
00000000
,
00000000
00000000
00000000
00000000
,
00003003
00000000
00000000
00000000
,
00000000
00000000
00000000
00000000
;
#NOTES:
     dance-double:
     :
     Medium:
     7:
     :
00000000
00000000
00000000
00000000
,
00000000
00000000
00000000
00000000
,
00000000
00000000
00000000
00000000
,
00000000
00000000
00000000
00000000
,
00000000
00000000
00000000
00000000
,
00001000
00001000
00001000
00001000
,
00010000
00010000
00010000
00010000
,
00001000
00001000
00010000
00010000
,
00001000
00010000
00022000
00033000
,
00000010
00001000
00000010
00000000
00000100
00000000
00000100
00000000
,
00000001
00000010
00000001
00000000
00001000
00000000
00001000
00000000
,
00000100
00010000
00000100
00000000
00010000
00000000
00010000
00000000
,
00002000
00003000
00020000
00030000
,
00100000
00010000
00100000
00000000
01000000
00000000
01000000
00000000
,
10000000
00100000
10000000
00000000
00010000
00000000
00010000
00000000
,
01000000
00001000
01000000
00000000
00001000
00000000
00001000
00000000
,
00020000
00030000
00002000
00003000
,
00010000
00000100
00000010
00000100
,
00000010
00000001
00000100
00001000
,
00010000
00010000
00001000
00001000
,
00010000
01000000
10000000
01000000
,
01100000
00000000
00011000
00000000
,
00000110
00000000
00001001
00000001
,
00000100
00000010
00001000
00000010
,
00010000
00010000
00001000
00001000
,
00100000
00000000
00000000
00100000
00000000
00000000
00000000
00000000
,
00010000
00000000
00000000
00010000
00000000
00000000
00000000
00000000
,
00000010
00000000
00000000
00000010
00000000
00000000
00000000
00000000
,
00001000
00000000
00000000
00001000
00000000
00000000
00000000
00000000
,
00100000
00000000
01100000
00000000
,
00001000
00000000
00011000
00000000
,
00000010
00000000
00000110
00000000
,
00000002
00000000
00002000
00003003
,
00000110
00001001
00000110
00000001
,
00000100
00000000
00001000
00000000
00010000
00100000
00010000
00000000
,
01100000
10010000
01100000
10000000
,
01000000
00000000
00010000
00000000
00001000
00000010
00001000
00000000
,
00000110
00001001
00000110
00000001
,
00000100
00000000
00001000
00000000
00010000
00100000
00010000
00000000
,
00100000
00100000
00010000
00001000
,
00010000
00100000
20020000
30030000
,
01100000
10010000
01100000
10000000
,
00100000
00000000
00010000
00000000
00001000
00000100
00001000
00000000
,
00000110
00001001
00000110
00000001
,
00000010
00000000
00001000
00000000
00010000
01000000
00010000
00000000
,
01100000
10010000
01100000
10000000
,
00100000
00000000
00010000
00000000
00001000
00000100
00001000
00000000
,
00000100
00000001
00000010
00001000
,
00000010
00000100
00002002
00003003
,
00000010
00001000
00000010
00000000
00000100
00000000
00000100
00000000
,
00000001
00000010
00000001
00000000
00001000
00000000
00001000
00000000
,
00000100
00010000
00000100
00000000
00010000
00000000
00010000
00000000
,
00001000
00001000
00010000
00010000
,
00100000
01000000
00100000
00000000
01000000
00000000
01000000
00000000
,
00100000
10000000
00100000
00000000
01000000
00000000
01000000
00000000
,
00001000
00010000
00001000
00000000
00010000
00000000
00010000
00000000
,
00001000
00001000
00010000
00010000
,
00002000
00000000
00000000
00003000
,
00000020
00000000
00000000
00000030
,
00000002
00000000
00000000
00000003
,
00000200
00000000
00000000
00000000
,
00000300
00000000
00000000
00000000
,
00000000
00000000
00000000
00000000
;
#NOTES:
     dance-double:
     :
     Hard:
     11:
     :
00000000
00000000
00000000
00000000
,
00000000
00000000
00000000
00000000
,
00000000
00000000
00000000
00000000
,
00000000
00000000
00000000
00000000
,
00000000
00000000
00000000
00000000
,
00000000
00000000
00000001
00000000
00000010
00000000
00000000
00000001
00000000
00000010
00000001
00000000
00000010
00000000
00000001
00000000
,
00000000
00000000
00000100
00000000
00000010
00000000
00000000
00000100
00000000
00000010
00000100
00000000
00000010
00000000
00000100
00000000
,
00000000
00000000
00001000
00000000
00010000
00000000
00000000
00001000
00000000
00010000
00001000
00000000
00010000
00000000
00001000
00000000
,
00200000
00320000
20030000
32000000
,
13000000
01000000
00010000
00000000
00001000
00000000
00011000
00000000
,
00010000
00001000
00000100
00000000
00000001
00000000
00001001
00000000
,
00000001
00000010
00001000
00000000
00010000
00000000
00011000
00000000
,
02000000
03020000
20030000
30200000
,
10300000
01000000
00100000
00000000
00001000
00010000
00000100
00001000
,
00000001
00000100
00000010
00000000
00001000
00000100
00010000
00001000
,
00100000
00010000
01000000
00000000
00100000
10000000
01000000
00100000
,
00002000
00023000
00030200
00000320
,
00000031
00000001
00000010
00000000
00001000
00000000
00010000
00000000
,
00001000
00010000
00000000
00001000
00010000
00000000
01000000
10000000
,
00010000
10000000
00010000
00000000
00100000
00001000
00100000
00001000
,
00000000
00010000
00000000
00010000
00000100
00001000
00000100
00000010
,
00000001
00000100
00000001
00000001
00001000
00000100
00001000
00001000
,
00000000
00011000
00000000
00001000
01000000
01000000
00100000
00100000
,
20000000
00000000
32000000
00000000
03010000
00001000
00010000
00001000
,
00020000
00032000
00003020
00000032
,
00001003
00000000
00000000
00002200
00000000
00000000
00003300
00000000
,
00010000
00000000
00000000
00022000
00000000
00000000
00033000
00000000
,
00100000
00000000
00000000
00220000
00000000
00000000
00330000
00000000
,
10000000
00000000
00000000
20020000
00000000
00000000
30030000
00000000
,
00100000
10000000
00100000
10000000
,
00010000
00100000
00010000
00100000
,
00001000
00010000
00001000
00000000
00010000
00001000
00010000
00000000
,
00000020
00000000
00002000
00003030
,
00000011
00000000
00001100
00000000
00000011
00000000
00000001
00000100
,
00000010
00001000
00010000
01000000
00100000
10000000
00010000
00000000
,
10100000
00000000
01010000
00000000
10100000
00000000
10000000
01000000
,
00100000
00010000
00001000
00000100
00000010
00000001
00001000
00000000
,
00000011
00000000
00001100
00000000
00000011
00000000
00000001
00000100
,
00000010
00001000
00010000
01000000
00100000
10000000
00010000
00000000
,
00010000
10000000
10000000
01000000
00010000
00001000
00000010
00001000
,
00020000
00000000
00031000
00000200
00000000
00001300
00010000
00000000
,
01010000
00000000
10100000
00000000
01010000
00000000
10000000
00100000
,
01000000
00010000
00001000
00000010
00000100
00000001
00001000
00000000
,
00001100
00000000
00000011
00000000
00001100
00000000
00000001
00000010
,
00000100
00001000
00010000
00100000
01000000
10000000
00010000
00000000
,
01010000
00000000
10100000
00000000
01010000
00000000
10000000
00100000
,
01000000
00010000
00001000
00000010
00000100
00000001
00001000
00000000
,
00001000
00000001
00000001
00000100
00001000
00010000
00100000
00010000
,
00001000
00000000
00010000
01000000
00000000
00010000
00001000
00000010
,
00000001
00000100
00001000
00000000
00010000
00000000
00011000
00000000
,
00001000
00010000
01000000
00000000
10000000
00000000
10010000
00000000
,
10000000
00100000
00010000
00000000
00001000
00000000
00011000
00000000
,
00000200
00002300
00003002
00000023
,
00000031
00000100
00000010
00000000
00010000
00001000
01000000
00010000
,
10000000
01000000
00100000
00000000
00010000
01000000
00001000
00010000
,
00000010
00001000
00000100
00000000
00000010
00000001
00000100
00000010
,
00020000
00032000
02003000
03200000
,
00320000
00000000
00000000
00000000
,
00032000
00000000
00000000
00000000
,
00003020
00000000
00000000
00000000
,
00000032
00000000
00000000
00000000
,
00000003
00000000
00000000
00000000
,
00000000
00000000
00000000
00000000
;
#NOTES:
     dance-double:
     :
     Challenge:
     18:
     :
00000000
00000000
00000000
00000000
,
00000000
00000000
00000000
00000000
,
00000000
00000000
00000000
00000000
,
00000000
00000000
00000000
00000000
,
00000000
00000000
00000000
00000000
,
00000000
00000000
00000001
00000000
00000010
00000000
00000000
00000001
00000000
00000010
00000001
00000000
00000100
00001000
00010000
00000000
,
00000000
00000000
00001000
00000000
00010000
00000000
00000000
00001000
00000000
00010000
00001000
00000000
00100000
00010000
01000000
00000000
,
00000000
00000000
00100000
00000000
10000000
00000000
00000000
00100000
00000000
10000000
00100000
00000000
10000000
01000000
00010000
00000000
,
00001000
00010000
00001000
00010000
00000000
00000000
00000010
00001000
00000010
00001000
00000000
00000000
00000001
00000100
00000001
00000100
00000000
00000000
00002002
00000000
00000000
00003003
00000000
00000000
,
00000000
00000000
00000011
00000000
00000101
00000000
00000000
00001001
00000000
00000001
00000010
00001000
00010000
01000000
10000000
00000000
,
00000000
00000000
10100000
00000000
11000000
00000000
00000000
10010000
00000000
10000000
00100000
00010000
00001000
00000100
00000001
00000000
,
00000000
00000000
00000011
00000000
00000101
00000000
00000000
00001001
00000000
00000001
00000010
00001000
00010000
01000000
10000000
00000000
,
00100000
10000000
00100000
10000000
00000000
00000000
00010000
01000000
00010000
01000000
00000000
00000000
00001000
00010000
00001000
00010000
00000000
00000000
00011000
00000000
00000000
00011000
00000000
00000000
,
00000000
00000000
00010100
00000000
00000110
00000000
00000000
00001010
00000000
00001000
00010000
01000000
00100000
00001000
00010000
00000000
,
00000000
00000000
01001000
00000000
01100000
00000000
00000000
00110000
00000000
00010000
00001000
00000100
00000010
00010000
00001000
00000000
,
00000000
00000000
00010100
00000000
00000110
00000000
00000000
00001010
00000000
00001000
00010000
01000000
00100000
00001000
00010000
00000000
,
00000100
00000010
00000100
00000010
00000000
00000000
00001000
00010000
00001000
00010000
00000000
00000000
00100000
01000000
00100000
01000000
00000000
00000000
00022000
00000000
00000000
00033000
00000000
00000000
,
00001000
00000010
00000001
00000010
00000001
00000000
00001001
00000000
00000001
00000100
00001000
00000000
00010000
00100000
10000000
00000000
,
00010000
00000000
10010000
00000000
00000000
00000000
01100000
00000000
00011000
00000000
00010000
00001000
00010000
00000000
01000000
00000000
,
10010000
00000000
10000000
01000000
00010000
00000000
00010000
00001000
00000010
00000000
00000001
00000100
00001000
00000000
00011000
00000000
,
00000000
01100000
00000000
10100000
01100000
00010100
00001100
00000011
,
00001001
00001001
00001001
00000000
00001100
00000000
00110000
00000000
10010000
10010000
10010000
00000000
01010000
00000000
00001010
00000000
,
00000000
00000000
00000000
00000001
00000100
00000010
00001000
00000000
00000000
00011000
00000000
00000000
00010000
00100000
01000000
10000000
00000000
00000000
00100000
00000000
00000000
00100000
00000000
00000000
,
10100000
00000000
10000000
00100000
00010000
00000000
00001000
00010000
01000000
00000000
00010000
00001000
00000010
00000000
00000001
00000100
,
00000101
00000010
00001100
00010000
00101000
00010000
01100000
00000000
,
20000000
00000000
00000000
00000000
,
30020000
00000000
00000000
00000000
,
00032000
00000000
00000000
00000000
,
00003002
00000000
00000000
00000000
00000000
00000000
00000000
00000000
00000000
00000000
00000000
00000000
00000003
00000000
00000110
00000001
,
00000100
00000000
00000110
00001000
00000100
00000000
00000110
00000001
00000100
00000000
00001000
00000000
00010000
00000000
01100000
10000000
,
01000000
00000000
01100000
00010000
01000000
00000000
01100000
10000000
01000000
00000000
00010000
00000000
00001000
00000000
00000010
00000001
,
00000100
00000010
00000100
00000001
00000010
00000100
00010000
00001000
00000100
00001000
00010000
00001000
00100000
00010000
01000000
00001000
,
00010000
01000000
10000000
00100000
01000000
10000000
01000000
00010000
00100000
00001000
00010000
00000100
00000110
00000000
00000000
00000000
,
00000001
00000010
00000100
00001000
00000010
00000100
00000010
00010000
00001000
00010000
00000100
00001000
00000100
00000000
00000000
00000000
00000000
00000000
00000110
00000000
00000000
00001010
00000000
00000000
,
00011000
00000000
01010000
00000000
01100000
00000000
00010000
01000000
00100000
00000000
10100000
00000000
20020000
00000000
30030000
00000000
,
00010000
01000000
10000000
01000000
00001000
00010000
01000000
00100000
00001000
00010000
01000000
10000000
01000000
00000000
00000000
00000000
00000000
00000000
10100000
00000000
00000000
01010000
00000000
00000000
,
00011000
00000000
00010000
01000000
00100000
00000000
00001000
00000100
00000010
00000000
00010000
01000000
00001000
00000000
00000110
00000000
,
00000001
00000010
00001000
00000001
00000100
00001000
00000010
00010000
00001000
00010000
00000100
00001000
00000010
00000000
00000000
00000000
00000000
00000000
00001010
00000000
00000000
00010100
00000000
00000000
,
00011000
00000000
00000000
02020000
00000000
00000000
03030000
00000000
00000000
10100000
00000000
00000000
11000000
00000000
00000000
10000000
01000000
00100000
00010000
00000000
00000000
00000000
00000000
00000000
,
00000000
01010000
01010000
00011000
00101000
00101000
00010010
00010010
,
00000001
00000100
00000001
00001000
00000010
00010000
00001000
00010000
00001000
00100000
00010000
01000000
00100000
10000000
00100000
00000000
,
10000000
01000000
00100000
00010000
01000000
00100000
01000000
00001000
00010000
00001000
00100000
00010000
00100000
00000000
00000000
00000000
00000000
00000000
01100000
00000000
00000000
01010000
00000000
00000000
,
00011000
00000000
00001010
00000000
00000110
00000000
00001000
00000010
00000100
00000000
00000101
00000000
00002002
00000000
00003003
00000000
,
00001000
00000010
00000001
00000010
00010000
00001000
00000010
00000100
00010000
00001000
00000010
00000001
00000010
00000000
00000000
00000000
00000000
00000000
00000101
00000000
00000000
00001010
00000000
00000000
,
00011000
00000000
00001000
00000010
00000100
00000000
00010000
00100000
01000000
00000000
00001000
00000010
00010000
00000000
01100000
00000000
,
10000000
01000000
00010000
10000000
00100000
00010000
01000000
00001000
00010000
00001000
00100000
00010000
01000000
00000000
00000000
00000000
00000000
00000000
01010000
00000000
00000000
00101000
00000000
00000000
,
00011000
00000000
00000000
00002020
00000000
00000000
00003030
00000000
00000000
00000101
00000000
00000000
00000011
00000000
00000000
00000001
00000010
00000100
00001000
00000000
00000000
00000000
00000000
00000000
,
00000000
00001010
00001010
00011000
00010100
00010100
01001000
01001000
,
10000000
00100000
10000000
00010000
01000000
00001000
00010000
00000100
00001000
00000010
00000100
00001000
00010000
00100000
01000000
00100000
,
10000000
00000000
11000000
00000000
10100000
00000000
00000000
10010000
00000000
10000000
01000000
00010000
00001000
00000010
00000001
00000000
,
00000000
00000000
00000101
00000000
00000011
00000000
00000000
00001001
00000000
00000001
00000100
00001000
00010000
00100000
10000000
00000000
,
00000000
00000000
11000000
00000000
10100000
00000000
00000000
10010000
00000000
10000000
01000000
00010000
00001000
00000010
00000001
00000000
,
00000100
00000001
00000100
00000001
00000000
00000000
00001000
00000010
00001000
00000010
00000000
00000000
00010000
00001000
00010000
00001000
00000000
00000000
00011000
00000000
00000000
00011000
00000000
00000000
,
00000000
00000000
00101000
00000000
01100000
00000000
00000000
01010000
00000000
00010000
00001000
00000010
00000100
00010000
00001000
00000000
,
00000000
00000000
00010010
00000000
00000110
00000000
00000000
00001100
00000000
00001000
00010000
00100000
01000000
00001000
00010000
00000000
,
00000000
00000000
00101000
00000000
01100000
00000000
00000000
01010000
00000000
00010000
00001000
00000010
00000100
00010000
00001000
00000000
,
00100000
00000000
00000000
00000000
01000000
00000000
00000000
00000000
00100000
00000000
00000000
00000000
01000000
00000000
00000000
00000000
00000000
00000000
00000000
00000000
00000000
00000000
00000000
00000000
00010000
00000000
00000000
00000000
00001000
00000000
00000000
00000000
00010000
00000000
00000000
00000000
00001000
00000000
00000000
00000000
00000000
00000000
00000000
00000000
00000000
00000000
00000000
00000000
00000100
00000000
00000000
00000000
00000010
00000000
00000000
00000000
00000100
00000000
00000000
00000000
00000010
00000000
00000000
00000000
00000000
00000000
00000000
00000000
00000000
00000000
00000000
00000000
00001000
00000000
00000000
00000001
00000000
00000000
00001000
00000000
00000000
00000001
00000000
00000000
00001000
00000000
00000000
00000000
00000000
00000000
00000000
00000000
00000000
00000000
00000000
00000000
,
00000002
00000000
00001000
00000000
00001000
00001000
00000000
00001000
00001000
00000000
00001000
00001000
00000000
00001000
00001003
00000000
,
00002000
00000000
00010000
00000000
00010000
00010000
00000000
00010000
00010000
00000000
00010000
00010000
00000000
00010000
00013000
00000000
,
00020000
00000000
10000000
00000000
10000000
10000000
00000000
10000000
10000000
00000000
10000000
10000000
00000000
10000000
10030000
00000000
,
20000000
00000000
00010000
00000000
00010000
00010000
00000000
00010000
00010000
00000000
00010000
00010000
00000000
00010000
00010000
00010000
,
30000000
00000000
00000000
00000000
,
00000000
00000000
00000000
00000000
;
