
//----- song ID: rege -----//
#TITLE:Re\:GENERATION;
#ARTIST:TAG feat. ERi;
#TITLETRANSLIT:ReGENERATION;
#BANNER:Re-GENERATION.png;
#BACKGROUND:Re-GENERATION-bg.png;
#CDTITLE:./CDTitles/bm IIDX 20 tricoro.png;
#MUSIC:Re-GENERATION.ogg;
#SAMPLESTART:59.42;
#SAMPLELENGTH:15;
#BPMS:0=176;
#NOTES:
     dance-single:
     :
     Beginner:
     3:
     :
0000
0000
0000
0000
,
0000
0000
0000
0000
,
0000
0000
0000
0000
,
0000
0000
0000
0000
,
0000
0000
0000
0000
,
0000
0000
0000
0000
,
1000
0000
0010
0000
,
0001
0000
0010
0000
,
1000
0000
1000
0000
,
0001
0000
0001
0000
,
1001
0000
0000
0000
,
0010
0000
0010
0000
,
0100
0000
0100
0000
,
0010
0000
0010
0000
,
0100
0000
0100
0000
,
0001
0000
0100
0000
,
1000
0000
0100
0000
,
0001
0000
1000
0000
,
1001
0000
0000
0000
,
2000
0000
3000
0000
,
1001
0000
0000
0000
,
0002
0000
0003
0000
,
1001
0000
0000
0000
,
0010
0000
0100
0000
,
0010
0000
0100
0000
,
0001
0000
1000
0000
,
0001
0000
1000
0000
,
0002
0000
0003
0000
,
1001
0000
0000
0000
,
2000
0000
3000
0000
,
1001
0000
0000
0000
,
0001
0000
1000
0000
,
0001
0000
1000
0000
,
0010
0000
0100
0000
,
0010
0000
0000
0000
,
1001
0000
0000
0000
,
1001
0000
0000
0000
,
0001
0000
1000
0000
,
0001
0000
1000
0000
,
0010
0000
0010
0000
,
0100
0000
0100
0000
,
0001
0000
0010
0000
,
1000
0000
0001
0000
,
1001
0000
0000
0000
,
0010
0000
0010
0000
,
0001
0001
0001
0000
,
0010
0000
0010
0000
,
0100
0100
0100
0000
,
1000
0000
1000
0000
,
0010
0010
0010
0000
,
0001
0000
1000
0000
,
0001
0000
1001
0000
,
2000
0000
3000
0000
,
0020
0000
0030
0000
,
0002
0000
0003
0000
,
0200
0000
0300
0000
,
0010
0000
0010
0000
,
1000
0000
1000
0000
,
0100
0000
0100
0000
,
0001
0000
0001
0000
,
1001
0000
0000
0000
,
0001
0000
0000
0000
,
0001
0000
0000
0000
,
1000
0000
0000
0000
,
1000
0000
0000
0000
,
0010
0000
0010
0000
,
0100
0000
0100
0000
,
0010
0000
0010
0000
,
0200
0000
0300
0000
,
0020
0000
0030
0000
,
0100
0000
0010
0000
,
1000
1000
1000
0000
,
0100
0000
0010
0000
,
0001
0001
0001
0000
,
0010
0000
0100
0000
,
1000
1000
1000
0000
,
0001
0000
0100
0000
,
0010
0000
1001
0000
,
2000
0000
3000
0000
,
0020
0000
0030
0000
,
0002
0000
0003
0000
,
0200
0000
0300
0000
,
2000
0000
3000
0000
,
0200
0000
0300
0000
,
0002
0000
0003
0000
,
0020
0000
0030
0000
,
0000
0000
0000
0000
;
#NOTES:
     dance-single:
     :
     Easy:
     6:
     :
0000
0000
0000
0000
,
0000
0000
0000
0000
,
0000
0000
0000
0000
,
0000
0000
0000
0000
,
0000
0000
0000
0000
,
0000
0000
0000
0000
,
0010
0010
0100
0100
,
0001
1000
0001
0000
,
0010
1001
0100
1001
,
0010
1000
0001
0100
,
0220
0000
0000
0330
,
1000
0010
1000
0010
,
0100
0001
0100
0000
,
0001
0010
0001
0010
,
0100
1000
0100
0000
,
0001
0001
0010
0100
,
1000
1000
0010
0100
,
1001
0100
1001
0010
,
0100
0010
0110
0000
,
2000
0000
0000
0000
0000
0000
0000
0001
,
0000
3001
0000
0000
0000
0000
0000
0000
,
0002
0000
0000
0000
0000
0000
0000
1000
,
0000
1000
0000
1003
0000
0000
0000
0000
,
0010
0100
0001
1000
,
0100
0010
0001
1000
,
0010
0100
0001
1000
,
0100
0010
0001
1000
,
0020
0000
0000
0000
0000
0000
0000
0100
,
0000
0100
0000
0130
0000
0000
0000
0000
,
0200
0000
0000
0000
0000
0000
0000
0010
,
0000
0010
0000
0310
0000
0000
0000
0000
,
0001
0100
0001
0001
,
1000
0100
1000
1000
,
0010
0001
0100
0010
,
1001
0000
0010
0010
,
0100
0010
0110
0000
,
1000
0001
1001
0000
,
0001
0010
1000
0100
,
0001
0010
1000
0000
,
0001
0010
0001
0000
,
1000
0100
1000
0000
,
0010
1000
0100
0010
,
0001
0100
0010
0100
,
2002
0000
0000
3003
,
0001
0010
0001
0100
,
0010
1000
0010
0000
,
1000
0100
1000
0010
,
0100
0001
0100
0000
,
0010
1000
0100
0001
,
0100
1000
0010
0000
,
1001
0100
1001
0010
,
0100
0010
0220
0330
,
0010
0010
0100
0100
,
0010
0010
0100
0100
,
0002
0000
0010
0013
,
2000
0000
0010
3010
,
1000
1000
0010
0010
,
0001
0001
0100
0100
,
0020
0000
0100
0130
,
0010
1000
0001
1000
,
0220
0000
0000
0330
,
2000
0000
0000
0000
,
3002
0000
0000
0000
,
2003
0000
0000
0000
,
3002
0000
0000
0000
,
1003
0000
1000
0000
,
0001
0000
0001
0000
,
0010
0100
0010
0100
,
2002
0000
0000
3003
,
0220
0000
0000
0330
,
0000
1001
0010
1000
,
0010
0100
0001
0000
,
0001
0010
0001
0100
,
0010
1000
0100
0000
,
1000
0100
0001
0100
,
1000
0100
0001
0000
,
1001
0100
1001
0010
,
0100
0010
0220
0330
,
2000
0000
0000
3000
,
0020
0000
0000
0030
,
0002
0000
0000
0003
,
0200
0000
0000
0300
,
1000
0000
0100
0000
,
0001
0000
0010
0000
,
1000
0000
0100
0000
,
0001
0000
0020
0000
,
0030
0000
0000
0000
,
0000
0000
0000
0000
;
#NOTES:
     dance-single:
     :
     Medium:
     11:
     :
0000
0000
0000
0000
,
0000
0000
0000
0000
,
0000
0000
0000
0000
,
0000
0000
0000
0000
,
0000
0000
0000
0000
,
0000
0000
0000
0000
0000
0100
0001
0010
,
0000
0100
1000
0010
0000
0100
0010
0100
,
0000
0001
1000
0001
0000
1000
0010
0100
,
0001
0010
0100
0110
,
0002
0000
0000
0000
,
2000
0000
0000
3003
,
1000
0010
0100
0000
0001
0010
0100
0000
,
1000
0001
0010
0000
0001
1000
0100
0000
,
0010
0001
0100
0000
0010
1000
0100
0000
,
1100
0101
1100
0101
,
0001
0010
0100
0000
1000
0010
0100
0000
,
0001
1000
0010
0000
1000
0001
0100
0000
,
0010
1000
0100
0010
0001
0100
0010
0000
,
1000
0000
0000
0100
0000
0000
0200
0000
0000
0000
0000
0000
0300
0000
0000
0000
,
0020
0000
0000
0000
0000
0000
0000
0130
,
0000
0110
0000
0000
0000
0000
0000
0000
,
1000
0002
0000
0000
0000
0000
0000
1003
,
0000
1100
0000
0101
0000
0000
0001
0100
,
0010
0000
1000
0000
1000
0100
1000
0000
,
0010
0000
0100
0000
0100
0010
0100
0000
,
0001
0000
0010
0000
0010
0001
0010
0000
,
0001
0010
0100
0010
0001
1000
0100
0010
,
0200
0000
0000
0000
0000
0000
0000
0310
,
0000
0110
0000
1100
0000
0001
0100
0010
,
0100
0100
0200
0000
0000
0000
0000
0310
,
0000
0110
0000
1010
0000
0001
1000
0010
,
0100
0000
0010
0000
0100
0001
0010
0000
,
0001
0000
0010
0000
0001
0100
1000
0000
,
0100
0000
0010
0000
1000
0100
0001
0000
,
0200
0000
0000
0000
0000
0000
0000
0000
0310
0000
0000
0001
0000
0000
0010
0000
,
0100
0000
0000
1000
0000
0000
0100
0000
1000
0000
0000
0000
1100
0000
0000
0000
,
1000
0000
0000
0010
0000
0000
0100
0000
0001
0000
0000
0000
0101
0000
0000
0000
,
1100
0000
0000
0000
0101
0000
0000
0000
0010
0000
0000
0100
0000
0000
0010
0000
,
0000
0000
1000
0000
1000
0000
0000
0000
0001
0000
0000
0001
0000
0000
0001
0000
,
1000
0000
0010
0000
1000
0100
0010
0000
,
0001
0000
0010
0000
0001
0010
0100
0000
,
0010
0001
0100
0000
0010
1000
0100
0000
,
0010
0001
1000
0100
0010
0001
1000
0010
,
0100
0000
0000
0010
0000
0000
0220
0000
0000
0000
0000
0000
0330
0000
0000
0000
,
1000
0001
0100
0000
0001
0100
0010
0000
,
1000
0100
0010
0001
0000
1000
0001
0100
,
0000
0010
1000
0100
0000
0010
0001
0100
,
0010
1000
0001
0100
0000
0001
1000
0100
,
0000
1000
0001
0100
0000
0010
1000
0100
,
0000
0010
0001
0100
0000
0010
1000
0001
,
0100
0110
0100
1001
,
1000
0000
0000
0100
0000
0000
0010
0000
0001
0000
0000
0000
1001
0000
0000
0000
,
1000
0010
1000
0100
1000
0010
0100
0000
,
0001
0010
0001
0100
0001
0010
0100
0000
,
2001
0010
0100
0010
,
3002
0010
0100
0010
,
1003
0001
0010
0001
0100
0010
1000
0000
,
0001
1000
0010
1000
0100
0010
0001
0000
,
0200
1000
0010
0301
,
0010
0001
0010
0001
1000
0100
1000
0000
,
1001
0000
0000
0110
0000
0000
1001
0000
0000
0000
0000
0000
0000
0000
0000
0000
,
0002
0000
0000
0000
,
0023
0000
0000
0000
,
0230
0000
0000
0000
,
2300
0000
0000
0000
,
3001
0010
0001
0010
,
0100
1000
0100
1000
,
0010
1010
0100
0101
,
0001
0010
0100
1000
0010
0100
0001
1000
,
0001
0000
0000
1000
0000
0000
0100
0000
0000
0010
0000
0000
0100
0000
0200
0000
,
0300
0000
0110
0000
1000
0100
0010
0000
,
0001
1000
0001
1000
0000
0001
0100
0010
,
0000
1000
0100
0010
0000
0001
1000
0100
,
0000
0010
0100
0100
0000
0100
1000
0010
,
0000
0100
0001
0010
0000
0100
1000
0001
,
1000
0010
0100
0001
0000
1000
0100
0010
,
0001
0101
0010
1100
,
0010
0000
0000
0100
0000
0000
0010
0000
0100
0000
0000
0000
1001
0000
0000
0000
,
2000
0000
3200
0000
,
0320
0000
0032
0000
,
0203
0000
0320
0000
,
2030
0000
3002
0000
,
1003
1000
1000
0010
0010
0010
,
0100
0100
0100
0001
0001
0001
,
0010
0010
0010
0100
0100
0100
,
1000
1000
1000
0002
0000
0000
,
0003
0000
0000
0000
,
0000
0000
0000
0000
;
#NOTES:
     dance-single:
     :
     Hard:
     15:
     :
0000
0000
0000
0000
,
0000
0000
0000
0000
,
0000
0000
0000
0000
,
0000
0000
0000
0000
,
0000
0000
0000
0000
,
0000
0000
0000
0000
0000
1000
0100
0020
,
0000
0130
1000
0002
0000
0013
0100
2000
,
0000
3010
0100
0110
0000
0010
1000
0100
,
1100
0101
0110
1001
,
0001
0000
0010
0000
0100
0000
1000
0000
0001
0100
0001
0100
0010
1000
0010
1000
,
0002
0000
0010
1003
,
0001
0000
0010
0000
0001
0000
0100
0000
0010
1000
0010
0000
0100
0000
0020
0000
,
0000
0000
1030
0000
0100
0000
0010
0000
0001
0010
0001
0000
1000
0010
1000
0000
,
0020
0000
0130
0002
0000
0100
0000
0013
,
0000
0000
1010
0000
0000
0000
0001
0000
0010
0000
0100
0010
0100
0000
1000
0000
,
0010
0000
1000
0000
0100
0000
0010
0000
0001
0100
0001
0000
1000
0100
2000
0000
,
0000
0001
0002
0000
3003
0000
0100
0000
,
1010
1000
0100
0000
0011
0001
0100
0000
,
0110
0000
0000
1100
0000
0000
0101
0000
0000
0000
0010
0000
0100
0010
0100
0010
,
0200
0000
0000
0310
0100
0001
0010
0011
,
0000
0202
0000
0000
0000
0303
1000
0001
,
1001
0110
0000
0100
0010
1000
0001
0011
,
0000
1010
0000
0110
0010
1000
0010
0100
,
0001
0010
0001
0000
0100
0000
0010
0000
1000
0010
1000
0000
0100
0000
1000
0000
,
0100
1000
0100
0000
0010
0000
0001
0000
0010
0001
0010
0000
0100
0000
1000
0000
,
0001
1000
0010
0000
0010
0000
0100
0001
1000
0000
1000
0000
0001
0000
0010
0000
,
1000
0000
0001
0000
0100
0000
1000
0000
0100
0000
0000
0010
0001
0000
0100
0000
,
0220
0000
0330
1000
0010
0100
0001
0011
,
0000
1100
0000
0101
0000
0001
1000
0010
,
0100
1010
0011
0000
1000
0100
0010
0011
,
0000
1100
0000
1001
0001
0010
1000
0010
,
0001
0100
0001
0000
0010
0000
0100
0000
1000
0100
1000
0000
0010
0000
0001
0000
,
1000
0000
0100
0000
0001
0000
0010
0000
0001
0100
0001
0000
1000
0100
1000
0000
,
0001
0000
1000
0000
0001
0100
0010
0000
0100
0000
0001
0000
1000
0000
0200
0000
,
0000
0000
0000
0000
0300
0000
0000
0000
0110
0000
0000
1001
0000
0000
0011
0000
,
0010
0000
0000
0001
0000
0000
0100
0001
0100
0000
0000
0000
1001
0000
0000
0000
,
0010
0000
0000
1000
0000
0000
0100
1000
0100
0000
0000
0000
0110
0000
0000
0000
,
1001
0000
0000
0000
0110
0000
0000
0000
1100
0000
0000
0011
0000
0000
0110
0000
,
0001
0100
0001
0000
1000
0100
1000
0000
0001
0100
0010
0000
1000
0100
0010
0000
,
0001
0100
0010
1010
0000
1001
0000
0101
,
0001
1000
0010
0100
0001
0001
1000
1000
,
0010
0100
0010
0000
1000
0001
1000
0000
0001
0100
0001
0000
1000
0100
1000
0000
,
0001
0010
0001
0010
0100
0010
0100
0000
1000
0010
1000
0010
0100
0010
0100
0000
,
0010
0000
0000
0110
0000
0000
1001
0000
0000
0000
0001
0000
1000
0000
1100
0000
,
0000
1000
0001
0101
0000
0010
0100
0010
,
1000
0001
0100
0000
0001
1000
0100
0000
0000
0000
1000
0000
0001
0000
0011
0000
,
0000
0001
1000
1010
0000
0100
0010
0100
,
0001
1000
0010
0000
1000
0001
0010
0000
0000
0000
0100
0000
0010
0000
0011
0000
,
0000
0100
1000
1010
0000
0010
0100
0010
,
0100
0001
0010
0000
0100
1000
0010
0000
0000
0000
1000
0000
0010
0000
0100
0000
,
0110
1100
0101
1001
,
1000
0100
0000
0010
0001
0000
1000
0001
0100
0000
0000
0000
0110
0000
0000
0000
,
1000
0100
1000
0010
0001
1000
0100
0001
,
0001
0100
0001
0010
1000
0001
0100
1000
,
0020
0000
0000
0000
0100
0000
0000
0000
1000
0000
0000
0100
0000
0000
0031
0000
,
0010
0100
0010
0000
1000
0000
0001
0000
0000
0000
0100
0000
0100
0000
0000
0000
,
0001
0100
0001
0010
1000
0001
0100
1000
,
1000
0100
1000
0010
0001
1000
0100
0001
,
0020
0000
0000
0000
0100
0000
0000
0000
0001
0000
0000
0100
0000
0000
1030
0000
,
0010
0100
0010
0000
0001
0010
0001
0000
1000
0100
1000
0000
0001
1000
0001
1000
,
0001
0000
0000
1100
0000
0000
0101
0000
0000
0000
0000
0000
0000
0000
0000
0000
,
0002
0010
0000
0010
0000
0010
0000
0010
,
0023
0100
0000
0100
0000
0100
0000
0100
,
0230
1000
0000
1000
0000
1000
0000
1000
,
2300
0001
0000
0001
0000
0001
0000
0001
,
3001
0001
0010
0010
,
0100
0100
1000
1000
,
0001
0100
0010
0000
1000
0100
0010
0000
,
0001
0100
0010
0000
1000
0001
0100
0000
0001
1000
0100
0000
1000
0100
0010
0000
,
0110
0000
0000
1100
0000
0000
0101
0000
0000
0110
0000
0000
1001
0000
0220
0000
,
0330
0000
0000
0000
1001
0000
0000
0000
1000
0010
0000
1000
0100
0000
0010
0000
,
0001
1000
0100
0000
1000
0001
0200
0000
0000
0000
0301
0100
0010
0000
0110
0000
,
0000
0000
1000
0100
0010
0000
0110
0000
0000
0000
0001
1000
0010
0000
1001
0000
,
0000
0000
0010
0100
0010
0000
0110
0000
0000
0000
0001
0100
0010
0000
0100
0000
,
0010
1000
0000
0100
0010
0000
0001
0000
0100
0010
0000
1000
0100
0000
0010
0000
,
0001
0100
0010
1000
0001
0000
1001
0000
0000
0000
1000
0010
0100
0000
0110
0000
,
0001
0010
0001
0000
1000
0100
1000
0000
0001
0010
0001
0010
0100
1000
0010
0000
,
1010
0000
0000
0101
0000
0000
0010
0000
0200
0000
0000
0000
0300
0000
0000
0000
,
1000
1000
1000
0001
0001
0001
,
0010
0010
0010
0100
0100
0100
,
1000
0001
1000
0010
0100
0010
,
1000
0100
0010
0001
0100
0010
,
1000
1000
1100
0001
0001
0101
,
0001
0100
0010
1000
0100
0010
,
0011
0101
0011
1010
1100
1010
,
1100
0101
0110
2002
0000
0000
,
3003
0000
0000
0000
,
0000
0000
0000
0000
;
#NOTES:
     dance-double:
     :
     Easy:
     6:
     :
00000000
00000000
00000000
00000000
,
00000000
00000000
00000000
00000000
,
00000000
00000000
00000000
00000000
,
00000000
00000000
00000000
00000000
,
00000000
00000000
00000000
00000000
,
00000000
00000000
00000000
00000000
,
10000000
00010000
10000000
00010000
,
01000000
00100000
01000000
00000000
,
00001000
00001000
00010000
00010000
,
00011000
00000000
00011000
00000000
,
00022000
00000000
00000000
00033000
,
00000100
00001000
00000100
00001000
,
00000001
00000010
00000001
00000000
,
00000100
00000001
00000100
00000010
,
00010000
00001000
00010000
00000000
,
00001000
00001000
00100000
00010000
,
01000000
01000000
00100000
10000000
,
10010000
00100000
10010000
01000000
,
00010000
00001000
00011000
00000000
,
00002000
00000000
00000000
00000000
00000000
00000000
00000000
00000010
,
00000000
00003010
00000000
00000000
00000000
00000000
00000000
00000000
,
00020000
00000000
00000000
00000000
00000000
00000000
00000000
00100000
,
00000000
00100000
00000000
00130000
00000000
00000000
00000000
00000000
,
10000000
01000000
00100000
01000000
,
00010000
00001000
00010000
00001000
,
00000010
00000001
00000100
00000001
,
00000010
00000100
00001000
00000000
,
00020000
00000000
00000000
00000000
00000000
00000000
00000000
01000000
,
00000000
01000000
00000000
01030000
00000000
00000000
00000000
00000000
,
00002000
00000000
00000000
00000000
00000000
00000000
00000000
00000100
,
00000000
00000100
00000000
00003100
00000000
00000000
00000000
00000000
,
00000001
00000100
00001000
00001000
,
00010000
00100000
10000000
10000000
,
01000000
00100000
00001000
00010000
,
00011000
00000000
00001000
00001000
,
00010000
00001000
00011000
00000000
,
00000100
00000010
00001001
00000000
,
00000010
00000001
00000100
00001000
,
00010000
00100000
01000000
00000000
,
00001000
00100000
00010000
00000000
,
10000000
00100000
01000000
00000000
,
00100000
10000000
01000000
00010000
,
00001000
00000010
00000100
00000000
,
00002002
00000000
00000000
00003003
,
00000010
00000001
00000100
00000001
,
00000010
00001000
00010000
00000000
,
00100000
10000000
01000000
10000000
,
00100000
00010000
00001000
00000000
,
00000100
00000001
00000010
00000001
,
00000100
00001000
00010000
00000000
,
01100000
10000000
01100000
00010000
,
00100000
00001000
00011000
00000000
,
00000100
00000100
00000010
00000010
,
00000001
00000001
00001000
00001000
,
00000002
00000000
00000103
00001000
,
00020000
00000000
00001000
00031000
,
00100000
00100000
00010000
00010000
,
01000000
01000000
00100000
00100000
,
20000000
00000000
30100000
00010000
,
00002000
00000000
00010000
00013000
,
00022000
00000000
00000000
00033000
,
00000200
00000000
00000000
00000300
,
00000020
00000000
00000000
00000030
,
00020000
00000000
00000000
00030000
,
00002000
00000000
00000000
00003000
,
01000000
00000000
01000000
00000000
,
00100000
00000000
00100000
00000000
,
00001000
00010000
00001000
00010000
,
00002000
00000000
00000000
00000000
,
00020000
00000000
00000000
00033000
,
00000000
00001001
00000010
00000001
,
00000100
00000010
00001000
00000100
,
00001000
00000010
00010000
00001000
,
01000000
00010000
00100000
00000000
,
01000000
10000000
00100000
10000000
,
01000000
00100000
00010000
00100000
,
00011000
00000010
00011000
00000100
,
00001000
00000001
00000110
00000000
,
00000002
00000000
00000000
00000003
,
00000200
00000000
00000000
00000300
,
00000020
00000000
00000000
00000030
,
00002000
00000000
00000000
00003000
,
00010000
00000000
00010000
00000000
,
01000000
00000000
01000000
00000000
,
00100000
00000000
00100000
00000000
,
10000000
00000000
20000000
00000000
,
30000000
00000000
00000000
00000000
,
00000000
00000000
00000000
00000000
;
#NOTES:
     dance-double:
     :
     Medium:
     11:
     :
00000000
00000000
00000000
00000000
,
00000000
00000000
00000000
00000000
,
00000000
00000000
00000000
00000000
,
00000000
00000000
00000000
00000000
,
00000000
00000000
00000000
00000000
,
00000000
00000000
00000000
00000000
00000000
10000000
01000000
00100000
,
00000000
00010000
01000000
00100000
00000000
10000000
01000000
00010000
,
00000000
00001000
00000010
00000001
00000000
00001000
00000100
00000010
,
00000001
00000100
00001000
00010000
,
00002000
00000000
00000000
00000000
,
00020000
00000000
00000000
00033000
,
00001000
01000000
00010000
00000000
10000000
01000000
00100000
00000000
,
00001000
00010000
00000010
00000000
00000100
00000001
00001000
00000000
,
00000001
00000010
00000100
00000000
00001000
00000010
00000100
00000000
,
00001100
00011000
00001100
00011000
,
00100000
00010000
01000000
00000000
00010000
10000000
01000000
00000000
,
00100000
00001000
00010000
00000000
00000010
00001000
00000100
00000000
,
00000010
00000001
00000010
00000100
00010000
00001000
00010000
00000000
,
00001000
00000000
00000000
00010000
00000000
00000000
00020000
00000000
00000000
00000000
00000000
00000000
00030000
00000000
00000000
00000000
,
00002000
00000000
00000000
00000000
00000000
00000000
00000000
00013000
,
00000000
00011000
00000000
00000000
00000000
00000000
00000000
00000000
,
00100000
00020000
00000000
00000000
00000000
00000000
00000000
10030000
,
00000000
11000000
00000000
01010000
00000000
00000000
00010000
00100000
,
00010000
00000000
10000000
00000000
01000000
00100000
01000000
00000000
,
10000000
00000000
00100000
00000000
00010000
00001000
00010000
00000000
,
00001000
00000000
00000100
00000000
00000010
00001000
00000010
00000000
,
00001000
00000010
00001000
00000010
00000100
00000001
00000100
00000001
,
00000020
00000000
00000000
00000000
00000000
00000000
00000000
00000130
,
00000000
00010100
00000000
00101000
00000000
00010000
00100000
00010000
,
00100000
00100000
00200000
00000000
00000000
00000000
00000000
01300000
,
00000000
01100000
00000000
11000000
00000000
10000000
00100000
01000000
,
00100000
00000000
00010000
00000000
00001000
00010000
00001000
00000000
,
00000010
00000000
00000001
00000000
00000100
00000010
00000100
00000000
,
00001000
00000000
00010000
00000000
00100000
10000000
01000000
00000000
,
00200000
00000000
00000000
00000000
00000000
00000000
00000000
00000000
00301000
00000000
00000000
00010000
00000000
00000000
01000000
00000000
,
00010000
00000000
00000000
00001000
00000000
00000000
00000010
00000000
00000001
00000000
00000000
00000000
00000011
00000000
00000000
00000000
,
00000001
00000000
00000000
00000100
00000000
00000000
00001000
00000000
00010000
00000000
00000000
00000000
00011000
00000000
00000000
00000000
,
01010000
00000000
00000000
00000000
00011000
00000000
00000000
00000000
00100000
00000000
00000000
00100000
00000000
00000000
00100000
00000000
,
00010000
10000000
00010000
10000000
01000000
00010000
01000000
00010000
,
00001000
00000000
00000010
00000000
00000001
00000100
00000010
00000000
,
00001000
00000000
00000100
00000000
00010000
00001000
00100000
00000000
,
00010000
01000000
00100000
00000000
10000000
01000000
00100000
00000000
,
00010000
00100000
00001000
00010000
00000100
00001000
00000010
00000100
,
00000001
00000000
00000000
00001000
00000000
00000000
00002002
00000000
00000000
00000000
00000000
00000000
00003003
00000000
00000000
00000000
,
00000010
00001000
00000100
00000000
00000010
00000001
00000100
00000000
,
00000001
00000100
00001000
00010000
00000000
00100000
10000000
01000000
,
00000000
00100000
00010000
01000000
00000000
00100000
10000000
01000000
,
00010000
00001000
00000010
00000001
00000000
00000100
00000001
00000010
,
00000000
00000100
00001000
00000010
00000000
00000100
00001000
00010000
,
00000000
00100000
10000000
01000000
00000000
00010000
01000000
10000000
,
01000000
01100000
00010000
00011000
,
00001000
00000000
00000000
00000010
00000000
00000000
00000001
00000000
00000100
00000000
00000000
00000000
00001001
00000000
00000000
00000000
,
00000001
00000010
00000100
00000010
00001000
00010000
00001000
00000000
,
00010000
00001000
00010000
00100000
01000000
00100000
10000000
00000000
,
02000000
10000000
00100000
03010000
,
00002000
00010000
00000100
00003100
,
00000001
00000100
00000010
00000100
00001000
00010000
00001000
00000000
,
00010000
00001000
00010000
01000000
00100000
01000000
10000000
00000000
,
00200000
10000000
01000000
00310000
,
00002000
00010000
00003010
00000001
,
00001000
00000000
00000000
00001100
00000000
00000000
00011000
00000000
00000000
00000000
00000000
00000000
00000000
00000000
00000000
00000000
,
00020000
00000000
01000000
00000000
,
00032000
00000000
00000100
00000000
,
00023000
00000000
00100000
00000000
,
00032000
00000000
00000010
00000000
,
00013000
00010000
01000000
01000000
,
10000000
00100000
00010000
00010000
,
00001000
00001100
00000001
00000011
,
00000001
00000010
00000001
00000010
00000100
00010000
00001000
00010000
,
00001000
00000000
00000000
00100000
00000000
00000000
00001000
00000000
00000000
01000000
00000000
00000000
00002000
00000000
00020000
00000000
,
00033000
00000000
00011000
00000000
00000100
00000001
00000010
00000000
,
00000001
00000010
00001000
00010000
00000000
01000000
10000000
00100000
,
00000000
01000000
00010000
00100000
00000000
01000000
10000000
00100000
,
00010000
00001000
00000100
00000001
00000000
00000010
00000001
00000100
,
00000000
00000010
00001000
00000100
00000000
00000010
00001000
00010000
,
00000000
01000000
10000000
00100000
00000000
00010000
00100000
10000000
,
00100000
01100000
00010000
00011000
,
00001000
00000000
00000000
00000100
00000000
00000000
00000001
00000000
00000010
00000000
00000000
00000000
00001001
00000000
00000000
00000000
,
00000002
00000000
00000023
00000000
,
00002030
00000000
00023000
00000000
,
00230000
00000000
00320000
00000000
,
00032000
00000000
00023000
00000000
,
01030000
01000000
01000000
10000000
10000000
10000000
,
00100000
00100000
00100000
00010000
00010000
00010000
,
00001000
00001000
00001000
00000100
00000100
00000100
,
00000001
00000001
00000001
00000020
00000000
00000000
,
00000030
00000000
00000000
00000000
,
00000000
00000000
00000000
00000000
;
#NOTES:
     dance-double:
     :
     Hard:
     15:
     :
00000000
00000000
00000000
00000000
,
00000000
00000000
00000000
00000000
,
00000000
00000000
00000000
00000000
,
00000000
00000000
00000000
00000000
,
00000000
00000000
00000000
00000000
,
00000000
00000000
00000000
00000000
00000000
10000000
01000000
00200000
,
00000000
01300000
00100000
00002000
00000000
00013000
00000100
00002000
,
00000000
00003100
00000010
00000001
00000000
00001000
00000100
00001000
,
00001100
00000101
00000110
00001001
,
00000001
00000000
00000010
00000000
00000100
00000000
00001000
00000000
00010000
00000000
00100000
00000000
01000000
10000000
01000000
10000000
,
00020000
00000000
10000000
10030000
,
00010000
00000000
00100000
00000000
00010000
00000000
01000000
00000000
00100000
10000000
00100000
00000000
10000000
00000000
02000000
00000000
,
00000000
00000000
03010000
00000000
00001000
00000000
00000010
00000000
00000001
00000010
00000001
00000000
00001000
00000010
00001000
00000000
,
00000200
00000000
00000310
00000002
00000000
00001000
00000000
00000103
,
00000000
00000000
00000110
00000000
00000000
00000000
00001000
00000000
00010000
00000000
00100000
01000000
00100000
00000000
10000000
00000000
,
00010000
00000000
10000000
00000000
01000000
00000000
00010000
00000000
00001000
00010000
00001000
00000000
00010000
00001000
00020000
00000000
,
00000000
00001000
00002000
00000000
00000000
00033000
00000100
00000000
,
00001010
00000100
00000001
00000000
00000011
00000100
00001000
00000000
,
00001100
00000000
00000000
00011000
00000000
00000000
00110000
00000000
00000000
00000000
01000000
00000000
00100000
01000000
00100000
01000000
,
00200000
00000000
00000000
01300000
00100000
00010000
00100000
00110000
,
00000000
00022000
00000000
00000000
00000000
00033000
00001000
00000100
,
00000110
00001001
00000000
00000001
00000100
00001000
00010000
00011000
,
00000000
00110000
00000000
01100000
00000000
10000000
00100000
01000000
,
00010000
00100000
00010000
00000000
01000000
00000000
00100000
00000000
10000000
01000000
10000000
00000000
01000000
00000000
00010000
00000000
,
00001000
00000010
00001000
00010000
00001000
00000100
00000001
00000000
,
00001000
00000010
00001000
00000000
00000100
00000000
00000010
00000000
00000001
00000100
00000001
00000000
00000100
00000000
00001000
00000000
,
00010000
00100000
00010000
00001000
00010000
01000000
10000000
00000000
,
02000000
00000000
00000000
03100000
01000000
00010000
01000000
01010000
,
00000000
00011000
00000000
00001010
00000000
00000001
00001000
00000010
,
00000110
00000110
00001001
00000000
00000010
00001000
00010000
00011000
,
00000000
01010000
00000000
01100000
00000000
10000000
01000000
00100000
,
00010000
01000000
00010000
00000000
00100000
00000000
01000000
00000000
10000000
00100000
10000000
00000000
00100000
00000000
00010000
00000000
,
00001000
00000100
00001000
00010000
00001000
00000010
00000001
00000000
,
00001000
00000000
00000100
00000000
00001000
00000010
00001000
00000000
00000001
00000000
00000010
00000000
00001000
00000000
00010000
00000000
,
02000000
00000000
00000000
00000000
03000000
00000000
00000000
00000000
01100000
00000000
00000000
11000000
00000000
00000000
10100000
00000000
,
00100000
00000000
00000000
01000000
00000000
00000000
00010000
00100000
00010000
00000000
00000000
00000000
00011000
00000000
00000000
00000000
,
00001100
00000000
00000000
00001010
00000000
00000000
00000100
00000010
00000100
00000000
00000000
00000000
00000110
00000000
00000000
00000000
,
00001001
00000000
00000000
00000000
00000110
00000000
00000000
00000000
00000011
00000000
00000000
00001100
00000000
00000000
00011000
00000000
,
00001000
00100000
00001000
00000000
01000000
00010000
01000000
00000000
00010000
01000000
00100000
00000000
10000000
01000000
00100000
00000000
,
00010000
01000000
00100000
10100000
00000000
10010000
00000000
01010000
,
01000000
00001000
00010000
00000100
00001000
00001000
00000001
00000001
,
00000100
00000001
00000100
00000000
00000010
00001000
00000010
00000000
00001000
00000100
00001000
00000000
00000100
00010000
00000100
00000000
,
00010000
00001000
00010000
00001000
00100000
00001000
00100000
00000000
00010000
01000000
00010000
01000000
00100000
01000000
00100000
00000000
,
01000000
00000000
00000000
01100000
00000000
00000000
10010000
00000000
00000000
00000000
00100000
00000000
10000000
00000000
11000000
00000000
,
00000000
00100000
00010000
01010000
00000000
00100000
10000000
01000000
,
00010000
00001000
00000010
00000001
00000000
00000010
00000001
00000101
,
00000000
00000010
00001000
00001100
00000000
00000010
00000001
00000100
,
00001000
00010000
00100000
10000000
00000000
01000000
10000000
10100000
,
00000000
01000000
00010000
00110000
00000000
01000000
10000000
00100000
,
00010000
00001000
00000100
00000001
00000000
00000010
00000100
00001000
,
00001100
00001010
00011000
01010000
,
00100000
10000000
00000000
00010000
01000000
00000000
00010000
10000000
01000000
00000000
00000000
00000000
01100000
00000000
00000000
00000000
,
10000000
01000000
00010000
01000000
10000000
00100000
00010000
00001000
,
00000100
00000010
00010000
00001000
00000010
00000001
00000100
00001000
,
00000200
00000000
00000000
00000000
00000001
00000000
00000000
00000000
00000010
00000000
00000000
00001000
00000000
00000000
00001300
00000000
,
00010000
00000000
00100000
01000000
00000000
00100000
00100000
00000000
,
10000000
00100000
00010000
00100000
10000000
01000000
00010000
00001000
,
00001000
00000010
00000001
00000100
00001000
00000100
00000001
00000010
,
00002000
00000000
00000000
00000000
00010000
00000000
00000000
00000000
00000100
00000000
00000000
00010000
00000000
00000000
00013000
00000000
,
00100000
01000000
00100000
00000000
10000000
01000000
10000000
00000000
00010000
01000000
00010000
00000000
00100000
00010000
00100000
00000000
,
00001000
00000000
00000000
00010000
00000000
00000000
00011000
00000000
00000000
00000000
00000000
00000000
00000000
00000000
00000000
00000000
,
00000002
00000010
00000000
00000010
00000000
00000010
00000000
00000013
,
00000200
00001000
00000000
00001000
00000000
00001000
00000000
00001300
,
00020000
01000000
00000000
01000000
00000000
01000000
00000000
01030000
,
00200000
10000000
00000000
10000000
00000000
10000000
00000000
10300000
,
10000000
01000000
00010000
00010000
,
00001000
00000100
00000001
00000001
,
00000001
00000100
00000010
00001000
00010000
01000000
00100000
10000000
,
01000000
00100000
00010000
00000000
00100000
00001000
00010000
00000000
00001000
00010000
00000100
00000000
00001000
00000100
00000010
00000000
,
00000110
00000000
00000000
00000011
00000000
00000000
00001010
00000000
00000000
00000110
00000000
00000000
00001001
00000000
00000220
00000000
,
00000330
00000000
00000000
00000000
00001001
00000000
00000000
00000000
00000001
00000010
00000000
00000001
00000100
00000000
00000010
00000000
,
00001000
00000100
00001000
00000000
00000100
00010000
00002000
00000000
00000000
00000000
00103000
00010000
01000000
00000000
01100000
00000000
,
00000000
00000000
10000000
01000000
00100000
00000000
01100000
00000000
00000000
00000000
00010000
10000000
01000000
00000000
00010000
00000000
,
00001000
00000000
00000100
00000000
00000001
00000000
00000100
00000000
00000000
00000000
00000001
00000010
00000100
00000000
00010000
00000000
,
00001000
00010000
00000000
00001000
01000000
00000000
00010000
00000000
00100000
01000000
00000000
10000000
01000000
00000000
00100000
00000000
,
00010000
00100000
00001000
00010000
00001000
00000000
00011000
00000000
00000000
00000000
00010000
00000000
00000100
00000000
00000010
00000000
,
00000001
00000010
00000001
00000000
00000100
00000010
00000100
00000000
00001000
00010000
00001000
00000000
00100000
00010000
00100000
00000000
,
00110000
00000000
00000000
11000000
00000000
00000000
00010000
00000000
02000000
00000000
00000000
00000000
03000000
00000000
00000000
00000000
,
10000000
10000000
10000000
00100000
00100000
00100000
,
01000000
01000000
01000000
00010000
00010000
00010000
,
10000000
00100000
00010000
00001000
00000100
00000001
,
00000001
00000010
00001000
00001000
00000010
00000001
,
00000010
00000001
00000101
00000100
00001000
00011000
,
00010000
00100000
10100000
10000000
01000000
01010000
,
00011000
00011000
00011000
00001100
00000101
00001100
,
00001001
00000110
00001001
00000220
00000000
00000000
,
00000330
00000000
00000000
00000000
,
00000000
00000000
00000000
00000000
;
