
//----- song ID: rank -----//
#TITLE:ランカーキラーガール;
#ARTIST:中島由貴 × いちか;
#TITLETRANSLIT:Ranker killer girl;
#ARTISTTRANSLIT:Yuki Nakashima × Ichika;
#BANNER:Ranker killer girl.png;
#BACKGROUND:Ranker killer girl-bg.png;
#CDTITLE:./CDTitles/DDR A20.png;
#MUSIC:Ranker killer girl.ogg;
#SAMPLESTART:49.227;
#SAMPLELENGTH:15;
#BPMS:0=200;
#NOTES:
     dance-single:
     :
     Beginner:
     4:
     :
0000
0000
0000
0000
,
0000
0000
0000
0000
,
0000
0000
0000
0000
,
0000
0000
0000
0000
,
0000
0000
0000
0000
,
0001
0000
0000
0000
,
1000
0000
0000
0000
,
1001
0000
0000
0000
,
0000
0000
0000
0000
,
1001
0000
0000
0000
,
0000
0000
0000
0000
,
0002
0000
0000
0000
,
0000
0000
0003
0000
,
0010
0000
0010
0000
,
0010
0000
0000
0000
,
2000
0000
0000
0000
,
0000
0000
3000
0000
,
0010
0000
0010
0000
,
0010
0000
0000
0000
,
0001
0000
1000
0000
,
0001
0000
0000
0000
,
0010
0000
0001
0000
,
0100
0000
0000
0000
,
1000
0000
0001
0000
,
1001
0000
0000
0000
,
2000
0000
0000
0000
,
0000
0000
3000
0000
,
0100
0000
0100
0000
,
0100
0000
0000
0000
,
0002
0000
0000
0000
,
0000
0000
0003
0000
,
0100
0000
0100
0000
,
0100
0000
0000
0000
,
1000
0000
0001
0000
,
1000
0000
0000
0000
,
0100
0000
1000
0000
,
0010
0000
0000
0000
,
0001
0000
0010
0000
,
1000
0000
0001
0000
,
0100
0000
0000
0000
,
1001
0000
0000
0000
,
0001
0001
0001
0000
,
1000
1000
1000
0000
,
0001
0001
0001
0000
,
0100
0000
0000
0000
,
1000
0000
0001
0000
,
1000
0000
0001
0000
,
1000
0000
0100
0000
,
1000
0000
0000
0000
,
1000
1000
1000
0000
,
0001
0001
0001
0000
,
1000
1000
1000
0000
,
0100
0000
0000
0000
,
0001
0000
1000
0000
,
0001
0000
1000
0000
,
0001
0000
0100
0000
,
0001
0000
0000
0000
,
0001
0000
0010
0000
,
0001
0000
0010
0000
,
1000
0000
0010
0000
,
1000
1000
1000
0000
,
1000
0000
0100
0000
,
1000
0000
0100
0000
,
0001
0000
0100
0000
,
0001
0001
0001
0000
,
1000
0000
0001
0000
,
1001
0000
0000
0000
,
1001
0000
0000
0000
,
1001
0000
0000
0000
,
1001
0000
0000
0000
,
1001
0000
0000
0000
,
0001
0000
0010
0000
,
0100
0000
1000
0000
,
0100
0000
0010
0000
,
0000
0000
0100
0100
,
0100
0000
0010
0010
,
0010
0000
0100
0100
,
0100
0000
1000
0000
,
0000
0000
0001
0000
,
0010
0000
1000
0000
,
0100
0000
0010
0000
,
0100
0000
0010
0010
,
0010
0000
1000
0000
,
0100
0000
0010
0000
,
1000
0000
0100
0000
,
0010
0000
0001
0000
,
1000
0000
1001
0000
,
0000
0000
1001
0000
,
0000
0000
2002
0000
,
0000
0000
0000
3003
,
0000
0000
0001
0000
,
0100
0000
0010
0010
,
0010
0000
1000
0000
,
0100
0000
0001
0001
,
0001
0000
1000
0000
,
0010
0000
0100
0100
,
0100
0000
1000
0000
,
0100
0000
0001
0000
,
0010
0000
1000
0000
,
0100
0000
0001
0000
,
0010
0000
1001
0000
,
0000
0000
0000
0000
;
#NOTES:
     dance-single:
     :
     Easy:
     8:
     :
0000
0000
0000
0000
,
0000
0000
0000
0000
,
0000
0000
0000
0000
,
0000
0000
0000
0000
,
0000
0000
0000
0000
,
0001
0000
0000
0000
,
1000
0000
0000
0000
,
1001
0000
0000
0000
,
0000
0000
0000
0000
,
0110
0000
0000
0000
,
0001
1000
0001
1000
,
0002
0000
0000
0000
,
0000
0000
0003
0000
,
1000
1000
0100
0000
,
0010
0010
0001
0000
,
2000
0000
0000
0000
,
0000
0000
3000
0000
,
0001
0001
0100
0000
,
0010
0010
1000
0000
,
1000
0100
0001
0100
,
1000
0100
0010
0000
,
0011
0000
0101
0000
,
1010
0000
1100
0000
,
0001
0100
1000
0100
,
0001
0010
0100
0000
,
0020
0000
0000
0000
,
0000
0000
0030
0000
,
0001
0010
1000
0010
,
0001
1000
0001
0000
,
0200
0000
0000
0000
,
0000
0000
0300
0000
,
1000
0010
0001
0010
,
1000
0001
1000
0000
,
0010
1000
0100
0010
,
0001
0100
0010
0000
,
0110
0000
1001
0000
,
1100
0000
0011
0000
,
1000
1000
0010
0100
,
0001
0001
0010
0000
,
2002
0000
0000
0000
,
3003
0000
0000
0000
,
0001
0001
0001
0000
,
1000
1000
1000
0000
,
0001
0010
1000
0010
,
0100
0010
0001
0000
,
1001
0000
0011
0000
,
1010
0000
0110
0000
,
1000
0100
0010
0001
,
2000
0000
0000
3000
,
1000
1000
1000
0000
,
0001
0001
0001
0000
,
1000
0100
0001
0100
,
0010
0100
1000
0000
,
1001
0000
1100
0000
,
0101
0000
0110
0000
,
0001
0010
0100
1000
,
0002
0000
0000
0003
,
1000
0001
1000
1001
,
0001
1000
0001
1001
,
0010
0100
0010
0110
,
0100
0010
0100
0110
,
0001
0001
0010
0010
,
0100
0100
1000
1000
,
0001
0100
0010
1000
,
0001
0100
1000
0100
,
0001
0010
0100
1000
,
0002
0000
0000
0003
,
1001
0000
0000
0000
,
0110
0000
0000
0000
,
1001
0000
0110
0000
,
1001
0000
0100
0100
,
0001
0001
1000
0000
,
0010
0010
1000
0000
,
0100
1000
0010
0100
,
0000
0000
0010
0010
,
0010
0000
0100
0100
,
0100
0000
0010
1000
,
0100
0010
0001
1000
,
0001
0000
1001
0000
,
1100
0000
1010
0000
,
0101
0000
0001
0100
,
0010
1000
0100
0100
,
0100
0000
1000
0001
,
1000
0000
1000
0100
,
1000
0000
0001
1000
,
0001
0000
0001
0010
,
0001
0000
1001
0000
,
0000
0000
0110
0000
,
0000
0000
2002
0000
,
0000
0000
0000
3003
,
0000
0000
0010
0010
,
0010
0000
0010
1000
,
0001
0000
0010
0010
,
0010
0000
0001
0100
,
0001
0000
0100
0100
,
0100
0000
0010
1000
,
0001
0000
0010
1000
,
1000
0100
1000
1000
,
0001
0001
0010
0001
,
0001
0100
0001
0001
,
1000
1000
1001
0000
,
0000
0000
0000
0000
;
#NOTES:
     dance-single:
     :
     Medium:
     13:
     :
0000
0000
0000
0000
,
0000
0000
0000
0000
,
0000
0000
0000
0000
,
0000
0000
0000
0000
,
0000
0000
0000
0000
,
0002
0000
0000
0000
,
2000
0000
0000
0000
,
3003
0000
0000
0000
,
0000
0000
0000
0000
,
0001
1000
0000
0000
0000
0000
0000
1001
,
0000
0010
0100
0010
0100
0001
1000
0000
,
0002
0000
0000
0000
,
0000
0000
2000
3003
,
1000
0010
1010
0000
1010
0000
0100
0001
,
0000
0001
0101
0000
1000
0100
1000
0000
,
0002
0000
0000
0000
,
0000
0000
2000
3003
,
0001
0010
0011
0000
0011
0000
0100
1000
,
0000
1000
1100
0000
0001
0100
0001
0000
,
1000
0100
1000
0000
1000
0001
0010
0000
,
0001
0100
0010
0100
0001
0000
1000
0000
,
0001
0100
0001
0000
0001
1000
0100
0000
,
1000
0100
0010
0100
1000
0000
1001
0000
,
0001
1000
0010
0000
0100
0000
0001
1000
,
0000
1001
0000
0220
0000
0000
0330
0000
,
2000
0000
0000
0000
,
3020
0000
0230
0300
,
0001
0100
0110
0000
0110
0000
1000
0100
,
0000
0001
0100
0000
1000
0010
0100
0000
,
0002
0000
0000
0000
,
0023
0000
0230
0300
,
1000
0100
0110
0000
0110
0000
0001
0100
,
0000
1000
0100
0000
0001
0100
0010
0000
,
1000
0000
0100
0000
0001
0100
1000
0000
,
0010
0001
0100
1000
,
0010
1001
0100
1001
,
0010
1001
0100
1001
,
0000
0010
1000
0010
1000
0000
1000
0100
,
0000
1100
0000
0011
0000
1001
0000
0000
,
0220
0000
0000
0330
,
0010
0000
0000
0010
0000
0000
0010
0000
0000
0000
0000
0000
0000
0000
0000
0000
,
1000
0010
0001
1000
0100
0001
1000
0000
,
1000
0010
0001
1000
0100
0001
1000
0000
,
1000
0010
0001
1000
0100
0001
1000
0000
,
1001
0110
2002
3003
,
0001
1100
0010
0101
,
0100
0000
1100
0000
1001
0000
0001
1000
,
1000
1000
0000
1001
0000
0110
0000
1001
,
0000
0001
2000
0000
0000
0000
3000
0000
,
0001
0100
1000
0001
0010
1000
0001
0000
,
0001
0100
1000
0001
0010
1000
0001
0000
,
0001
0100
1000
0001
0010
1000
0001
0000
,
1001
0110
2002
3003
,
1000
0011
0100
1010
,
0010
0000
0011
0000
1001
0000
1000
0001
,
0001
0001
0000
0110
0000
1000
1000
2000
,
0000
0000
3001
1001
,
0001
0100
0001
0100
0010
1000
0010
1000
,
0100
1000
0100
1000
0001
0010
0001
0000
,
1000
0010
1000
0010
0100
0001
0100
0001
,
1000
0100
0010
0001
1000
0000
1001
0000
,
0001
0001
0100
0000
1000
1000
0100
0001
,
0000
0001
1000
0000
1000
1000
0010
0010
,
0000
1000
0100
1000
0001
0010
0001
0100
,
0000
0100
0010
0000
1010
0000
0011
0000
,
0001
1000
0001
1000
0001
1000
0001
0000
,
0010
0000
0000
0010
0000
0000
0010
0000
0000
0000
0000
0000
0000
0000
0000
0000
,
1001
0000
0000
0000
0000
0000
0000
0110
,
0000
0000
0000
0000
0000
0000
0000
1001
,
0000
0000
0000
0110
0000
0000
0000
1001
,
0000
0000
0000
0000
1000
0001
1000
0000
,
0010
0000
0010
0000
1001
0000
0100
0010
,
0000
0100
0010
0000
1001
0000
0000
1000
,
0000
0110
0000
0001
0000
0110
0000
0000
,
0000
0000
0000
0000
0001
0010
1000
0001
,
0100
1000
0001
0000
0001
1000
0100
0001
,
1000
0010
0001
0000
0001
0010
1000
0001
,
0100
1000
0001
0000
1001
0000
0110
0000
,
2002
3003
0010
1001
,
0100
0011
1000
0110
,
0001
0000
1000
0100
0000
0100
0001
0100
,
0000
0100
1000
0100
0000
0010
0010
0000
,
0010
0000
0110
0000
0001
0010
0001
0000
,
0001
0100
0001
0000
1000
0010
1000
0000
,
1000
0100
1000
0000
0010
1000
0100
0000
,
0010
0001
0100
0000
0010
1000
0100
0000
,
0010
0001
0100
0000
1001
0000
0000
0000
,
0000
0000
0000
0110
0000
0001
1000
0000
,
0220
0000
0330
0000
1000
0010
1000
0000
,
0001
0010
0001
0000
2000
0000
3200
0000
,
0320
0032
1003
0001
,
0100
0001
0100
0000
0101
0000
1100
0000
,
1001
0000
0001
1000
,
0100
1000
0100
0000
1100
0000
0101
0000
,
1001
0000
1000
0001
,
1000
0010
1000
0000
1010
0000
0011
0000
,
1001
0000
0000
0000
1000
1000
0010
1000
,
1000
0001
1000
1000
0100
1000
1000
0001
,
2000
0000
3000
0000
0001
0001
0010
0001
,
0001
1000
0001
0001
0100
0001
0001
1000
,
0002
0000
0003
0000
1000
0001
0000
0000
,
0000
0000
0000
0000
;
#NOTES:
     dance-single:
     :
     Hard:
     17:
     :
0000
0000
0000
0000
,
0000
0000
0000
0000
,
0000
0000
0000
0000
,
0000
0000
0000
0000
,
0000
0000
0000
0000
,
2002
0000
0000
3003
,
0220
0000
0000
0000
,
0330
0000
0000
0000
,
0000
0000
0000
0000
,
0001
1001
0000
0000
0000
0000
0000
1001
,
0000
0000
0001
0010
0001
0000
1000
0100
1000
0000
0001
0100
0001
0000
0000
0000
,
2000
0000
0000
0000
,
0000
0000
0002
3003
,
0001
0010
0011
0001
1001
1000
0010
1010
,
0000
0000
1000
0100
0010
0000
0001
0100
0010
0000
1000
0000
0001
0000
0000
0000
,
2000
0000
0000
0000
,
0000
0000
0002
3003
,
1000
0010
1010
1000
1001
0001
0010
0011
,
0000
0000
0001
0010
0100
0000
1000
0010
0100
0000
0001
0000
1000
0000
0000
0000
,
0001
0100
1000
0100
0001
0010
0100
1000
,
0100
0001
0100
1000
0010
0100
0010
0000
,
1000
0100
1000
0000
0110
0000
0000
0000
0001
0100
0001
0000
0110
0000
0000
0000
,
1000
0010
1000
0000
0110
0000
0000
0000
0001
0010
0001
0000
0110
0000
0000
0000
,
1000
0010
0100
0010
0100
0000
0001
0011
,
0000
0000
1010
0000
0000
0000
0101
0000
0000
0000
0001
1000
0001
0000
0000
0000
,
0020
0000
0000
0030
,
0001
0100
0001
0000
0001
0000
1000
0100
1000
0000
1000
0000
0001
0000
0000
0000
,
1000
0100
1100
1000
1001
0001
0100
0101
,
0000
0000
0001
1000
0100
0000
1000
0001
0010
0000
0001
1000
0010
0000
0000
0000
,
0200
0000
0000
0300
,
0001
0010
0001
0000
1000
0010
1000
0000
0001
0010
0100
1000
0001
0000
0000
0000
,
0001
0010
0011
0001
1001
1000
0010
1010
,
0000
0000
1000
0001
0010
0000
0001
1000
0100
0000
1000
0001
0100
0000
0000
0000
,
0010
1000
0100
0001
0100
1000
0010
0100
,
0001
0010
1000
0010
0001
0100
0010
0000
,
1000
0010
1000
0000
0110
0000
0000
0000
0001
0010
0001
0000
0110
0000
0000
0000
,
1000
0100
1000
0000
0110
0000
0000
0000
0001
0100
0001
0000
0110
0000
0000
0000
,
1000
0001
0010
0001
0100
0000
0010
1010
,
0000
1100
0000
0011
0000
0101
0000
0000
,
2002
0000
0000
3003
,
0001
0000
0000
1000
0000
0000
1001
0000
0000
0000
0000
0000
0000
0000
0000
0000
,
0001
0000
0001
0100
1000
0000
0100
0000
0001
0000
1000
0000
0000
0000
1001
0000
,
0000
0000
0001
0100
1000
0000
0100
0000
0001
0000
1000
0000
0000
0000
1001
0000
,
0000
0000
0001
0100
1000
0000
0100
0000
0001
0000
1000
0000
0000
0000
1010
0000
,
0000
1100
0000
2002
0000
3003
0000
0001
,
0100
0010
0100
0010
1000
0100
1000
0010
,
0000
0110
0000
0202
0000
0303
0000
0001
,
0100
1100
0000
1000
0100
0101
0000
0010
,
0000
0100
0220
0000
0000
0000
0330
0000
,
1000
0000
1000
0100
0001
0000
0100
0000
1000
0000
0001
0000
0000
0000
1001
0000
,
0000
0000
1000
0100
0001
0000
0100
0000
1000
0000
0001
0000
0000
0000
1001
0000
,
0000
0000
1000
0100
0001
0000
0100
0000
1000
0000
0001
0000
0000
0000
0011
0000
,
0000
0101
0000
2002
0000
3003
0000
1000
,
0100
0010
0100
0010
0001
0100
0001
0010
,
0000
0110
0000
2200
0000
3300
0000
1000
,
0100
0001
0100
0101
0100
1000
0001
2002
,
0000
0000
0000
3003
,
0001
0010
0100
0000
1000
0000
0001
0000
1000
0100
0010
0000
0001
0000
0100
0000
,
0001
1000
0010
0000
0100
0000
0001
0000
1000
0100
0010
0000
0001
0000
1000
0000
,
0001
0000
0100
0000
1000
0000
0100
0000
0001
0010
0100
0010
0001
0000
1000
0000
,
0010
1000
0100
0000
0010
0001
0100
0000
0001
1000
0100
0010
0001
0000
0000
0000
,
1000
0001
0010
0000
0100
1000
0001
0000
0010
0001
0100
0001
0010
0000
0100
1000
,
0010
1000
0100
0000
1000
0001
0010
0000
0001
0100
1000
0100
0001
0000
2000
0000
,
0000
0000
3100
0010
0100
0000
0001
0000
0100
0010
0100
0000
1000
0000
0002
0000
,
0000
0000
1003
0010
0100
0010
1000
0000
0010
0100
0010
0000
0100
0000
0002
0000
,
0000
0000
1003
0100
0010
0001
0010
0000
0100
0010
0100
0000
0010
0001
0010
0000
,
0100
0000
0000
0010
0000
0000
0110
0000
0000
0000
0000
0000
0000
0000
0000
0000
,
1001
0000
0000
0000
0000
0000
0000
1100
,
0000
0000
0000
0000
0000
0000
0000
0101
,
0000
0000
0000
1010
0000
0000
0000
1001
,
0000
0000
0000
0000
0000
0000
0000
0000
0001
1000
0001
1000
0001
0000
0000
0000
,
1000
0000
1000
0000
1001
0000
0100
0001
,
1000
0001
0100
0000
1001
0000
0000
0010
,
0000
1010
0000
0100
0000
0101
0000
0000
,
0010
1000
0001
0100
0010
0000
0000
0000
1000
0000
1000
0010
0001
0000
0001
0010
,
1000
0000
0001
0000
0000
0000
1001
0000
0000
0000
0001
0010
1000
0000
1000
0010
,
0001
0000
1000
0000
0000
0000
1001
0000
0000
0000
1000
0010
0001
0000
0001
0010
,
1000
0001
0000
0011
0000
1100
0000
2002
,
0000
3003
0000
1000
0010
0100
1000
0001
,
0010
0100
0001
0010
0000
0011
0000
2200
,
0000
3300
0000
1000
0100
0101
0000
0001
,
0100
1100
0000
0101
0000
0010
1000
0020
,
2000
0000
0000
0000
3030
0000
0000
0000
0100
0001
0010
0000
0100
0000
0010
0000
,
0100
1000
0010
0000
0100
0000
0001
0000
0010
0001
0100
0000
0010
0000
0100
0000
,
0010
1000
0100
0000
0010
0000
0100
0000
1000
0100
0001
0000
1000
0000
0001
0000
,
1000
0010
0001
0000
1000
0000
0001
0000
0001
0100
1000
0000
0001
0000
1000
0000
,
0001
0010
1000
0000
0001
0000
1000
0000
1001
0000
0000
0000
0000
0000
0000
0000
,
0000
0000
0000
0000
0000
0000
0110
0000
0000
0000
1000
0001
1000
0000
0010
0000
,
0100
0100
0000
0210
0000
0310
1000
0100
,
0001
0100
1000
0010
0001
1000
0100
0001
,
0010
0000
1001
0000
0001
0010
0100
0001
,
1000
0010
0100
1000
0001
0100
1000
0100
,
0001
0010
1001
0000
1000
0010
0100
1000
,
0001
0010
0100
0001
1000
0100
0001
0100
,
1000
0010
1001
0000
1001
1000
0010
1000
,
1100
1000
0010
0100
0101
0001
0010
0001
,
1001
0000
0001
0000
0100
0000
0001
0000
1000
0000
0001
0100
0001
0000
1000
0000
,
0001
0010
0001
0000
0100
0000
0001
0010
0001
0000
1000
0000
0001
0100
0001
0000
,
1000
0001
1000
0001
1000
0000
0000
0000
0001
0000
1000
0100
1000
0000
0001
0000
,
1000
0010
1000
0000
0100
0000
1000
0010
1000
0000
0001
0000
1000
0100
1000
0000
,
0001
0010
1000
0000
0001
0100
1000
0000
0001
0000
1001
0000
0000
0000
0000
0000
,
0000
0000
0000
0000
;
#NOTES:
     dance-double:
     :
     Easy:
     8:
     :
00000000
00000000
00000000
00000000
,
00000000
00000000
00000000
00000000
,
00000000
00000000
00000000
00000000
,
00000000
00000000
00000000
00000000
,
00000000
00000000
00000000
00000000
,
00001000
00000000
00000000
00000000
,
00010000
00000000
00000000
00000000
,
00011000
00000000
00000000
00000000
,
00000000
00000000
00000000
00000000
,
01100000
00000000
00000000
00000000
,
10000000
01000000
00100000
00010000
,
00002000
00000000
00000000
00000000
,
00000000
00000000
00003000
00000000
,
00000001
00000001
00000010
00000000
,
00000100
00000100
00001000
00000000
,
00020000
00000000
00000000
00000000
,
00000000
00000000
00030000
00000000
,
00001000
00001000
00100000
00000000
,
00010000
00010000
00001000
00000000
,
00010000
01000000
10000000
01000000
,
00010000
00001000
00010000
00000000
,
00001100
00000000
00000110
00000000
,
00000101
00000000
00001100
00000000
,
00010000
00100000
10000000
00100000
,
00010000
00001000
00010000
00000000
,
00002000
00000000
00000000
00000000
,
00000000
00000000
00003000
00000000
,
10000000
10000000
01000000
00000000
,
00100000
00100000
00010000
00000000
,
00002000
00000000
00000000
00000000
,
00000000
00000000
00003000
00000000
,
00010000
00010000
00000100
00000000
,
00001000
00001000
00010000
00000000
,
00001000
00000010
00000001
00000010
,
00001000
00010000
00001000
00000000
,
00110000
00000000
01100000
00000000
,
10100000
00000000
00110000
00000000
,
00001000
00000100
00000001
00000100
,
00001000
00010000
00001000
00000000
,
00022000
00000000
00000000
00000000
,
00033000
00000000
00000000
00000000
,
00001000
00000010
00001000
00000000
,
00010000
00100000
00010000
00000000
,
00001000
00000010
00000001
00000010
,
00001000
00010000
00001000
00000000
,
00110000
00000000
10010000
00000000
,
11000000
00000000
01100000
00000000
,
10000000
00100000
01000000
00001000
,
00020000
00000000
00000000
00030000
,
00001000
00000100
00001000
00000000
,
00010000
01000000
00010000
00000000
,
00001000
00000100
00000001
00000100
,
00001000
00010000
00001000
00000000
,
01001000
00000000
01010000
00000000
,
11000000
00000000
01100000
00000000
,
00001000
00010000
00000010
00000100
,
00000002
00000000
00000000
00000003
,
00000001
00001000
00000001
00000001
,
00001000
00010000
00001000
00001000
,
00010000
10000000
00010000
00010000
,
01000000
00100000
01100000
00000000
,
10000000
00010000
00110000
00000000
,
00001000
00000010
00000011
00000000
,
00000001
00000001
00000100
00000100
,
00001000
00010000
00001000
00010000
,
00100000
01000000
00001000
00010000
,
00002000
00000000
00000000
00003000
,
00000010
00000000
00000000
00000000
,
01000000
00000000
00000000
00000000
,
00100000
00000000
00000000
00000000
,
00000100
00000000
00000000
00000000
,
00000001
00001000
00010000
00000000
,
00001000
00010000
10000000
00000000
,
01000000
00010000
00001000
00000010
,
00000000
00000000
00000001
00000001
,
00000001
00000000
00001000
00001000
,
00001000
00000000
00000010
00000100
,
00001000
00010000
00100000
01000000
,
10000000
00000000
01100000
00000000
,
00110000
00000000
00001100
00000000
,
00000110
00000000
00000001
00000100
,
00001000
00010000
00001000
00000010
,
00000001
00000000
00001000
00000100
,
00001000
00000000
00001000
00010000
,
00001000
00000000
00010000
00100000
,
00010000
00000000
00010000
00001000
,
00010000
00000000
00011000
00000000
,
00000000
00000000
00001000
00000000
,
00010000
00000000
00022000
00000000
,
00000000
00000000
00000000
00033000
,
00000000
00000000
00001000
00000000
,
00010000
00000000
00100000
10000000
,
01000000
00000000
00010000
00000000
,
00001000
00000000
00000010
00000001
,
00000100
00000000
00001000
00001000
,
00001000
00000000
00010000
00010000
,
00010000
00000000
00001000
00000010
,
00001000
00010000
00001000
00000100
,
00001000
00001000
00010000
00100000
,
00010000
00001000
00010000
01000000
,
00010000
00010000
00011000
00000000
,
00000000
00000000
00000000
00000000
;
#NOTES:
     dance-double:
     :
     Medium:
     13:
     :
00000000
00000000
00000000
00000000
,
00000000
00000000
00000000
00000000
,
00000000
00000000
00000000
00000000
,
00000000
00000000
00000000
00000000
,
00000000
00000000
00000000
00000000
,
00002000
00000000
00000000
00000000
,
00020000
00000000
00000000
00000000
,
00033000
00000000
00000000
00000000
,
00000000
00000000
00000000
00000000
,
00000100
00000010
00000000
00000000
00000000
00000000
00000000
00001002
,
00000000
00000013
00000100
00000010
00000100
00010000
00001000
00000000
,
00020000
00000000
00000000
00000000
,
00000000
00000000
01030000
00000000
,
10000000
00100000
10100000
00000000
10100000
00000000
01000000
00010000
,
00000000
00010000
01010000
00000000
00100000
00010000
00100000
00000000
,
00002000
00000000
00000000
00000000
,
00000000
00000000
00003100
00000000
,
00000001
00000010
00000011
00000000
00000011
00000000
00000100
00001000
,
00000000
00001000
00001100
00000000
00000001
00000100
00000001
00000000
,
00000010
00000000
00000100
00000000
00010000
00001000
00010000
00000000
,
00010000
01000000
00010000
00000000
01000000
10000000
01000000
00000000
,
10000000
00100000
01000000
00000000
00010000
00100000
01000000
00000000
,
00100000
00001000
00010000
00000100
00001000
00000000
00001001
00000000
,
00000010
00000100
00000010
00000000
00001000
00000000
00000001
00000100
,
00000000
00001100
00000000
00011000
00000000
00000000
00000000
00000000
,
20000000
00000000
00000000
00000000
,
30200000
00000000
00310000
00000000
,
00001000
00010000
00011000
00000000
00011000
00000000
00001000
00000010
,
00000000
00000001
00000100
00000000
00000010
00010000
00001000
00000000
,
00000020
00000000
00000000
00000000
,
00000230
00000000
00001300
00000000
,
00000100
00010000
00011000
00000000
00011000
00000000
00010000
01000000
,
00000000
10000000
00100000
01000000
00010000
00100000
00001000
00000000
,
00010000
00000000
00000010
00000000
00000100
00000001
00000100
00000000
,
00000001
00000100
00001000
00010000
,
00100000
10010000
01000000
10010000
,
01000000
00011000
00100000
00011000
,
00000000
00000100
00000010
00000100
00000010
00000000
00000010
00000001
,
00000000
00000101
00000000
00001010
00000000
00001100
00000000
00000000
,
00022000
00000000
00000000
00033000
,
00001000
00000000
00000000
00001000
00000000
00000000
00001000
00000000
00000000
00000000
00000000
00000000
00000000
00000000
00000000
00000000
,
00010000
00100000
10000000
01000000
00010000
00000000
00011000
00000000
,
00001000
00000010
00000001
00000100
00001000
00000000
00011000
00000000
,
00010000
00100000
10000000
01000000
00010000
00000000
00011000
00000000
,
00000100
00000010
00000100
00000000
00002002
00000000
00003003
00000000
,
00000001
00000100
00001000
00010010
,
00001000
00100000
01000000
10010000
,
10000000
01000000
00000000
01100000
00000000
00110000
00000000
00011000
,
00000000
00002000
00020000
00000000
00000000
00000000
00033000
00000000
,
00001000
00000010
00000001
00000100
00001000
00000000
00011000
00000000
,
00010000
00100000
10000000
01000000
00010000
00000000
00011000
00000000
,
00001000
00000010
00000001
00000100
00001000
00000000
00011000
00000000
,
01000000
00100000
01000000
00000000
20020000
00000000
30030000
00000000
,
10000000
01000000
00010000
00101000
,
00010000
00000010
00000100
00001001
,
00001000
00000100
00000000
00000110
00000000
00000010
00002000
00020000
,
00000000
00000000
00000000
00033000
,
00100000
10000000
00100000
10000000
01000000
00100000
01000000
00100000
,
00010000
00100000
00010000
00100000
00001000
00010000
00001000
00000000
,
00000010
00000001
00000010
00000001
00000100
00000010
00000100
00000010
,
00001000
00000100
00010000
00001000
00010000
00000100
00001000
00000000
,
00000010
00000100
00001000
00000100
00001000
00000000
00010000
00001000
,
00100000
00010000
01000000
00010000
00100000
00000000
00010000
01000000
,
00000000
10000000
01000000
00010000
00010000
00100000
01000000
00010000
,
00000000
00001000
00010000
00000000
00011000
00000000
00011000
00000000
,
00001000
00000010
00001000
00000010
00000001
00001000
00000001
00001000
,
00000001
00000000
00000000
00000001
00000000
00000000
00000001
00000000
00000000
00000000
00000000
00000000
00000000
00000000
00000000
00000000
,
00001001
00000000
00000000
00000000
00000000
00000000
00000000
00000100
,
00000000
00000000
00000000
00000000
00000000
00000000
00000000
00010000
,
00000000
00000000
00000000
00100000
00000000
00000000
00000000
01000000
,
00000000
00000000
00000000
00000000
00010000
10000000
00010000
00000000
,
10000000
00000000
01000000
00000000
00100000
00000000
00001000
00010000
,
00000000
00001000
00010000
00000000
00000100
00000000
00000010
00000001
,
00000000
00000110
00000000
00001000
00000000
00011000
00000000
00000000
,
00000000
00000000
00000000
00000000
00010000
01000000
10000000
00100000
,
00010000
00000000
00011000
00000000
00001000
00000100
00000001
00000010
,
00001000
00000000
00011000
00000000
00010000
01000000
10000000
00100000
,
00010000
00000000
00011000
00000000
00000010
00000100
00000010
00000000
,
00002002
00003003
00000001
00000010
,
00001000
00010100
00001000
01000000
,
00100000
00000000
10010000
00000000
10000000
00100000
00000000
01100000
,
00000000
01010000
00000000
00011000
00000000
00001000
00010000
00002000
,
00020000
00000000
00033000
00000000
00000010
00000001
00000010
00000000
,
00000010
00001000
00000010
00000000
00001000
00010000
00001000
00100000
,
00010000
00000000
01000000
00000000
00100000
10000000
00100000
00000000
,
00100000
00010000
00100000
00000000
00010000
00001000
00010000
00000010
,
00000100
00000001
00001001
00000000
,
00000000
00000000
00000000
00011000
00000000
00100000
01000000
00000000
,
20020000
30030000
20000000
32000000
,
03200000
00320000
00032000
00003200
,
00000320
00000032
00000103
00000010
,
00001000
00000100
00001000
00000000
00000100
00000000
00010000
00000000
,
00001000
00100000
01000000
10000000
,
00100000
01000000
00100000
00000000
10000000
00000000
00010000
00000000
,
00100000
00001000
00010000
00000100
,
00001000
00000100
00001000
00000000
00000010
00000000
00000100
00000000
,
00000001
00001000
00000001
00000000
00000001
00000001
00000100
00000010
,
00000010
00001000
00000100
00000100
00010000
00001000
00001000
00100000
,
00010000
01000000
00100000
00000000
10000000
10000000
01000000
00100000
,
00100000
00010000
01000000
01000000
00001000
00010000
00010000
00000010
,
00001000
00000100
00000010
00000000
00000001
00001000
00000000
00000000
,
00000000
00000000
00000000
00000000
;
#NOTES:
     dance-double:
     :
     Hard:
     17:
     :
00000000
00000000
00000000
00000000
,
00000000
00000000
00000000
00000000
,
00000000
00000000
00000000
00000000
,
00000000
00000000
00000000
00000000
,
00000000
00000000
00000000
00000000
,
00002002
00000000
00000000
00003003
,
00000220
00000000
00000000
00000000
,
00000330
00000000
00000000
00000000
,
00000000
00000000
00000000
00000000
,
10000000
10010000
00000000
00000000
00000000
00000000
00000000
11000000
,
00000000
00000000
01000000
00010000
01000000
00000000
00010000
00001000
00010000
00000000
00000100
00001000
00000100
00000000
00000000
00000000
,
00000020
00000000
00000000
00000000
,
00000000
00000000
00000200
00000330
,
00000001
00000100
00000101
00000001
00001001
00001000
00000100
00010100
,
00000000
00001000
00010000
01000000
10000000
00010000
00100000
00000000
,
02000000
00000000
00000000
00000000
,
00000000
00000000
00200000
03300000
,
10000000
01000000
11000000
10000000
10010000
00010000
01000000
01001000
,
00000000
00010000
00001000
00000100
00000001
00001000
00000010
00000000
,
00000001
00000010
00000100
00000010
00000100
00001000
00000010
00000100
,
00001000
00010000
00100000
01000000
00001000
00010000
01000000
00000000
,
10000000
01000000
10000000
00000000
11000000
00000000
00000000
00000000
00010000
01000000
00010000
00000000
01010000
00000000
00000000
00000000
,
00100000
00001000
00100000
00000000
00011000
00000000
00000000
00000000
00000100
00001000
00000100
00000000
00000110
00000000
00000000
00000000
,
00000001
00000100
00001000
00000100
00000010
00000000
00010000
00011000
,
00000000
00000000
00101000
00000000
00000000
00000000
01010000
00000000
00000000
00000000
00010000
10000000
00010000
00000000
00000000
00000000
,
02000000
00000000
00000000
03000000
,
00001000
00100000
00001000
00000000
00001000
00000000
01000000
00010000
01000000
00000000
01000000
00000000
00100000
00000000
00000000
00000000
,
10000000
00100000
10100000
10000000
10010000
00010000
00100000
00101000
,
00000000
00010000
00001000
00000010
00000001
00001000
00000100
00000000
,
00000020
00000000
00000000
00000030
,
00000100
00001000
00000100
00000000
00010000
00001000
00010000
00000000
00000100
00001000
00000100
00000010
00000001
00000000
00000000
00000000
,
00000001
00000010
00000011
00000001
00001001
00001000
00000010
00010010
,
00000000
00001000
00010000
00100000
10000000
00010000
01000000
00000000
,
10000000
01000000
00100000
01000000
00100000
00010000
01000000
00100000
,
00010000
00001000
00000100
00000010
00010000
00001000
00000010
00000000
,
00000001
00000010
00000001
00000000
00000011
00000000
00000000
00000000
00001000
00000010
00001000
00000000
00001010
00000000
00000000
00000000
,
00000100
00010000
00000100
00000000
00011000
00000000
00000000
00000000
00100000
00010000
00100000
00000000
01100000
00000000
00000000
00000000
,
10000000
00100000
00010000
00100000
01000000
00000000
00001000
00010000
,
00000000
00011000
00000000
00010100
00000000
00000110
00000000
00000000
,
00002002
00000000
00000000
00003003
,
00001000
00000000
00000000
00010000
00000000
00000000
00011000
00000000
00000000
00000000
00000000
00000000
00000000
00000000
00000000
00000000
,
00001000
00000000
00010000
00100000
10000000
00000000
01000000
00000000
00010000
00000000
00001000
00000000
00000000
00000000
00011000
00000000
,
00000000
00000000
00001000
00000010
00000001
00000000
00000100
00000000
00001000
00000000
00010000
00000000
00000000
00000000
00011000
00000000
,
00000000
00000000
00010000
00100000
10000000
00000000
01000000
00000000
00010000
00000000
00001000
00000000
00000000
00000000
00011000
00000000
,
00000000
00001010
00000000
00000202
00000000
00000303
00000000
00000020
,
00000000
00000031
00000100
00000010
00001000
00010000
01000000
00100000
,
00000000
10100000
00000000
20020000
00000000
30030000
00000000
01000000
,
00100000
00001000
00010000
00000100
00000010
00000001
00000000
00000100
,
00000000
00002000
00020000
00000000
00000000
00000000
00033000
00000000
,
00010000
00000000
00001000
00000010
00000001
00000000
00000100
00000000
00001000
00000000
00010000
00000000
00000000
00000000
00011000
00000000
,
00000000
00000000
00010000
00100000
10000000
00000000
01000000
00000000
00010000
00000000
00001000
00000000
00000000
00000000
00011000
00000000
,
00000000
00000000
00001000
00000010
00000001
00000000
00000100
00000000
00001000
00000000
00010000
00000000
00000000
00000000
00011000
00000000
,
00000000
00110000
00000000
22000000
00000000
33000000
00000000
00200000
,
00000000
10300000
01000000
00100000
00010000
00001000
00000100
00000010
,
00000000
00000011
00000000
00002002
00000000
00003003
00000000
00000100
,
00000010
00010000
00001000
02000000
00000000
03100000
00020000
00002000
,
00000000
00000000
00000000
00033000
,
00000100
00000010
00000001
00000000
00000100
00000000
00000010
00000000
00001000
00000100
00010000
00000000
00001000
00000000
00100000
00000000
,
00010000
01000000
00100000
00000000
10000000
00000000
01000000
00000000
00100000
00001000
00010000
00000000
00000100
00000000
00001000
00000000
,
00000100
00000000
00000010
00000000
00000001
00000000
00000100
00000000
00000010
00001000
00000001
00001000
00000010
00000000
00000100
00000000
,
00001000
00010000
00000100
00000000
00010000
00000000
00001000
00000000
00100000
01000000
10000000
00000000
00010000
00000000
00000000
00000000
,
10000000
01000000
00100000
00000000
00001000
00010000
00000100
00000000
00000010
00000001
00000100
00000000
00000010
00000000
00001000
00000010
,
00000100
00000010
00001000
00000000
00000010
00010000
00001000
00000000
00100000
00001000
00100000
00010000
01000000
00000000
00200000
00000000
,
00000000
00000000
01300000
00100000
01000000
00000000
00010000
00000000
00100000
01000000
00100000
00000000
01000000
00000000
00020000
00000000
,
00000000
00000000
00030100
00001000
00000010
00000000
00000100
00000001
00000010
00000000
00000100
00000000
00010000
00000000
00002000
00000000
,
00000000
00000000
00103000
01000000
10000000
00010000
10000000
00000000
00100000
00010000
00100000
00000000
00010000
00001000
00010000
00000000
,
00000010
00000000
00000000
00000010
00000000
00000000
00000110
00000000
00000000
00000000
00000000
00000000
00000000
00000000
00000000
00000000
,
00000001
00000000
00000000
00000000
00000000
00000000
00000000
00001000
,
00000000
00000000
00000000
00000000
00000000
00000000
00000000
00010000
,
00000000
00000000
00000000
10000000
00000000
00000000
00000000
10010000
,
00000000
00000000
00000000
00000000
00000000
00000000
00000000
00000000
00010000
10000000
00010000
10000000
00010000
00000000
00000000
00000000
,
10000000
00000000
00100000
00000000
01100000
00000000
00100000
00010000
,
00000000
00001000
00010000
00000000
00011000
00000000
00000000
00000100
,
00000000
00001001
00000000
00000010
00000000
00001001
00000000
00000000
,
00000001
00001000
00000001
00001000
00000001
00000000
00000000
00000000
00000001
00000000
00000001
00000100
00001000
00000000
00010000
00100000
,
10000000
00000000
00010000
00000000
00000000
00000000
10010000
00000000
00000000
00000000
10000000
01000000
00010000
00000000
00001000
00000010
,
00000001
00000000
00001000
00000000
00000000
00000000
00001001
00000000
00000000
00000000
00000001
00000100
00001000
00000000
00010000
00100000
,
10000000
00010000
00000000
10010000
00000000
00110000
00000000
00022000
,
00000000
00033000
00000000
00000100
00000010
00000001
00000100
00000010
,
00000001
00000010
00001000
00010000
00000000
01010000
00000000
20200000
,
00000000
30300000
00000000
10000000
01000000
00010000
00001000
00010000
,
00001000
00000010
00000001
00000100
00000000
00000010
00000010
00000000
,
00002002
00000000
00000000
00000000
00003003
00000000
00000000
00000000
00000001
00000010
00000100
00000000
00001000
00000000
00000100
00000000
,
00001000
00000010
00000100
00000000
00001000
00000000
00010000
00000000
00100000
10000000
01000000
00000000
00100000
00000000
01000000
00000000
,
00100000
00010000
01000000
00000000
00100000
00000000
00010000
00000000
00001000
00010000
00000100
00000000
00000010
00000000
00000001
00000000
,
00000100
00000010
00001000
00000000
00010000
00000000
01000000
00000000
00100000
00000000
00010000
00000000
00001000
00000000
00000010
00000000
,
00000100
00000010
00000100
00000000
00001000
00000001
00001000
00000000
00001001
00000000
00000000
00000000
00000000
00000000
00000000
00000000
,
00000000
00000000
00000000
00000000
00000000
00000000
01100000
00000000
00000000
00000000
00100000
01000000
00100000
00000000
00100000
00000000
,
01000000
01000000
00000000
01100000
00000000
10000000
01000000
00100000
,
00001000
00010000
00000100
00000010
00000001
00000100
00000010
00010000
,
00001000
01000000
00100000
00000000
10000000
01000000
00010000
10000000
,
00100000
00010000
10000000
01000000
00100000
00001000
00010000
00000010
,
00001000
00000100
00000010
00000000
00000001
00000100
00001000
00000001
,
00000010
00001000
00000001
00000010
00000100
00010000
00001000
00100000
,
00010000
01000000
00100000
00000000
11000000
01000000
00100000
00010000
,
00001000
00000100
00000010
00000000
00000101
00000100
00000010
00001000
,
00010000
00000000
01000000
00000000
00100000
00000000
00000000
00000000
10000000
00000000
00010000
00100000
00010000
00000000
01000000
00000000
,
00010000
10000000
00010000
00000000
00100000
00000000
00001000
00010000
00001000
00000000
01000000
00000000
00001000
00010000
00001000
00000000
,
00010000
00001000
00010000
00000000
00011000
00000000
00000000
00000000
00000001
00000000
00001000
00000010
00001000
00000000
00000100
00000000
,
00001000
00000001
00001000
00000000
00000010
00000000
00010000
00001000
00010000
00000000
00000100
00000000
00010000
00001000
00010000
00000000
,
00001000
00010000
00001000
00000000
00011000
00000000
00000000
00000000
00001000
00000000
01000000
00000000
00000000
00000000
00000000
00000000
,
00000000
00000000
00000000
00000000
;
