
//----- song ID: ramp -----//
#TITLE:Rampage Hero;
#ARTIST:DJ Shimamura;
#BANNER:Rampage Hero.png;
#BACKGROUND:Rampage Hero-bg.png;
#CDTITLE:./CDTitles/DDR A20.png;
#MUSIC:Rampage Hero.ogg;
#SAMPLESTART:29.989;
#SAMPLELENGTH:15;
#BPMS:0=175;
#NOTES:
     dance-single:
     :
     Beginner:
     4:
     :
0000
0000
0000
0000
,
0000
0000
0000
0000
,
0000
0000
0000
0000
,
0000
0000
0000
0000
,
0000
0000
0000
0000
,
0000
0000
0000
0000
,
1000
0000
0001
0000
,
1000
0000
0000
0000
,
0001
0000
1000
0000
,
0001
0000
0000
0000
,
0020
0000
0030
0000
,
0002
0000
0003
0000
,
0200
0000
0300
0000
,
2000
0000
3000
0000
,
0001
0000
0001
0000
,
1000
0000
1000
0000
,
0001
0000
0001
0000
,
1001
0000
0000
0000
,
0010
0000
0010
0000
,
0010
0000
0000
0000
,
0100
0000
0000
0000
,
0001
0000
0000
0000
,
0010
0000
0010
0000
,
0010
0000
0000
0000
,
1000
0000
0000
0000
,
0100
0000
0000
0000
,
1000
0000
1000
0000
,
0001
0000
0001
0000
,
1000
0000
1000
0000
,
0001
0000
0001
0000
,
2000
0000
3000
0000
,
0002
0000
0003
0000
,
0100
0000
0100
0000
,
0100
0100
0100
0000
,
0010
0000
0010
0000
,
0100
0000
0100
0000
,
0010
0000
0010
0000
,
0100
0000
0100
0000
,
0001
0000
0001
0000
,
1000
0000
1000
0000
,
0001
0000
0001
0000
,
1001
0000
0000
0000
,
0010
0000
0100
0000
,
0010
0000
0100
0000
,
1000
0000
0001
0000
,
1000
0000
0000
0000
,
0010
0000
0100
0000
,
0010
0000
0100
0000
,
0001
0000
0000
0000
,
1000
0000
0000
0000
,
0100
0000
1000
0000
,
0100
0000
1000
0000
,
0001
0000
1000
0000
,
0001
0000
0000
0000
,
0100
0000
0001
0000
,
0100
0000
0001
0000
,
0010
0000
0000
0000
,
0100
0000
0000
0000
,
1000
0000
0100
0000
,
1000
0000
0100
0000
,
0001
0000
0100
0000
,
0001
0000
0100
0000
,
0001
0000
0010
0000
,
0001
0000
0010
0000
,
1000
0000
0010
0000
,
1000
0000
0010
0000
,
0001
0001
0001
0000
,
0010
0010
0010
0000
,
1000
1000
1000
0000
,
0010
0010
0010
0000
,
0001
0001
0001
0000
,
0100
0100
0100
0000
,
1000
1000
1000
0000
,
0100
0100
0100
0000
,
1001
0000
0000
0000
,
0000
0000
0000
0000
;
#NOTES:
     dance-single:
     :
     Easy:
     9:
     :
0000
0000
0000
0000
,
0000
0000
0000
0000
,
0000
0000
0000
0000
,
0000
0000
0000
0000
,
0000
0000
0000
0000
,
0000
0000
0000
0000
,
1000
0100
0010
0001
,
0100
0010
1000
0100
,
1000
0001
0100
0010
,
1000
0110
1001
0000
,
0001
0010
0001
0010
,
0100
1000
0100
1000
,
0100
0010
0100
0010
,
0001
1000
0001
1000
,
0010
0010
1000
1000
,
0001
0001
0100
0100
,
0010
1000
0010
0000
0100
0001
0100
0000
,
1001
0110
1001
0000
,
0001
0000
1000
0000
,
0010
0100
0110
0000
,
0001
0100
0010
0000
1000
0001
0100
0000
,
0010
0100
1001
0000
,
0010
0000
0100
0000
,
0001
1000
0001
0000
0110
0000
1001
0000
,
0010
0001
0100
0000
0010
1000
0100
0000
,
0010
0001
1000
0000
,
1000
1000
0010
0010
,
0001
0001
0010
0010
,
0100
0100
1000
1000
,
0100
0100
0001
0001
,
0010
0010
0100
0100
,
1000
1000
0001
0001
,
1000
0100
0001
0000
0001
0100
1000
0000
,
0100
0100
0010
0110
,
0001
0000
0100
0000
0001
0100
0001
0000
,
1000
0100
1000
0000
0001
0000
0001
0000
,
0010
0100
0010
0100
,
1000
0001
1000
0000
0100
0000
0010
0000
,
0001
0000
0010
0000
0001
0010
0001
0000
,
1000
0010
1000
0000
0001
0000
0001
0000
,
0100
0000
0010
0000
0100
0010
0100
0000
,
2002
0000
0000
3003
,
0010
0001
0100
0010
,
1000
0010
1000
0000
0110
0000
0000
0000
,
0010
0100
0010
0000
1000
0100
1000
0000
,
0001
0010
1001
0000
,
0110
0000
1001
0000
,
0001
0010
0001
0000
1000
0000
0001
0000
,
1000
0100
1000
0100
0000
0010
0000
0100
,
0000
0110
1001
0110
,
1000
0010
0001
0010
,
0100
0001
0100
0000
0010
0000
1000
0000
,
0001
0010
0100
0000
1000
0010
0100
0000
,
0001
1000
0110
0000
,
0002
0000
2003
0000
,
3001
1000
0100
0010
,
0011
0000
1100
0000
,
0001
0100
0001
0100
0001
0000
0110
0000
,
0010
1000
0001
1001
,
0100
0010
1000
1001
,
0010
0001
0010
0110
,
0100
1000
0001
1001
,
0002
1000
0000
1003
,
0200
0001
0000
0301
,
0020
0100
0000
0130
,
2000
0010
0001
3010
,
1010
0000
1010
0000
,
0011
0000
0011
1001
,
0101
0000
0101
0000
,
1100
0000
1100
1001
,
0110
0000
0110
0000
,
0101
0000
0101
0110
,
1000
0100
0010
0001
,
1001
0110
1001
0000
,
1001
0000
0000
0000
,
0000
0000
0000
0000
;
#NOTES:
     dance-single:
     :
     Medium:
     12:
     :
0000
0000
0000
0000
,
0000
0000
0000
0000
,
0000
0000
0000
0000
,
0000
0000
0000
0000
,
0000
0000
0000
0000
,
0000
0000
0000
0000
,
0001
0100
0001
0000
1000
0100
1000
0000
,
0010
1000
0010
0000
0100
0001
0100
0000
,
0001
1000
0100
0000
1000
0001
0010
0000
,
0110
0002
2000
3003
,
0001
0100
0001
0100
0010
0000
0110
0000
,
0100
0001
0100
0001
0010
0000
0110
0000
,
1000
0010
1000
0001
0100
0000
1001
0000
,
0001
0100
0001
1000
0100
0000
0110
0000
,
1000
0100
1000
0001
0100
0010
1000
0001
,
0100
0010
1000
0100
0010
0001
0100
0010
,
1000
0010
0001
0010
1000
0100
0010
0001
,
0100
0000
0001
0000
1000
0000
0000
0001
,
1000
0000
0000
0010
0100
0000
0000
0010
,
1000
0000
0000
0100
0000
0000
0010
0000
0002
0000
0000
0000
0000
0000
0000
0000
,
0103
0000
0000
0010
0000
0000
1000
0000
0001
0000
0000
0010
0000
0000
0100
0000
,
2000
0000
0000
0000
3001
0000
1001
1000
,
0010
0000
0000
0100
0001
0000
0000
1000
,
0001
0000
0000
0100
0000
0000
0010
0000
2000
0000
0000
0000
3100
0000
0000
0000
,
0100
0000
0000
0010
0000
0000
0100
0000
1000
0000
0000
0001
0000
0000
0100
0000
,
0002
0010
0020
0033
,
0001
0000
0000
0000
0100
0000
0000
0000
0001
0000
0000
0000
0100
0000
0000
0010
,
1000
0000
0000
0000
0100
0000
0000
0000
1000
0000
0000
0000
0100
0000
0000
0010
,
0001
0000
0100
0000
0001
0000
0100
0010
,
1000
0000
0000
0000
0010
0000
0000
0000
1000
0000
0000
0010
1000
0000
0001
0000
,
0010
0001
0100
0000
0010
1000
0100
0000
,
1000
0100
0001
0000
0001
0100
1000
0000
,
0001
0100
0010
1000
0100
0010
0001
1000
,
0001
1000
0100
0110
,
1100
0000
1001
0000
0010
1000
0010
0000
,
0100
0001
0100
0000
0011
0000
1001
0000
,
0001
0000
1000
0010
1000
0000
0001
0100
,
0000
0100
0001
0000
0011
0000
1010
0000
,
1001
0000
0011
0000
0100
1000
0100
0000
,
0010
0001
0010
0000
1100
0000
1001
0000
,
1000
0000
0001
0100
0001
0100
0010
1000
,
0002
0000
0000
0003
,
0010
0000
0001
0100
0010
0000
1000
0100
,
0010
0000
0000
0001
0000
0000
0010
0000
0200
0000
0000
0000
0300
0000
0000
0000
,
0010
0000
0000
0001
0000
0000
0100
0000
0010
0000
0000
1000
0000
0000
0100
0000
,
0010
0001
0010
0001
1000
0100
1000
0001
,
0100
0000
0000
0010
1000
0000
0000
0001
,
1000
0000
0000
0100
0000
0000
1000
0000
0020
0000
0000
0000
0230
0000
0000
0000
,
0301
0100
1000
0100
0000
0010
0000
1000
,
0000
0001
0100
0010
1000
0100
0010
0001
,
1000
0000
0001
0100
0010
0000
1000
0100
,
0010
0000
0000
1000
0000
0000
0010
0000
0001
0000
0000
0000
1000
0000
0000
0000
,
0001
0000
0000
1000
0000
0000
0100
0000
1000
0000
0000
0001
0000
0000
0100
0000
,
0010
1000
0001
0100
0010
0100
0001
1000
,
0010
0000
0000
0001
0010
0000
0000
1000
,
0010
0000
0000
0001
0000
0000
0010
0000
2000
0000
0000
0000
3010
0000
0000
0000
,
0001
0000
0000
0010
0000
0000
0100
0000
1000
0000
0000
0010
0000
0000
0001
0000
,
0010
1000
0100
0010
0001
0100
0010
0000
,
0100
0000
0100
0000
0010
1000
0010
0000
,
1000
0000
1000
0000
0001
0010
0001
0000
,
0100
0001
0100
0010
1000
0010
0100
0000
,
0010
1000
0010
0100
0001
0100
0010
0000
,
1000
0000
0001
0000
0010
0100
0010
0000
,
0001
0000
1000
0000
0100
0010
0100
0000
,
1000
0010
0001
0010
1000
0100
1000
0000
,
0001
0100
1000
0100
0001
0010
0100
0000
,
1000
0000
1000
0100
0000
0000
0010
0000
0010
0100
0000
0000
,
0010
0000
0010
0001
0000
0000
0100
0000
0100
0010
0000
0000
,
1000
0000
1000
0001
0000
0000
0010
0000
0010
0100
0000
0000
,
0011
0000
0000
1001
0000
0000
0010
0100
0010
0100
0000
0000
,
0001
0000
0001
0010
0000
0000
1000
0000
1000
0010
0000
0000
,
0100
0000
0100
0001
0000
0000
0010
0000
0010
1000
0000
0000
,
0001
0000
0001
0100
0000
0100
1000
0000
1000
0100
0000
0100
,
0001
1100
0101
0000
,
1001
0000
0000
0000
,
0000
0000
0000
0000
;
#NOTES:
     dance-single:
     :
     Hard:
     16:
     :
0000
0000
0000
0000
,
0000
0000
0000
0000
,
0000
0000
0000
0000
,
0000
0000
0000
0000
,
0000
0000
0000
0000
,
0000
0000
0000
0000
,
0010
1000
0100
0010
0001
0100
0010
1000
,
0010
0001
1000
0100
0001
0010
1000
0001
,
0100
0010
0001
1000
0001
0100
0010
1000
,
1001
1100
0202
0303
,
0010
1000
0001
0000
0100
0000
0010
0000
0100
0010
1000
0000
0001
0000
1000
0000
,
0100
0010
0001
0000
1000
0000
0001
0000
0100
0010
1000
0000
0010
0000
0100
0000
,
0001
0010
0100
0000
1000
0000
0001
0000
0100
0010
1000
0000
0010
0000
0100
0000
,
0001
1000
0100
0000
0010
0000
0100
0000
0010
0001
1000
0000
0010
0000
0100
0000
,
0010
1000
0001
0100
0010
1000
0001
0100
,
0010
0100
0001
1000
0001
0010
0100
1000
,
0010
1000
0010
0000
0100
0001
0100
0000
0001
0010
0100
1000
0100
0010
0001
0100
,
0010
0000
0000
0000
0100
0000
0000
0000
0010
0000
0000
0000
1001
0000
0100
0001
,
2000
0000
0000
0000
0000
0000
3100
1000
0002
0000
0000
0000
0000
0000
1003
0010
,
0100
0000
0000
0010
0000
0000
1100
0000
0202
0000
0000
0000
0303
0000
0001
1000
,
0100
0000
0000
0010
0000
0000
0001
0000
1000
0000
0000
0001
0000
0000
0100
0000
,
0020
0000
0000
0000
0000
0000
0000
0000
0130
0000
0000
0000
1001
0000
0100
1000
,
0020
0000
0000
0000
0000
0000
0130
0001
0020
0000
0000
0000
0000
0000
0130
1000
,
0001
0000
0000
0010
0000
0000
0101
0000
2100
0000
0000
0000
3001
0000
0100
0010
,
1000
0000
0000
0010
0000
0000
0100
0000
0001
0000
0000
0010
0000
0000
0100
0000
,
2002
0000
0000
3003
,
0010
1000
0100
0000
0010
0001
1000
0000
,
0001
0000
0100
0000
1000
0000
0000
0000
0100
0000
0001
0000
0010
0000
0000
0001
,
0100
0010
1000
0000
0100
1000
0010
0000
,
1000
0000
0001
0000
0010
0000
0000
0000
1000
0000
0000
0100
0010
0000
0001
0000
,
1000
0100
0001
1000
0010
0001
0010
1000
,
0001
0100
1000
0001
0100
0010
1000
0010
,
1000
0100
1000
0100
0010
0001
0010
0001
0100
0010
1000
0001
0100
0010
1000
0010
,
0100
0001
1000
0010
,
1001
0000
0000
0000
1100
0000
0000
0000
0001
0000
1000
0001
0100
0000
0001
0000
,
1000
0100
1100
0000
0010
0100
0110
0000
,
0101
0000
0000
0000
0100
0000
0001
0010
0100
0000
0000
0000
1000
0001
0100
0010
,
0000
1100
0101
0000
0010
1000
0001
0100
,
1001
0000
0000
0000
0011
0000
0000
0000
1000
0000
0001
1000
0010
0000
1000
0000
,
0001
0010
0011
0000
0100
0010
0110
0000
,
0011
0000
1010
0001
0010
1000
0001
0100
,
2000
0000
0000
0000
0000
0000
0000
0000
0000
0000
0000
0000
3000
0000
0010
1000
,
0100
0000
0010
0000
0001
0000
1000
0010
0100
0000
0010
0000
1000
0000
0100
0010
,
0001
0000
1000
0100
0000
0010
0100
0000
2000
0000
0000
0000
0000
0000
3010
0100
,
0001
0000
0100
0001
0000
0010
0001
0000
0100
0000
0010
1000
0000
0100
0010
0000
,
0001
0000
1000
0000
0010
0000
0100
0000
2002
0000
0000
0000
3003
0000
0001
1000
,
0200
0000
0000
0000
0300
0000
1000
0001
0200
0000
0000
0000
0300
0000
0010
0100
,
0001
0000
0000
0010
0000
0000
0100
0000
0210
0000
0000
0000
0310
0000
0001
1000
,
0100
0010
0001
1000
0000
0010
0000
0200
,
0000
0310
1000
0001
1000
0100
0010
0001
,
0011
0000
0000
0000
0100
0000
1000
0100
0010
0000
0000
0000
0001
0000
0100
0010
,
1000
0000
0000
0010
0000
0000
1000
0000
0002
0000
0000
0000
2003
0000
0000
0000
,
3010
0000
1000
0010
0000
1000
0010
0000
0100
0000
0001
0100
0000
0001
0100
0000
,
0010
0000
1000
0000
0001
0000
0100
0000
0010
0000
0000
0000
0110
0000
0001
0100
,
0010
0000
0000
0000
1001
0000
1000
0100
0010
0000
0000
0000
0110
0000
0100
1000
,
0010
0000
0000
0100
0000
0000
0010
0000
1000
0000
0000
0000
1001
0000
0001
1000
,
0010
0000
0100
0010
0000
1000
0010
0000
0001
0000
1000
0100
0000
0001
0010
0000
,
0100
1000
0100
0010
0110
0000
1001
0000
,
1000
0010
0100
0000
0001
0000
0010
0000
1000
0010
0100
0000
0010
0000
0001
0000
,
1000
0001
0100
0000
0010
0000
0001
0000
0010
0100
0001
0000
1000
0100
0010
0000
,
0001
0010
0100
0000
1000
0000
0010
0000
0001
0010
0100
0000
0001
0000
0010
0000
,
0100
1000
0010
0000
0100
0000
0010
0000
1000
0010
0100
0000
0001
0010
0100
0000
,
1000
0001
0100
0000
0010
0000
0001
0000
1000
0100
0010
0000
1000
0000
0100
0000
,
0010
0001
1000
0000
0001
0000
0010
0000
1000
0010
0100
0000
1000
0010
0100
0000
,
0010
1000
0100
0000
0010
0000
1000
0000
0010
0001
0100
0000
0010
0000
1000
0000
,
0002
1000
1003
1001
,
1001
0000
0001
0100
0000
0100
1000
0000
1000
0001
0000
0001
,
0010
0000
0010
1000
0000
1000
0010
0000
0010
0100
0000
0000
,
0100
0010
1000
0100
0000
0100
0010
0001
0100
1000
0000
1000
,
0001
0010
1000
0001
0000
0001
0010
1000
0001
0100
0000
0000
,
1000
0100
0001
0100
1000
0001
0100
1000
0100
0001
1000
0010
,
0001
0010
1000
0001
0010
1000
0001
0100
1000
0100
0010
0001
,
1000
0001
0010
0100
0001
0100
1000
0001
1000
0010
0001
1000
,
0100
0010
1000
0001
0010
0100
0001
0100
1000
0010
0100
0001
,
1001
0000
0000
0000
,
0000
0000
0000
0000
;
#NOTES:
     dance-single:
     :
     Challenge:
     17:
     :
0000
0000
0000
0000
,
0000
0000
0000
0000
,
0000
0000
0000
0000
,
0000
0000
0000
0000
,
0000
0000
0000
0000
,
0000
0000
0000
0000
,
0010
1000
0010
0000
0100
0000
0001
0000
0010
0001
0010
0000
0100
0000
1000
0000
,
0001
1000
0001
0000
0100
0000
0010
0000
1000
0010
1000
0000
0100
0000
0010
0000
,
0001
0010
0100
0000
1000
0000
0001
0000
1000
0010
0100
0000
0010
0000
0100
0000
,
0110
1001
0220
0330
,
0100
0001
0010
0000
0001
0000
1000
0000
0100
1000
0010
0000
0100
0000
0010
0000
,
1000
0010
0001
0000
0010
0000
1000
0000
0001
0100
1000
0000
0100
0000
0001
0000
,
1000
0100
0001
0000
0100
0000
1000
0000
0001
0010
1000
0000
0010
0000
0001
0000
,
0100
0010
1000
0000
0100
0000
0010
0000
0100
0010
0001
0000
1000
0000
0001
0000
,
1010
1000
0010
0010
0100
0100
0001
0001
,
0110
0100
0100
0100
0010
0010
0010
0010
,
1000
0100
1000
0100
0010
0001
0010
0001
0100
0010
1000
0100
0010
0001
0100
0010
,
0100
0000
0000
0000
1010
0000
0000
0000
0101
0000
0000
0000
1001
0000
0010
1000
,
0200
0000
0000
0000
0000
0000
0310
0001
0200
0000
0000
0000
0000
0000
0301
0010
,
1000
0000
0000
0010
0000
0000
0110
0000
2002
0000
0000
0000
3003
0000
1000
0010
,
0001
0000
0000
0010
0000
0000
1010
0000
0100
0000
0000
0001
0000
0000
0110
0000
,
2002
0000
0000
0000
0003
0000
0000
0000
3001
0000
0000
0000
1001
0000
0001
0100
,
2000
0000
0000
0000
0000
0000
3100
0001
0020
0000
0000
0000
0000
0000
0031
0010
,
1000
0000
0000
0010
0000
0000
0011
0000
2100
0000
0000
0000
3001
0000
0100
0010
,
1000
0000
0010
1000
0000
0100
0001
0000
1000
0000
0010
0100
0000
1000
0010
0000
,
0220
0000
0000
0330
,
1010
1010
0101
0101
,
0011
0000
0000
0000
0011
0000
0000
0000
1100
0000
0000
0000
1100
0000
0000
0001
,
1000
1001
0110
0110
,
1010
0000
0000
0000
0101
0000
0000
0000
0011
0000
0000
1000
0100
0000
0010
0000
,
0001
0100
0010
1000
0100
0010
0001
1000
,
0010
0001
0010
1000
0001
0100
1000
0100
,
0001
0100
0001
0100
0010
0100
0010
0100
0001
1000
0001
1000
0100
0010
0100
0010
,
0001
0000
0000
0000
1000
0000
0000
0000
0110
0000
0010
0100
0010
0000
0000
0000
,
1100
0000
0000
0000
0101
0000
0000
0000
0010
0000
1000
0001
0100
0000
0010
0000
,
1000
0000
0100
0000
0110
0000
0010
0000
0100
0000
0100
1000
0010
0000
0100
0000
,
0101
0000
0000
0000
1100
0000
1000
0100
0010
0000
0001
0000
0100
0010
0100
0000
,
0001
0000
1000
0001
0100
0000
0010
0000
1000
0000
1000
0000
0001
0000
0001
0000
,
0101
0000
0000
0000
1100
0000
0000
0000
0010
0000
0001
1000
0100
0000
0010
0000
,
0001
0000
0100
0000
0110
0000
0010
0000
0100
0000
0100
0001
0010
0000
0100
0000
,
1100
0000
0010
0000
0101
0000
0010
0000
1000
0001
0100
0000
0010
1000
0100
0010
,
0001
0000
1000
0000
0200
0000
0000
0000
1300
0001
1000
0001
1000
0000
0010
1000
,
0100
0000
1000
0000
0100
0000
0010
0001
0100
0000
0001
0000
0100
0000
0001
0010
,
1000
0000
0010
0001
0000
1000
0010
0000
0200
0000
0000
0000
0000
0000
0310
1000
,
0100
0000
0010
0001
0000
0001
0010
0001
0100
0000
0100
0010
0000
0010
1000
0100
,
1000
0000
0001
0000
0010
0000
0100
0000
2002
0000
0000
0000
3003
0000
0010
0100
,
0220
0000
0000
0000
0330
0000
0001
1000
2002
0000
0000
0000
3003
0000
0001
1000
,
0010
0000
0010
0100
0000
0100
0010
0000
0200
0000
0000
0000
0310
0000
0010
1000
,
0001
0010
0100
0110
0000
1100
0000
0201
,
0000
0310
0100
0010
1000
1000
0001
0001
,
0012
0000
0000
0000
1003
0000
0010
1000
0200
0000
0000
0000
0310
0000
0010
0001
,
0100
0000
0000
0001
0000
0000
1000
0000
0002
0000
0000
0000
1003
0000
0000
0000
,
0001
0000
0010
0001
0000
1000
0010
0001
0010
0000
0100
1000
0000
0100
1000
0100
,
0002
0000
0000
0000
0000
0000
0000
0000
1003
0000
0000
0000
0110
0000
0001
0010
,
0100
0000
0000
0000
0110
0000
1000
0010
0100
0000
0000
0000
0110
0000
0010
1000
,
0001
0000
1000
0010
0000
0001
0010
0000
0110
0000
0000
0000
1001
0000
0001
0100
,
0010
0000
0010
1000
0000
1000
0100
0000
0100
0000
0100
0010
0000
0010
0001
0000
,
1001
0010
1001
0100
1001
0000
0110
0000
,
1100
0100
0010
0001
0011
0010
0001
1000
,
1010
0010
0100
0001
0011
1000
1010
0010
,
1000
0010
0100
0000
1000
0000
0001
0000
0010
1000
0100
0000
0001
0000
1000
0000
,
0010
0001
0100
0000
1000
0000
0001
0000
0010
1000
0001
0000
0010
0001
1000
0000
,
1001
0001
0100
0010
1010
1000
0100
0010
,
0110
0100
1000
0001
0011
0010
0100
1000
,
0001
0100
1000
0000
0100
0000
0010
0000
1000
0100
0001
0000
0100
0000
0010
0000
,
0100
1000
0100
1000
0001
0100
0001
0100
,
0001
0100
0001
0100
0010
1000
0010
1000
0010
0100
0001
1000
,
0001
0001
0100
0010
0010
1000
0100
0100
0010
0001
1000
1000
,
0100
0010
0001
0100
0010
1000
0100
0010
0001
0100
0010
1000
,
0001
1000
1000
0100
0010
0010
0001
0100
0100
0010
1000
1000
,
1001
0001
0010
0100
1000
0010
1010
1000
0010
0100
0001
0010
,
0011
0001
0100
0010
1000
0001
1001
1000
0100
0010
0001
1000
,
0001
0010
0100
0001
0100
0010
1000
0010
0001
1000
0010
0001
,
1000
0001
0010
0100
0001
0010
0100
1000
0010
0100
1000
0100
,
0101
0000
0000
0000
,
0000
0000
0000
0000
;
#NOTES:
     dance-double:
     :
     Easy:
     9:
     :
00000000
00000000
00000000
00000000
,
00000000
00000000
00000000
00000000
,
00000000
00000000
00000000
00000000
,
00000000
00000000
00000000
00000000
,
00000000
00000000
00000000
00000000
,
00000000
00000000
00000000
00000000
,
00000001
00000100
00000001
00000100
,
00000010
00001000
00000100
00010000
,
00001000
00010000
01000000
10000000
,
00010000
01100000
10010000
00000000
,
01000000
10000000
01000000
10000000
,
00010000
00100000
00010000
00100000
,
00001000
00010000
00001000
00010000
,
00000010
00001000
00000010
00001000
,
00000100
00000100
00010000
00010000
,
00001000
00001000
01000000
01000000
,
00001000
00010000
00001000
00000000
00010000
00001000
00010000
00000000
,
00001010
00011000
00110000
00000000
,
00010000
00000000
00100000
00000000
,
01000000
00100000
10010000
00000000
,
10000000
01000000
00010000
00000000
00001000
00000100
00000001
00000000
,
00001000
00000100
00001001
00000000
,
00000001
00000000
00000100
00000000
,
00001000
00010000
00100000
00000000
01100000
00000000
00000000
00000000
,
10000000
01000000
10000000
00000000
00100000
01000000
00100000
00000000
,
01000000
00001000
00011000
00000000
,
00000100
00000100
00000010
00000010
,
00000001
00000001
00000100
00000100
,
00001000
00001000
00010000
00010000
,
00100000
00100000
10000000
10000000
,
01000000
10000000
01000000
00010000
,
00001000
00000100
00000001
00000100
,
00001000
00010000
00001000
00000000
00010000
00001000
00010000
00000000
,
00001000
00010000
01000000
01100000
,
00100000
00000000
00001000
00000000
00010000
00001000
00010000
00000000
,
00001000
00000100
00001000
00000000
00000100
00000000
00000001
00000000
,
00000010
00000100
00000010
00000100
,
00001000
00000100
00001000
00000000
00000100
00000000
00000010
00000000
,
00001000
00000000
00010000
00000000
00001000
00010000
00001000
00000000
,
00100000
00010000
00100000
00000000
00010000
00000000
01000000
00000000
,
00100000
10000000
00100000
01000000
,
01100000
00000000
00000000
00000000
,
00001000
00000000
00010000
00000000
,
00001000
00000010
00000001
00000000
00000110
00000000
00000000
00000000
,
00000001
00000100
00001000
00000000
00010000
01000000
10000000
00000000
,
00010000
00100000
10010000
00000000
,
10000000
00000000
01000000
00000000
,
00010000
00001000
00010000
00000000
00011000
00000000
00000000
00000000
,
00000010
00000100
00000010
00010000
00000000
00001000
00000000
00010000
,
00000000
00110000
00011000
00001100
,
00010000
00000000
01000000
00000000
,
00100000
00010000
00100000
00000000
01000000
00000000
10000000
00000000
,
01000000
00010000
01000000
00000000
00010000
00001000
00010000
00000000
,
00001000
00000100
00000110
00000000
,
00000010
00000000
00000001
00000000
,
00000100
00001000
00010000
00000000
,
00011000
00000000
01100000
00000000
,
00010000
00001000
00010000
00001000
00010000
00000000
00011000
00000000
,
00000100
00000001
00000100
00001001
,
00000100
00010000
00000010
00011000
,
00010000
00100000
01000000
01100000
,
00010000
10000000
00100000
10010000
,
02000000
00010000
00000000
03010000
,
00200000
00001000
00000000
00301000
,
00020000
00000100
00000000
00030100
,
00002000
00000010
00000001
00003010
,
00000011
00000000
00000011
00000000
,
00001001
00000000
00001010
00011000
,
00110000
00000000
00110000
00000000
,
01100000
00000000
11000000
10010000
,
01100000
00000000
01100000
00000000
,
01010000
00000000
01010000
00011000
,
00001000
00000100
00000001
00000100
,
00001001
00001100
00011000
00000000
,
00011000
00000000
00000000
00000000
,
00000000
00000000
00000000
00000000
;
#NOTES:
     dance-double:
     :
     Medium:
     12:
     :
00000000
00000000
00000000
00000000
,
00000000
00000000
00000000
00000000
,
00000000
00000000
00000000
00000000
,
00000000
00000000
00000000
00000000
,
00000000
00000000
00000000
00000000
,
00000000
00000000
00000000
00000000
,
10000000
01000000
10000000
00000000
00100000
10000000
00100000
00000000
,
01000000
00010000
01000000
00000000
00001000
00010000
00001000
00000000
,
00000100
00000001
00000010
00000000
00000001
00001000
00000100
00000000
,
00010000
00002000
00020000
00033000
,
00100000
01000000
00100000
01000000
00010000
00000000
10010000
00000000
,
10000000
00100000
10000000
00100000
01000000
00000000
01100000
00000000
,
00001000
00010000
00001000
00010000
00001000
00000000
00011000
00000000
,
00000100
00000010
00000100
00000010
00001000
00000000
00001001
00000000
,
00000001
00001000
00000100
00001000
00000010
00010000
00001000
00100000
,
01000000
00100000
00010000
00100000
01000000
10000000
00010000
01000000
,
00100000
10000000
00010000
10000000
01000000
00100000
00010000
01000000
,
00100000
00000000
00010000
00000000
00001000
00000000
00000000
00000100
,
00000010
00000000
00000000
00001000
00000001
00000000
00000000
00000100
,
00001000
00000000
00000000
00010000
00000000
00000000
01000000
00000000
00200000
00000000
00000000
00000000
00000000
00000000
00000000
00000000
,
01300000
00000000
00000000
10000000
00000000
00000000
01000000
00000000
00010000
00000000
00000000
00001000
00000000
00000000
00010000
00000000
,
00002000
00000000
00000000
00000000
00013000
00000000
00011000
00001000
,
00100000
00000000
00000000
00001000
00010000
00000000
00000000
00001000
,
00000010
00000000
00000000
00000001
00000000
00000000
00000100
00000000
00001000
00000000
00000000
00000000
00001000
00000000
00000000
00000000
,
00010000
00000000
00000000
00100000
00000000
00000000
01000000
00000000
00010000
00000000
00000000
10000000
00000000
00000000
01000000
00000000
,
00020000
00001000
00002000
00033000
,
00010000
00000000
00000000
00000000
00001000
00000000
00000000
00000000
00010000
00000000
00000000
00000000
00001000
00000000
00000000
00100000
,
00010000
00000000
00000000
00000000
10000000
00000000
00000000
00000000
00100000
00000000
00000000
00000000
10000000
00000000
00000000
00100000
,
10000000
00000000
01000000
00000000
10000000
00000000
00100000
10000000
,
01000000
00000000
00000000
00000000
10000000
00000000
00000000
00000000
01000000
00000000
00000000
00010000
00001000
00000000
00010000
00000000
,
00001000
00000010
00000001
00000000
00000001
00000100
00001000
00000000
,
00010000
00100000
10000000
00000000
10000000
01000000
00010000
00000000
,
01000000
00100000
00010000
00100000
00001000
00010000
00000100
00001000
,
00000100
00001000
00000010
00000110
,
00001010
00000000
00001001
00000000
00000001
00000100
00000001
00000000
,
00001000
00000100
00001000
00000000
00001100
00000000
00011000
00000000
,
00001000
00000000
00100000
00010000
00100000
00000000
01000000
00010000
,
00000000
00010000
00001000
00000000
00011000
00000000
00001100
00000000
,
00001001
00000000
00000101
00000000
00000010
00000100
00000010
00000000
,
00001000
00000100
00001000
00000000
00011000
00000000
01010000
00000000
,
01000000
00000000
00100000
10000000
01000000
00010000
00001000
00000010
,
00000002
00000000
00000000
00000003
,
00000100
00000000
00000000
00001000
00010000
00000000
00000000
00010000
,
01000000
00000000
00000000
10000000
00000000
00000000
01000000
00000000
00200000
00000000
00000000
00000000
00300000
00000000
00000000
00000000
,
00001000
00000000
00000000
00000010
00000000
00000000
00001000
00000000
00010000
00000000
00000000
00100000
00000000
00000000
00010000
00000000
,
00000010
00001000
00000100
00010000
00001000
00100000
00010000
10000000
,
01000000
00000000
00000000
10000000
00100000
00000000
00000000
10000000
,
01000000
00000000
00000000
00100000
00000000
00000000
01000000
00000000
00020000
00000000
00000000
00000000
00032000
00000000
00000000
00000000
,
00013000
00001000
00000100
00000001
00000000
00000010
00000000
00000010
,
00000000
00000001
00000010
00001000
00010000
00001000
00010000
00100000
,
10000000
00000000
00000000
10000000
01000000
00000000
00000000
01000000
,
00010000
00000000
00000000
00001000
00000000
00000000
00010000
00000000
00001000
00000000
00000000
00000000
00001000
00000000
00000000
00000000
,
00000010
00000000
00000000
00000001
00000000
00000000
00000100
00000000
00000010
00000000
00000000
00001000
00000000
00000000
00000100
00000000
,
00001000
00000010
00000100
00000001
00001000
00000001
00000100
00001000
,
00010000
00000000
00000000
00010000
00001000
00000000
00000000
00001000
,
00010000
00000000
00000000
01000000
00000000
00000000
10000000
00000000
00010000
00000000
00000000
00000000
10010000
00000000
00000000
00000000
,
00100000
00000000
00000000
10000000
00000000
00000000
00010000
00000000
10000000
00000000
00000000
01000000
00000000
00000000
00010000
00000000
,
00001000
00010000
00000010
00010000
00000100
00010000
00000010
00000000
,
00001000
00000000
00000100
00000000
00000010
00000001
00000010
00000000
,
00000001
00000000
00000100
00000000
00000010
00001000
00000010
00000000
,
00001000
00000100
00010000
00001000
01000000
00010000
01000000
00000000
,
00100000
10000000
01000000
00010000
00001000
00000100
00000010
00000000
,
00000100
00000000
00000001
00000000
00000010
00001000
00010000
00000000
,
00100000
00000000
01000000
00000000
00100000
00010000
00001000
00000000
,
00010000
00001000
00010000
00001000
00000100
00000001
00000010
00000000
,
00001000
00010000
00001000
00010000
01000000
10000000
00100000
00000000
,
10000000
00000000
10000000
00010000
00000000
00000000
00100000
00000000
00100000
00001000
00000000
00000000
,
00010000
00000000
00010000
00000010
00000000
00000000
00001000
00000000
00001000
00000001
00000000
00000000
,
00000010
00000000
00000010
00000100
00000000
00000000
00010000
00000000
00010000
00001000
00000000
00000000
,
00011000
00000000
00000000
00001010
00000000
00000000
00010000
00001000
00010000
00001000
00000000
00000000
,
00010000
00000000
00010000
01000000
00000000
00000000
01000000
00000000
01000000
10000000
00000000
00000000
,
10000000
00000000
10000000
00100000
00000000
00000000
00100000
00000000
00100000
00010000
00000000
00000000
,
00010000
00000000
00010000
00001000
00000000
00001000
00000010
00000000
00000010
00000001
00000000
00000001
,
00000100
00000110
00001010
00000000
,
00011000
00000000
00000000
00000000
,
00000000
00000000
00000000
00000000
;
#NOTES:
     dance-double:
     :
     Hard:
     16:
     :
00000000
00000000
00000000
00000000
,
00000000
00000000
00000000
00000000
,
00000000
00000000
00000000
00000000
,
00000000
00000000
00000000
00000000
,
00000000
00000000
00000000
00000000
,
00000000
00000000
00000000
00000000
,
00000001
00000100
00000010
00001000
00000100
00010000
00001000
00000100
,
00001000
00010000
00001000
00010000
01000000
00010000
00001000
00100000
,
00010000
01000000
00100000
10000000
00010000
00100000
01000000
10000000
,
10010000
00110000
00022000
00033000
,
00010000
00000100
00001000
00000000
00000100
00000000
00000010
00000000
00000001
00000100
00000010
00000000
00000001
00000000
00000010
00000000
,
00001000
00000100
00010000
00000000
00000100
00000000
00001000
00000000
00000100
00010000
00001000
00000000
01000000
00000000
00100000
00000000
,
10000000
00100000
01000000
00000000
00100000
00000000
00010000
00000000
10000000
01000000
00100000
00000000
01000000
00000000
00100000
00000000
,
10000000
00010000
01000000
00000000
00100000
00000000
01000000
00000000
00100000
00010000
00001000
00000000
00010000
00000000
00000100
00000000
,
00000010
00000001
00001000
00000010
00000001
00001000
00000100
00000001
,
00000010
00001000
00010000
01000000
10000000
00100000
00010000
10000000
,
01000000
00010000
01000000
00000000
00010000
00100000
00010000
00000000
00100000
00001000
00010000
00001000
00010000
00000100
00000010
00000001
,
00001000
00000000
00000000
00000000
00000010
00000000
00000000
00000000
00000100
00000000
00000000
00000000
00001001
00000000
00000100
00000001
,
00002000
00000000
00000000
00000000
00000000
00000000
00003100
00010000
00002000
00000000
00000000
00000000
00000000
00000000
00103000
00010000
,
01000000
00000000
00000000
00100000
00000000
00000000
01100000
00000000
02020000
00000000
00000000
00000000
03030000
00000000
00100000
00001000
,
00010000
00000000
00000000
00001000
00000000
00000000
00000100
00000000
00000001
00000000
00000000
00000010
00000000
00000000
00000100
00000000
,
00000020
00000000
00000000
00000000
00000000
00000000
00000000
00000000
00000130
00000000
00000000
00000000
00001001
00000000
00000100
00001000
,
00000020
00000000
00000000
00000000
00000000
00000000
00000130
00000010
00002000
00000000
00000000
00000000
00000000
00000000
00003100
00010000
,
00001000
00000000
00000000
00100000
00000000
00000000
00011000
00000000
02001000
00000000
00000000
00000000
03010000
00000000
01000000
00100000
,
10000000
00000000
00000000
01000000
00000000
00000000
00100000
00000000
00001000
00000000
00000000
00010000
00000000
00000000
00000100
00000000
,
00002200
00000000
00000000
00003300
,
00000001
00000100
00000000
00000000
00000100
00001000
00000000
00000000
00001000
00010000
00000000
00000000
00010000
00100000
00000000
00000000
,
00100000
10000000
00000000
00000000
10000000
01000000
00000000
00000000
01000000
00010000
00000000
00000000
00010000
00001000
00000000
00000000
,
00001000
00000010
00000000
00000000
00000010
00000001
00000000
00000000
00000001
00000100
00000000
00000000
00000100
00001000
00000000
00000000
,
00001000
00010000
00000000
00000000
00010000
01000000
00000000
00000000
01000000
00000000
00000000
10000000
00100000
00000000
01000000
00000000
,
00010000
10000000
01000000
00100000
00010000
01000000
00010000
00100000
,
00001000
00010000
00000010
00001000
00000100
00000010
00000001
00001000
,
00000001
00000100
00000001
00000100
00000010
00000100
00000010
00001000
00000010
00001000
00000010
00010000
00001000
00010000
00001000
00100000
,
00010000
00100000
00010000
10000000
,
01100000
00000000
00000000
00000000
01010000
00000000
00000000
00000000
01000000
00000000
00010000
00100000
00001000
00000000
00010000
00000000
,
00000100
00001000
00001100
00000000
00000010
00000100
00000110
00000000
,
00001001
00000000
00000000
00000000
00000100
00000000
00000010
00000100
00001000
00000000
00000000
00000000
00010000
00001000
00010000
00001000
,
00000000
01100000
01010000
00000000
00001000
00010000
00001000
00000100
,
00000110
00000000
00000000
00000000
00001010
00000000
00000000
00000000
00000010
00000000
00001000
00000100
00010000
00000000
00001000
00000000
,
00100000
00010000
00110000
00000000
01000000
00100000
01100000
00000000
,
10010000
00000000
10000000
01000000
00010000
00001000
00000010
00000001
,
00000200
00000000
00000000
00000000
00000000
00000000
00000000
00000000
00000000
00000000
00000000
00000000
00000300
00000000
00000001
00001000
,
00000100
00000000
00000010
00000000
00000001
00000000
00001000
00000010
00000100
00000000
00000010
00000000
00001000
00000000
00000100
00010000
,
00001000
00000000
00100000
00010000
00000000
00100000
01000000
00000000
20000000
00000000
00000000
00000000
00000000
00000000
31000000
00100000
,
00010000
00000000
00100000
00001000
00000000
00010000
00001000
00000000
00000100
00000000
00000010
00001000
00000000
00000100
00001000
00000000
,
00000010
00000000
00000100
00000000
00000001
00000000
00000010
00000000
00002002
00000000
00000000
00000000
00003003
00000000
00000001
00000100
,
00002000
00000000
00000000
00000000
00000000
00000000
00013000
01000000
20000000
00000000
00000000
00000000
30000000
00000000
00100000
01000000
,
00010000
00000000
00000000
00100000
00000000
00000000
00001000
00000000
00021000
00000000
00000000
00000000
00031000
00000000
00010000
00001000
,
00000010
00000001
00001000
00000010
00000000
00000100
00000000
00000120
,
00000000
00001030
00000100
00010000
00001000
00010000
00100000
10000000
,
10100000
00000000
00000000
00000000
01100000
00000000
00010000
00100000
00001000
00000000
00000000
00000000
00011000
00000000
00001000
00010000
,
00000100
00000000
00000000
00000010
00000000
00000000
00000001
00000000
00002000
00000000
00000000
00000000
00003002
00000000
00000000
00000000
,
00000013
00000000
00000100
00001000
00000000
00000010
00000100
00000000
00001000
00000000
00010000
00001000
00000000
00100000
00010000
00000000
,
01000000
00000000
00100000
00000000
10000000
00000000
00010000
00000000
00100000
00000000
00000000
00000000
01100000
00000000
00010000
01000000
,
00100000
00000000
00000000
00000000
10010000
00000000
00010000
00100000
00001000
00000000
00000000
00000000
00011000
00000000
00001000
00010000
,
00000100
00000000
00000000
00000010
00000000
00000000
00000001
00000000
00001000
00000000
00000000
00000000
00001001
00000000
00000100
00000001
,
00001000
00000000
00000010
00000100
00000000
00000010
00001000
00000000
00000100
00000000
00010000
00001000
00000000
00010000
01000000
00000000
,
10000000
00100000
00010000
00100000
01100000
00000000
10010000
00000000
,
10000000
00100000
01000000
00000000
00010000
00000000
00100000
00000000
00001000
00010000
01000000
00000000
00100000
00000000
01000000
00000000
,
10000000
00100000
01000000
00000000
00010000
00000000
00100000
00000000
00001000
00010000
00000100
00000000
00001000
00000100
00000010
00000000
,
00000100
00001000
00000010
00000000
00000100
00000000
00001000
00000000
00010000
01000000
00100000
00000000
00010000
00000000
10000000
00000000
,
01000000
10000000
00100000
00000000
01000000
00000000
00100000
00000000
01000000
00010000
00100000
00000000
00001000
00010000
00000010
00000000
,
00000100
00000001
00001000
00000000
00000010
00000000
00001000
00000000
00000001
00000100
00000010
00000000
00001000
00000000
00000100
00000000
,
00000010
00001000
00010000
00000000
00001000
00000000
00010000
00000000
01000000
10000000
00100000
00000000
01000000
00100000
10000000
00000000
,
01000000
00100000
00010000
00000000
01000000
00000000
00100000
00000000
01000000
00001000
00010000
00000000
00001000
00000000
00010000
00000000
,
00002000
00010000
00013000
00011000
,
00011000
00000000
00001000
00010000
00000000
00010000
01000000
10000000
00100000
01000000
00000000
01000000
,
00001000
00000000
00001000
00010000
00000000
00010000
00000010
00001000
00000001
00000100
00000000
00000100
,
00000010
00001000
00000100
00010000
00000000
00001000
00100000
00010000
01000000
00010000
00000000
10000000
,
00100000
01000000
00010000
00100000
00000000
01000000
00100000
00001000
00010000
00000010
00000000
00001000
,
00000001
00000010
00001000
00000010
00000001
00000100
00000001
00000010
00000100
00001000
00000010
00000100
,
00001000
00010000
00001000
00100000
00010000
01000000
00100000
10000000
00100000
00010000
00100000
10000000
,
01000000
00100000
00010000
01000000
00100000
00010000
00001000
00010000
00000100
00000010
00000001
00001000
,
00000100
00000001
00000100
00001000
00000010
00000001
00001000
00000100
00000010
00001000
00000100
00010000
,
00011000
00000000
00000000
00000000
,
00000000
00000000
00000000
00000000
;
#NOTES:
     dance-double:
     :
     Challenge:
     17:
     :
00000000
00000000
00000000
00000000
,
00000000
00000000
00000000
00000000
,
00000000
00000000
00000000
00000000
,
00000000
00000000
00000000
00000000
,
00000000
00000000
00000000
00000000
,
00000000
00000000
00000000
00000000
,
00000010
00001000
00000010
00000000
00000100
00000000
00000001
00000000
00000010
00000100
00000010
00000000
00000100
00000000
00010000
00000000
,
00001000
00010000
00001000
00000000
00100000
00000000
00010000
00000000
01000000
00100000
01000000
00000000
00010000
00000000
00100000
00000000
,
01000000
10000000
00010000
00000000
01000000
00000000
00100000
00000000
00010000
00001000
01000000
00000000
00001000
00000000
00010000
00000000
,
00011000
00001100
00000220
00000330
,
00000010
00000001
00000100
00000000
00000001
00000000
00001000
00000000
00000010
00001000
00000100
00000000
00000010
00000000
00000001
00000000
,
00001000
00000010
00000001
00000000
00000010
00000000
00010000
00000000
00001000
01000000
00010000
00000000
00100000
00000000
01000000
00000000
,
00010000
01000000
10000000
00000000
00100000
00000000
01000000
00000000
00010000
01000000
10000000
00000000
01000000
00000000
00100000
00000000
,
10000000
01000000
00100000
00000000
00001000
00000000
00010000
00000000
00000100
00001000
00000010
00000000
00000100
00000000
00000001
00000000
,
00000011
00000010
00000100
00000100
00010000
00010000
00001000
00001000
,
01001000
01000000
01000000
01000000
00100000
00100000
00100000
00100000
,
10000000
01000000
10000000
01000000
00100000
00001000
00100000
00001000
00010000
00001000
00010000
00000100
00001000
00000010
00000100
00000001
,
00000100
00000000
00000000
00000000
00000101
00000000
00000000
00000000
00001010
00000000
00000000
00000000
00001001
00000000
00000010
00000001
,
00000200
00000000
00000000
00000000
00000000
00000000
00000310
00001000
00000200
00000000
00000000
00000000
00000000
00000000
00000301
00000100
,
00001000
00000000
00000000
00001100
00000000
00000000
00011000
00000000
00220000
00000000
00000000
00000000
00330000
00000000
00010000
00100000
,
10000000
00000000
00000000
00100000
00000000
00000000
00110000
00000000
01000000
00000000
00000000
00100000
00000000
00000000
01100000
00000000
,
20020000
00000000
00000000
00000000
00030000
00000000
00000000
00000000
30010000
00000000
00000000
00000000
10010000
00000000
00010000
01000000
,
20000000
00000000
00000000
00000000
00000000
00000000
31000000
00010000
00200000
00000000
00000000
00000000
00000000
00000000
00310000
00100000
,
00001000
00000000
00000000
00011000
00000000
00000000
00001010
00000000
00000102
00000000
00000000
00000000
00001003
00000000
00000001
00000100
,
00000010
00000000
00001000
00000100
00000000
00000010
00001000
00000000
00010000
00000000
01000000
10000000
00000000
00100000
01000000
00000000
,
02200000
00000000
00000000
03300000
,
10100000
10100000
01010000
01010000
,
00101000
00000000
00000000
00000000
00101000
00000000
00000000
00000000
00011000
00000000
00000000
00000000
00011000
00000000
00000000
00001000
,
00000100
00001100
00000110
00000110
,
00001010
00000000
00000000
00000000
00000101
00000000
00000000
00000000
00000011
00000000
00000000
00000001
00000010
00000000
00000100
00000000
,
00001000
00000010
00000100
00001000
00010000
00100000
01000000
00010000
,
00100000
01000000
10000000
00100000
00010000
00001000
00000100
00000010
,
00000100
00000001
00000100
00000001
00001000
00000100
00001000
00000100
00010000
00001000
00010000
00001000
00100000
00010000
00100000
00010000
,
01000000
00000000
00000000
00000000
00100000
00000000
00000000
00000000
01100000
00000000
01000000
00100000
01000000
00000000
00000000
00000000
,
10100000
00000000
00000000
00000000
00110000
00000000
00000000
00000000
01000000
00000000
10000000
00010000
01000000
00000000
00100000
00000000
,
10000000
00000000
01000000
00000000
00010000
00000000
00001000
00000000
00000010
00000000
00000010
00000001
00001000
00000000
00000010
00000000
,
00000101
00000000
00000000
00000000
00001100
00000000
00001000
00000010
00000100
00000000
00000001
00000000
00001000
00000001
00001000
00000000
,
00000010
00000000
00000100
00000001
00001000
00000000
00000100
00000000
00000010
00000000
00000010
00000000
00001000
00000000
00001000
00000000
,
00011000
00000000
00000000
00000000
01010000
00000000
00000000
00000000
10000000
00000000
00100000
01000000
00010000
00000000
00100000
00000000
,
01000000
00000000
10000000
00000000
01000000
00000000
00010000
00000000
00001000
00000000
00001000
00000010
00000001
00000000
00000100
00000000
,
00000101
00000000
00000010
00000000
00001100
00000000
00000010
00000000
00000001
00000100
00001000
00000000
00010000
00100000
10000000
00000000
,
00010000
00000000
10000000
00000000
02000000
00000000
00000000
00000000
13000000
00010000
10000000
00010000
10000000
00000000
00100000
10000000
,
01000000
00000000
00100000
00000000
00010000
00000000
01000000
00001000
00010000
00000000
00000010
00000000
00001000
00000000
00000100
00000001
,
00000100
00000000
00001000
00000010
00000000
00000001
00000010
00000000
00000200
00000000
00000000
00000000
00000000
00000000
00000310
00001000
,
00000100
00000000
00000010
00000001
00000000
00000001
00000010
00000001
00001000
00000000
00001000
00000100
00000000
00000100
00010000
00001000
,
00010000
00000000
00100000
00000000
01000000
00000000
00010000
00000000
20020000
00000000
00000000
00000000
30030000
00000000
00100000
00010000
,
20000000
00000000
00000000
00000000
30000000
00000000
00100000
10000000
00020000
00000000
00000000
00000000
00030000
00000000
00100000
00001000
,
00010000
00000000
00010000
00000010
00000000
00000010
00000100
00000000
00000020
00000000
00000000
00000000
00000130
00000000
00000100
00000001
,
00001000
00000100
00000010
00000110
00000000
00010100
00000000
00021000
,
00000000
00130000
01000000
00100000
10000000
10000000
01000000
01000000
,
01200000
00000000
00000000
00000000
00301000
00000000
00010000
00000010
00002000
00000000
00000000
00000000
00003100
00000000
00000100
00000010
,
00000001
00000000
00000000
00000100
00000000
00000000
00001000
00000000
00020000
00000000
00000000
00000000
00031000
00000000
00000000
00000000
,
00100000
00000000
00010000
00100000
00000000
10000000
00100000
00010000
00100000
00000000
01000000
10000000
00000000
01000000
10000000
01000000
,
00020000
00000000
00000000
00000000
00000000
00000000
00000000
00000000
00031000
00000000
00000000
00000000
00000110
00000000
00000001
00000010
,
00000100
00000000
00000000
00000000
00000110
00000000
00001000
00000010
00000100
00000000
00000000
00000000
00000110
00000000
00000100
00001000
,
00010000
00000000
01000000
00010000
00000000
01000000
10000000
00000000
10010000
00000000
00000000
00000000
01100000
00000000
00100000
00010000
,
01000000
00000000
01000000
00100000
00000000
00100000
00010000
00000000
00010000
00000000
00010000
00001000
00000000
00001000
00000100
00000000
,
00000110
00000001
00000110
00001000
00000110
00000000
00001001
00000000
,
00001001
00000001
00000100
00001000
00010000
00100000
01000000
00010000
,
10010000
10000000
01000000
00010000
00001000
00000010
00000001
00000100
,
00000001
00000010
00000100
00000000
00001000
00000000
00000010
00000000
00000100
00001000
00010000
00000000
00100000
00000000
01000000
00000000
,
00010000
00100000
01000000
00000000
00010000
00000000
00001000
00000000
00010000
01000000
10000000
00000000
00100000
01000000
00010000
00000000
,
10010000
10000000
01000000
00100000
00110000
00010000
01000000
00001000
,
00011000
00010000
00000010
00001000
00001100
00000100
00000010
00000001
,
00001000
00000010
00000001
00000000
00000010
00000000
00010000
00000000
00001000
00100000
01000000
00000000
10000000
00000000
01000000
00000000
,
00100000
00001000
00010000
00000010
00000100
00000001
00000100
00000000
,
00000001
00000010
00000001
00000010
00000100
00001000
00000010
00001000
00000010
00001000
00000100
00010000
,
00001000
00001000
00100000
00010000
00010000
01000000
00100000
00100000
10000000
01000000
00100000
00100000
,
00001000
00010000
01000000
00010000
00001000
00000100
00000010
00001000
00000100
00000001
00000100
00001000
,
00000010
00000100
00000100
00001000
00010000
00010000
00100000
01000000
01000000
00100000
10000000
10000000
,
10010000
00010000
00100000
01000000
10000000
00100000
01100000
01000000
00010000
00100000
00001000
00010000
,
00011000
00001000
00000010
00000100
00001000
00000001
00001001
00001000
00000001
00000010
00000100
00001000
,
00000001
00000100
00000010
00000001
00000010
00001000
00000100
00000010
00001000
00010000
01000000
00100000
,
00010000
01000000
10000000
00010000
10000000
01000000
00100000
10000000
01000000
00010000
00001000
00000100
,
00001001
00000000
00000000
00000000
,
00000000
00000000
00000000
00000000
;
