
//----- song ID: plah -----//
#TITLE:Play Hard;
#ARTIST:David Guetta feat. Ne-Yo, Akon;
#BANNER:Play Hard.png;
#BACKGROUND:Play Hard-bg.png;
#CDTITLE:./CDTitles/DDR A20.png;
#MUSIC:Play Hard.ogg;
#SAMPLESTART:100.368;
#SAMPLELENGTH:15;
#BPMS:0=130;
#NOTES:
     dance-single:
     :
     Beginner:
     3:
     :
0000
0000
0000
0000
,
0000
0000
0000
0000
,
0000
0000
0000
0000
,
0000
0000
0000
0000
,
0000
0000
0000
0000
,
0000
0000
0000
0000
,
0000
0000
0000
0000
,
0000
0000
0000
0000
,
0000
0000
0000
0000
,
0001
0000
0001
0000
,
0010
0000
0010
0000
,
1000
0000
1000
0000
,
0010
0000
0000
0000
,
1000
0000
1000
0000
,
0010
0000
0010
0000
,
0001
0000
0001
0000
,
0010
0000
0000
0000
,
1001
0000
0000
0000
,
0001
0000
0100
0000
,
0001
0000
0100
0000
,
0001
0000
0010
0000
,
1000
0000
0000
0000
,
1000
0000
0010
0000
,
1000
0000
0010
0000
,
1000
0000
0100
0000
,
0001
0000
0000
0000
,
1001
0000
0000
0000
,
1001
0000
0000
0000
,
1001
0000
0000
0000
,
0000
0000
0000
0000
,
1001
0000
0000
0000
,
1001
0000
0000
0000
,
1001
0000
0000
0000
,
1001
0000
0000
0000
,
0000
0000
0000
0000
,
2000
0000
0000
0000
,
3000
0000
0000
0000
,
0200
0000
0000
0000
,
0300
0000
0000
0000
,
0002
0000
0000
0000
,
0003
0000
0000
0000
,
0020
0000
0000
0000
,
0030
0000
0000
0000
,
1000
0000
1000
0000
,
0010
0000
0010
0000
,
0001
0000
0001
0000
,
0100
0000
0100
0000
,
0001
0000
0001
0000
,
0010
0000
0010
0000
,
1000
0000
1000
0000
,
0001
0000
0000
0000
,
2002
0000
0000
0000
,
0000
0000
0000
0000
,
3003
0000
0000
0000
,
0000
0000
0000
0000
,
1001
0000
0000
0000
,
0001
0001
0001
0000
,
0010
0000
0010
0000
,
1000
0000
0000
0000
,
1001
0000
0000
0000
,
1000
1000
1000
0000
,
0010
0000
0010
0000
,
0001
0000
0000
0000
,
0001
0000
0001
0000
,
1000
0000
1000
0000
,
0001
0000
0001
0000
,
0010
0000
0000
0000
,
1000
0000
1000
0000
,
0001
0000
0001
0000
,
1000
0000
1000
0000
,
0010
0000
0000
0000
,
1001
0000
0000
0000
,
0000
0000
0000
0000
;
#NOTES:
     dance-single:
     :
     Easy:
     5:
     :
0000
0000
0000
0000
,
0000
0000
0000
0000
,
0000
0000
0000
0000
,
0000
0000
0000
0000
,
0000
0000
0000
0000
,
0000
0000
0000
0000
,
0000
0000
0000
0000
,
0000
0000
0000
0000
,
0000
0000
0000
0000
,
0001
0000
1000
0000
,
0001
0000
1000
0000
,
0010
0000
0100
0000
,
0010
1000
0100
0000
,
0010
0000
0100
0000
,
0010
0000
0100
0000
,
1000
0000
0001
0000
,
1000
0001
0100
0000
,
2002
0000
3003
0000
,
1000
0100
1000
0001
,
0100
0001
0010
0100
,
1000
0010
1000
0001
,
0010
0001
0100
0000
,
0001
0001
0010
0100
,
1000
1000
0001
0100
,
0001
0001
0010
0100
,
0220
0000
0330
0000
,
1000
0001
1000
0001
,
1000
0001
0010
0000
,
0001
1000
0001
1000
,
1001
1001
0000
0000
,
1000
0001
1000
0001
,
1000
0001
0100
0000
,
0001
1000
0001
1000
,
0001
1000
0100
0000
,
0110
0000
0000
0000
,
0001
0000
0100
0000
,
0001
0000
0010
0000
,
0100
0000
1000
0000
,
0010
1000
0001
0000
,
1000
0000
0010
0000
,
1000
0000
0100
0000
,
0010
0000
0001
0000
,
0100
0001
0100
0000
,
1000
0100
0001
0100
,
1000
0010
0100
0000
,
0001
0100
1000
0100
,
0010
0000
0100
0000
,
0001
0010
1000
0010
,
0001
0100
0010
0000
,
1000
0010
0001
0010
,
1000
0000
0001
0000
,
1000
1000
0010
0010
,
0001
0001
0100
0100
,
1000
1000
0010
0010
,
0001
0001
0000
0000
,
1000
0001
0100
0001
,
0010
0001
1000
0000
,
0001
1000
0100
1000
,
0010
1000
0001
0000
,
1000
0100
0010
0001
,
0100
0010
1000
0000
,
0001
0010
0100
1000
,
0010
0100
0001
0000
,
1001
0000
0110
0000
,
1001
0000
0110
0000
,
1001
0000
0110
0000
,
1000
1000
1000
0000
,
1001
0000
0110
0000
,
1001
0000
0110
0000
,
1001
0000
0110
0000
,
0001
0001
0001
0000
,
1001
0000
0000
0000
,
0000
0000
0000
0000
;
#NOTES:
     dance-single:
     :
     Medium:
     9:
     :
0000
0000
0000
0000
,
0000
0000
0000
0000
,
0000
0000
0000
0000
,
0000
0000
0000
0000
,
0000
0000
0000
0000
,
0000
0000
0000
0000
,
0000
0000
0000
0000
,
0000
0000
0000
0000
,
0000
0000
0000
0000
,
0001
0100
0001
0000
1000
0100
1000
0000
,
0200
0300
0020
0030
,
0001
0010
0001
0000
1000
0010
1000
0000
,
0010
1000
0100
0000
,
0010
0001
0010
0000
0100
1000
0100
0000
,
2000
3000
0002
0003
,
0100
0001
0100
0000
0010
1000
0010
0000
,
2000
0000
3002
0000
,
2000
0000
0000
3003
,
0001
0010
0100
0000
1000
0001
0100
0000
,
0010
1000
0100
0000
0010
0001
0010
0001
,
0100
0001
0010
0000
0001
0100
0010
0000
,
1000
0100
1000
0000
0001
0010
0100
0000
,
1000
0100
0001
0000
0001
0100
1000
0000
,
0010
0000
0000
0010
0000
0000
0010
0000
0100
0000
0000
0000
1001
0000
0000
0000
,
0100
0000
0000
0100
0000
0000
0100
0000
0010
0000
0000
0000
1001
0000
0000
0000
,
0001
0000
0000
0001
0000
0000
0001
0000
1000
0000
0100
0000
1000
0000
0000
0000
,
0010
1001
0010
1001
,
0010
0000
1001
0000
0100
0010
0001
0000
,
0100
1001
0100
1001
,
0100
0100
0220
0330
,
0010
1000
0100
0000
0010
0001
0100
0000
,
0001
0100
0010
0000
1000
0100
0010
0000
,
0100
0010
0001
0000
1000
0100
0010
0000
,
0001
0010
0100
0000
1000
0010
0100
0000
,
0020
0000
0000
0000
,
0130
0010
1000
0010
,
0100
0000
0000
0000
0001
0000
0000
0000
0010
0000
0000
0010
0000
0000
0010
0000
,
0001
1000
0010
0100
,
0010
0000
0000
0000
1000
0000
0000
0000
0100
0000
0000
0100
0000
0000
0100
0000
,
0010
0001
1000
0010
,
0100
0000
0000
0000
0010
0000
0000
0000
1000
0000
0000
1000
0000
0000
1000
0000
,
0001
0010
0100
1000
,
0010
0000
0000
0000
0100
0000
0000
0000
0001
0000
0000
0001
0000
0000
0001
0000
,
1000
1001
0100
0110
,
0001
0011
1000
1100
,
0010
0110
0001
1001
,
0100
0010
0001
0000
0100
0010
1000
0000
,
0001
1001
1000
1001
,
0010
0110
0100
0110
,
0001
0101
0100
0101
,
1000
0100
0010
0000
0001
0100
0010
0000
,
2002
0000
0000
0000
,
0000
0000
0000
3003
,
0001
0100
0001
0100
0010
1000
0100
1000
,
0100
0000
0010
0000
0100
0000
0010
0000
0001
0000
0000
0001
0000
0000
0001
0000
,
1000
0000
1000
0010
0000
0100
0000
0100
,
0000
0000
0001
0000
0000
0000
1000
0000
0100
0000
0000
0100
0000
0000
0100
0000
,
0010
0000
0001
0100
0000
0010
0000
0010
,
0000
0000
0100
0000
0000
0000
0010
0000
1000
0000
0000
1000
0000
0000
1000
0000
,
0001
0000
0100
0010
0000
0010
0000
0100
,
0000
0000
0001
0000
0000
0000
0001
0000
0010
0000
0000
0010
0000
0000
0010
0000
,
0100
0000
1000
0010
0000
1000
0000
1000
,
0000
0000
0001
0000
0000
0000
0100
0000
0010
0000
0000
0010
0000
0000
0010
0000
,
1000
0100
1000
0000
0001
0010
0001
0000
,
0100
0010
1000
0000
0010
0100
0001
0100
,
0001
0010
0001
0000
1000
0100
1000
0000
,
0010
0100
0010
0000
0220
0000
0330
0000
,
1000
0100
0010
0000
0001
1000
0100
0000
,
0010
0100
1000
0000
0001
0100
0010
1000
,
0010
0100
0010
0000
1000
0001
0100
0000
,
0010
1000
0001
0010
0200
0000
0300
0000
,
0110
0000
0000
0000
,
0000
0000
0000
0000
;
#NOTES:
     dance-single:
     :
     Hard:
     12:
     :
0000
0000
0000
0000
,
0000
0000
0000
0000
,
0000
0000
0000
0000
,
0000
0000
0000
0000
,
0000
0000
0000
0000
,
0000
0000
0000
0000
,
0000
0000
0000
0000
,
0000
0000
0000
0000
,
0000
0000
0000
0000
,
0001
0000
0000
0100
0000
0000
0000
0000
1000
0000
0000
0100
0000
0000
0000
0000
,
0001
0000
0000
0010
0000
0000
0000
0000
1000
0000
0000
0010
0000
0000
0001
0000
,
1000
0000
0000
0100
0000
0000
0000
0000
0001
0000
0000
0100
0000
0000
1000
0000
,
0010
0000
0100
0010
0000
0100
0010
0000
1000
0000
0000
0001
0000
0000
0000
0000
,
1000
0000
0000
0010
0000
0000
0000
0000
0001
0000
0000
0010
0000
0000
0000
0000
,
1000
0000
0000
0100
0000
0000
0000
0000
0001
0000
0000
0100
0000
0000
0010
0000
,
1000
0000
0000
0010
0000
0000
0000
0000
0001
0000
0000
0010
0000
0000
0100
0000
,
0010
0000
1000
0001
0000
1000
0001
0000
1000
0000
0000
0001
0000
0000
0100
0000
,
0020
0000
0030
0110
,
1000
0000
0000
1000
0000
0000
1000
0000
0001
0000
0010
0000
0001
0000
0000
0000
,
0001
0000
0000
0001
0000
0000
0001
0000
0100
0000
0010
0000
0100
0000
0100
0000
,
0010
0000
0000
0010
0000
0000
0010
0000
1000
0000
0100
0000
0010
0000
0001
0000
,
0100
0000
0000
0100
0000
0000
0100
0000
0001
0000
0100
0000
0000
0000
0100
0000
,
0010
0000
0000
1000
0000
0000
0010
0000
0100
0000
0001
0000
0010
0000
0100
0000
,
1000
0000
0000
1100
0000
0000
1001
0000
0010
0000
0100
0000
1000
0001
1000
0000
,
0010
0000
0000
0110
0000
0000
1010
0000
0001
0000
0100
0000
0001
0000
0001
0000
,
1000
0000
0000
0100
0000
1000
0100
0000
0010
0000
0001
0000
0100
0000
0010
0000
,
0110
0000
0000
0010
1000
0000
0100
0000
1000
0000
0000
0010
1000
0000
0100
0000
,
1000
0000
0000
0010
1000
0000
0100
0000
1000
0000
0001
0000
0010
0000
0100
0000
,
0110
0000
0000
0010
0001
0000
0100
0000
0001
0000
0000
0010
0001
0000
0100
0000
,
0001
0000
0010
0000
0001
1000
0100
0010
,
0110
0000
0000
0001
0100
0000
0100
0000
0010
0000
0000
1000
0100
0000
0100
0000
,
0010
0000
0000
0001
0100
0000
0100
0000
0010
0000
1000
0000
0100
0000
0010
0000
,
0110
0000
0000
1000
0010
0000
0100
0000
0100
0000
0000
0001
0010
0000
0100
0000
,
0100
0000
0000
1000
0010
0000
0100
0000
0100
0000
0001
0000
1000
0000
0001
0000
,
2000
0000
0000
0000
,
3001
0000
0002
0100
0000
0010
0000
0010
,
0000
0000
1003
0000
0000
0000
1000
0000
0001
0000
0000
0100
0000
0000
0001
0000
,
0010
0000
0020
0100
0000
0001
0000
0001
,
0000
0000
0130
0000
0000
0000
0100
0000
0010
0000
0000
0010
0000
0000
0010
0000
,
0001
0000
2000
0010
0000
0100
0000
0100
,
0000
0000
3001
0000
0000
0000
0001
0000
0010
0000
0000
0010
0000
0000
0010
0000
,
0100
0000
0200
1000
0000
0010
0000
0010
,
0000
0000
1300
0000
0000
0000
1000
0000
0100
0000
0000
0100
0000
0000
0100
0000
,
1000
0000
0000
1001
0000
0000
0000
0000
0001
0000
0000
1001
0000
0000
0000
0000
,
0010
0000
0000
0110
0000
0000
0000
0000
0100
0000
0000
0110
0000
0000
0001
0000
,
1000
0000
0000
1001
0000
0000
0000
0000
0001
0000
0000
1001
0000
0000
1000
0000
,
0001
0000
0100
0010
0000
0100
0010
0000
1000
0000
0000
0100
0000
0000
0000
0000
,
1000
0000
0000
1010
0000
0000
0000
0000
0010
0000
0000
0011
0000
0000
0000
0000
,
1000
0000
0000
1100
0000
0000
0000
0000
0100
0000
0000
0101
0000
0000
1000
0000
,
0001
0000
0000
0011
0000
0000
0000
0000
0010
0000
0000
1010
0000
0000
0001
0000
,
0100
0000
0001
1000
0000
0100
1000
0000
0010
0000
0000
0100
0000
0000
0010
0000
,
2002
0000
0000
0000
,
0000
0000
0000
3003
,
0001
0010
0001
0000
1000
0100
1000
0000
0010
1000
0010
0000
0100
0001
0100
0000
,
0001
0010
0001
0000
1000
0000
0100
0000
0010
0000
0000
0010
0000
0000
0010
0000
,
0110
0001
1000
0010
0100
0001
0010
0100
,
0010
0000
0100
0000
1000
0000
0001
0000
0100
0000
0010
1000
0000
0010
0100
0000
,
0110
0001
1000
0010
0100
0001
1000
0100
,
0010
0000
0001
0000
0100
0000
0010
0000
1000
0000
0010
0100
0000
0010
0100
0000
,
0110
1000
0010
0100
0001
1000
0010
1000
,
0100
0000
0010
0000
0001
0000
0100
0000
0010
0000
1000
0001
0000
1000
0001
0000
,
1001
0100
1000
0010
0100
0001
1000
0100
,
0010
0000
0001
0000
0100
0000
0010
0000
0100
0000
0001
1000
0000
0001
1000
0000
,
1100
0000
0000
1001
0000
0000
0000
0000
0101
0000
0000
1001
0000
0000
0000
0000
,
1010
0000
0000
1001
0000
0000
0000
0000
0011
0000
0000
1001
0000
0000
0100
0000
,
0110
0000
0000
0110
0000
0000
0000
0000
1001
0000
0000
1001
0000
0000
0100
0000
,
0010
0000
0001
0100
0000
0001
0100
0000
0010
0000
0000
1000
0000
0000
0000
0000
,
1010
0000
0000
0110
0000
0000
0000
0000
0101
0000
0000
0110
0000
0000
0000
0000
,
1100
0000
0000
0110
0000
0000
0000
0000
0011
0000
0000
0110
0000
0000
1000
0000
,
1001
0000
0000
1001
0000
0000
0000
0000
0110
0000
0000
0110
0000
0000
0001
0000
,
1000
0000
0100
0010
0000
0001
0010
0000
0100
0000
0000
1000
0000
0000
0001
0000
,
1001
0000
0000
0000
,
0000
0000
0000
0000
;
#NOTES:
     dance-double:
     :
     Easy:
     5:
     :
00000000
00000000
00000000
00000000
,
00000000
00000000
00000000
00000000
,
00000000
00000000
00000000
00000000
,
00000000
00000000
00000000
00000000
,
00000000
00000000
00000000
00000000
,
00000000
00000000
00000000
00000000
,
00000000
00000000
00000000
00000000
,
00000000
00000000
00000000
00000000
,
00000000
00000000
00000000
00000000
,
00000001
00001000
00000001
00001000
,
00000010
00000100
00000010
00000000
,
00010000
00001000
00010000
00000000
,
00011000
00000000
00011000
00000000
,
00100000
01000000
00100000
01000000
,
00010000
10000000
00010000
00000000
,
10000000
01000000
00100000
00010000
,
10000000
01000000
00100000
00000000
,
00022000
00000000
00000000
00033000
,
00001000
00010000
00001000
00010000
,
01000000
00100000
01000000
00100000
,
01000000
10000000
01000000
10000000
,
00010000
01000000
00010000
01000000
,
00100000
00010000
00100000
00010000
,
00001000
00001000
00010000
00001000
,
00010000
00010000
00001000
00010000
,
00022000
00000000
00000000
00033000
,
00011000
00000000
00011000
00000000
,
00011000
00000000
00000000
00000000
,
00000110
00000000
00000110
00000000
,
00000110
00000000
00000000
00000000
,
00011000
00000000
00011000
00000000
,
00011000
00000000
00000000
00000000
,
01100000
00000000
01100000
00000000
,
01100000
00000000
00000000
00000000
,
00011000
00000000
00000000
00000000
,
00000001
00000010
00000001
00000100
,
00000010
00000000
00001001
00000000
,
00000001
00000100
00001000
00010000
,
00001000
00000000
00011000
00000000
,
00010000
00001000
00010000
00100000
,
01000000
00000000
10010000
00000000
,
10000000
01000000
00010000
00001000
,
00010000
00000000
00011000
00000000
,
00000100
00000010
00000100
00000010
,
00000001
00000100
00001000
00010000
,
00001000
00010000
00001000
00010000
,
00011000
00000000
01010000
00000000
,
00100000
10000000
00100000
10000000
,
01000000
00100000
01000000
00010000
,
00001000
00010000
00001000
00010000
,
00011000
00000000
00001010
00000000
,
00002002
00000000
00000000
00000000
,
00000000
00000000
00000000
00000000
,
00000000
00000000
00000000
00000000
,
00000000
00003003
00000000
00000000
,
00000001
00000010
00000001
00000010
,
00000100
00010000
00001000
00010000
,
00001000
00100000
00001000
00100000
,
01000000
10000000
01000000
00100000
,
00010000
01000000
00010000
01000000
,
00100000
10000000
00100000
01000000
,
00001000
01000000
00001000
01000000
,
00001000
00010000
00001000
00000100
,
00000002
00000003
00002000
00003000
,
00000200
00000300
00002000
00003000
,
00000020
00000030
00000200
00000300
,
00000010
00000010
00000010
00000000
,
00020000
00030000
00002000
00003000
,
00200000
00300000
00002000
00003000
,
02000000
03000000
00200000
00300000
,
10000000
10000000
10000000
00000000
,
10010000
00000000
00000000
00000000
,
00000000
00000000
00000000
00000000
;
#NOTES:
     dance-double:
     :
     Medium:
     9:
     :
00000000
00000000
00000000
00000000
,
00000000
00000000
00000000
00000000
,
00000000
00000000
00000000
00000000
,
00000000
00000000
00000000
00000000
,
00000000
00000000
00000000
00000000
,
00000000
00000000
00000000
00000000
,
00000000
00000000
00000000
00000000
,
00000000
00000000
00000000
00000000
,
00000000
00000000
00000000
00000000
,
00000001
00000010
00000001
00000000
00001000
00000100
00000010
00000000
,
00000001
00000100
00000010
00000000
00010000
00001000
00010000
00000000
,
00001000
00100000
00010000
00000000
01000000
00100000
10000000
00000000
,
00100000
01000000
00100000
01000000
00200000
00000000
00300000
00000000
,
10000000
01000000
10000000
00000000
01000000
00100000
00010000
00000000
,
10000000
00100000
01000000
00000000
00001000
00010000
00001000
00000000
,
00010000
00000100
00000010
00000000
00000001
00000100
00000010
00000000
,
00001000
00000001
00001000
00000001
00002000
00000000
00003000
00000000
,
00002002
00000000
00000000
00003003
,
00000001
00001000
00000001
00001000
00000010
00000100
00000010
00000000
,
00000100
00000010
00000100
00000010
00010000
00000010
00010000
00000000
,
00000100
00010000
00000100
00010000
00001000
00010000
00001000
00000000
,
01000000
00001000
01000000
00001000
01000000
00010000
01000000
00000000
,
00100000
10000000
00100000
10000000
00100000
01000000
00100000
01000000
,
00100000
00000000
01100000
00000000
10000000
01000000
10000000
01000000
,
10000000
00000000
10010000
00000000
00100000
00010000
00100000
00010000
,
00001000
00000100
00001000
00000100
00001000
00000100
00001000
00000000
,
00000100
00001001
00000100
00001001
,
00000100
00000000
00001001
00000000
00000010
00000100
00001000
00000000
,
00010000
00011000
00001000
00011000
,
00010000
00001000
00022000
00033000
,
00100000
00011000
00100000
00011000
,
00100000
00000000
00011000
00000000
00100000
01000000
00100000
00000000
,
01000000
10010000
01000000
10010000
,
01000000
00000000
10010000
00000000
01000000
00100000
01000000
00000000
,
20020000
00000000
00000000
30030000
,
00100000
00001000
00010000
00001000
,
00000100
00000001
00000010
00000010
,
00001000
00010000
00001000
00000100
,
00000010
00000100
00001000
00001000
,
00010000
00100000
01000000
00010000
,
00100000
01000000
10000000
10000000
,
00100000
00010000
00001000
00010000
,
01000000
00100000
00001000
00001000
,
00010000
00010000
00000100
00000100
,
00000010
00000000
00000010
00000000
00000001
00000010
00000001
00000000
,
00001000
00001000
00000100
00000100
,
00001000
00010000
00100000
00100000
,
00010000
00010000
01000000
01000000
,
00100000
00000000
00100000
00000000
10000000
00100000
10000000
00000000
,
00010000
00010000
00100000
00100000
,
00010000
00001000
00000100
00000010
,
00000002
00000000
00000000
00000000
,
00000000
00000000
00000000
00000003
,
00000001
00000100
00001000
00000000
00000100
00000010
00001000
00000000
,
00010000
01000000
10000000
00000000
01000000
00100000
10000000
00000000
,
10000000
01000000
00010000
00000000
01000000
00100000
00001000
00000000
,
00010000
00000000
00000100
00000000
00001000
00000000
00000000
00000000
00000001
00000000
00000000
00000001
00000000
00000000
00000001
00000000
,
00000010
00000100
00001000
00000000
00000010
00000100
00001000
00000000
,
00010000
00000000
00001000
00000000
00100000
00000000
00000000
00000000
01000000
00000000
00000000
01000000
00000000
00000000
01000000
00000000
,
10000000
01000000
00010000
00000000
01000000
10000000
00100000
00000000
,
01000000
00000000
00001000
00000000
00010000
00000000
00000000
00000000
00000010
00000000
00000000
00000010
00000000
00000000
00000010
00000000
,
00000100
00000001
00001000
00000000
00000100
00000010
00000001
00000000
,
00000100
00000000
00001000
00000000
00010000
00000000
00000000
00000000
00001000
00000000
00000000
00001000
00000000
00000000
00001000
00000000
,
00010000
00100000
00010000
00000000
00100000
10000000
00100000
00000000
,
10000000
01000000
10000000
00000000
01000000
00100000
01000000
00000000
,
00100000
00001000
00100000
00000000
00001000
00010000
00001000
00000000
,
00011000
00001100
00000110
00000000
,
00000001
00000010
00000001
00000000
00000100
00000001
00000100
00000000
,
00000010
00001000
00000010
00000000
00010000
00001000
00010000
00000000
,
00001000
00100000
00001000
00000000
00100000
00010000
00100000
00000000
,
00010000
01000000
00010000
01000000
00100000
01000000
00100000
00000000
,
10010000
00000000
00000000
00000000
,
00000000
00000000
00000000
00000000
;
#NOTES:
     dance-double:
     :
     Hard:
     11:
     :
00000000
00000000
00000000
00000000
,
00000000
00000000
00000000
00000000
,
00000000
00000000
00000000
00000000
,
00000000
00000000
00000000
00000000
,
00000000
00000000
00000000
00000000
,
00000000
00000000
00000000
00000000
,
00000000
00000000
00000000
00000000
,
00000000
00000000
00000000
00000000
,
00000000
00000000
00000000
00000000
,
10000000
00000000
00000000
10000000
00000000
00000000
00000000
00000000
01000000
00000000
00000000
01000000
00000000
00000000
00000000
00000000
,
00100000
00000000
00000000
00100000
00000000
00000000
00000000
00000000
00001000
00000000
00000000
00010000
00000000
00000000
00001000
00000000
,
00010000
00000000
00000000
00010000
00000000
00000000
00000000
00000000
00000100
00000000
00000000
00000100
00000000
00000000
00000010
00000000
,
00000001
00000000
00001000
00000001
00000000
00001000
00000001
00000000
00000100
00000000
00000000
00000100
00000000
00000000
00000000
00000000
,
00000001
00000000
00000000
00000001
00000000
00000000
00000000
00000000
00000100
00000000
00000000
00000100
00000000
00000000
00000000
00000000
,
00000010
00000000
00000000
00000010
00000000
00000000
00000000
00000000
00010000
00000000
00000000
00001000
00000000
00000000
00010000
00000000
,
00001000
00000000
00000000
00001000
00000000
00000000
00000000
00000000
00100000
00000000
00000000
00100000
00000000
00000000
00010000
00000000
,
10000000
00000000
01000000
00100000
00000000
01000000
00100000
00000000
01000000
00000000
00000000
01000000
00000000
00000000
01000000
00000000
,
02000000
00000000
00000000
03000000
,
00100000
00000000
00000000
00001000
00000000
00000000
00010000
00000000
00000100
00000000
00000010
00000000
00000001
00000000
00000000
00000000
,
00000001
00000000
00000000
00000100
00000000
00000000
00001000
00000000
00010000
00000000
00001000
00000000
00010000
00000000
00010000
00000000
,
01000000
00000000
00000000
00100000
00000000
00000000
10000000
00000000
00100000
00000000
00010000
00000000
01000000
00000000
00100000
00000000
,
00010000
00000000
00000000
00001000
00000000
00000000
00010000
00000000
00001000
00000000
00000010
00000000
00000000
00000000
00000010
00000000
,
00000001
00000000
00000000
00000100
00000000
00000000
00010000
00000000
00001000
00000000
00010000
00000000
01000000
00000000
00100000
00000000
,
10000000
00000000
00000000
10000000
00000000
00000000
10000000
00000000
00010000
00000000
00100000
00000000
01000000
10000000
01000000
00000000
,
00100000
00000000
00000000
00100000
00000000
00000000
00100000
00000000
00001000
00000000
00010000
00000000
01000000
00000000
00010000
00000000
,
00001000
00000000
00000000
00001000
00000000
00000000
00001000
00000000
00010000
00000000
00000100
00000000
00001000
00000000
00000000
00000000
,
00000100
00000000
00000000
00000100
00000010
00000000
00000010
00000000
00000001
00000000
00000000
00000001
00001000
00000000
00001000
00000000
,
00000100
00000000
00000000
00000100
00010000
00000000
00010000
00000000
00001000
00000000
00100000
00000000
01000000
00000000
00000000
00000000
,
10000000
00000000
00000000
10000000
00100000
00000000
00100000
00000000
01000000
00000000
00000000
01000000
00100000
00000000
00100000
00000000
,
10000000
11000000
01010000
00001000
,
00010000
00000000
00000000
00010000
00000100
00000000
00000100
00000000
00001000
00000000
00000000
00001000
00000010
00000000
00000010
00000000
,
00000100
00000000
00000000
00000100
00000001
00000000
00000001
00000000
00000010
00000000
00000100
00000000
00001000
00000000
00000000
00000000
,
00000001
00000000
00000000
00000001
00000100
00000000
00000100
00000000
00000010
00000000
00000000
00000010
00010000
00000000
00010000
00000000
,
00001000
00000000
00000000
00001000
01000000
00000000
01000000
00000000
00010000
00000000
00100000
00000000
10000000
00000000
00000000
00000000
,
02200000
00000000
00000000
03300000
,
20000000
00000000
00000000
00010000
00000000
01000000
00000000
30200000
,
00000000
00000000
01000000
00000000
00000000
00000000
00310000
00000000
00001000
00000000
00000000
00001000
00000000
00000000
00001000
00000000
,
00020000
00000000
00000000
00000100
00000000
00001000
00000000
00030200
,
00000000
00000000
00000010
00000000
00000000
00000000
00001300
00000000
00000001
00000000
00000000
00000001
00000000
00000000
00000001
00000000
,
00000020
00000000
00000000
00001000
00000000
00000001
00000000
00000230
,
00000000
00000000
00001000
00000000
00000000
00000000
00010300
00000000
00001000
00000000
00000000
00001000
00000000
00000000
00001000
00000000
,
02000000
00000000
00000000
00010000
00000000
10000000
00000000
03200000
,
00000000
00000000
00010000
00000000
00000000
00000000
10300000
00000000
01000000
00000000
00000000
01000000
00000000
00000000
01000000
00000000
,
10000000
00000000
00000000
01000000
00000000
00000000
00000000
00000000
01000000
00000000
00000000
00100000
00000000
00000000
00000000
00000000
,
00100000
00000000
00000000
00010000
00000000
00000000
00000000
00000000
00010000
00000000
00000000
00001000
00000000
00000000
00010000
00000000
,
00001000
00000000
00000000
00000100
00000000
00000000
00000000
00000000
00000100
00000000
00000000
00000010
00000000
00000000
00000010
00000000
,
00000001
00000000
00001000
00000001
00000000
00001000
00000001
00000000
00000100
00000000
00000000
00000100
00000000
00000000
00000000
00000000
,
00000001
00000000
00000000
00000100
00000000
00000000
00000000
00000000
00000100
00000000
00000000
00000010
00000000
00000000
00000000
00000000
,
00000010
00000000
00000000
00001000
00000000
00000000
00000000
00000000
00001000
00000000
00000000
00010000
00000000
00000000
00001000
00000000
,
00010000
00000000
00000000
01000000
00000000
00000000
00000000
00000000
01000000
00000000
00000000
00100000
00000000
00000000
00100000
00000000
,
10000000
00000000
00010000
10000000
00000000
00010000
10000000
00000000
01000000
00000000
00000000
01000000
00000000
00000000
01000000
00000000
,
20020000
00000000
00000000
00000000
,
00000000
00000000
00000000
30030000
,
10000000
01000000
00010000
01000000
00100000
00001000
00010000
00000100
,
00000010
00000000
00000001
00000000
00001001
00000000
00000000
00000000
00000010
00000000
00000000
00000010
00000000
00000000
00000010
00000000
,
00000001
00000100
00000010
00001000
00000100
00000010
00000100
00010000
,
00001000
00000000
00100000
00000000
00010000
00000000
01000000
00000000
00100000
00000000
00000000
01100000
00000000
00000000
10100000
00000000
,
10000000
00010000
00100000
01000000
10000000
00100000
01000000
00001000
,
00010000
00000000
01000000
00000000
00010000
00000000
00001000
00000000
00000010
00000000
00000000
00000011
00000000
00000000
00001001
00000000
,
00001000
00000010
00000100
00000001
00000100
00001000
00010000
00001000
,
00010000
00000000
00100000
00000000
01000000
00000000
00010000
00000000
00100000
00000000
00000000
00110000
00000000
00000000
01100000
00000000
,
01000000
10000000
00010000
00100000
01000000
00010000
01000000
00100000
,
00001000
00010000
00001000
00000010
00000001
00001000
00000100
00000010
,
00000001
00000000
00000000
00001001
00000000
00000000
00000000
00000000
00001000
00000000
00000000
00001010
00000000
00000000
00000000
00000000
,
00000100
00000000
00000000
00010100
00000000
00000000
00000000
00000000
00010000
00000000
00000000
00011000
00000000
00000000
00011000
00000000
,
00001000
00000000
00000000
01001000
00000000
00000000
00000000
00000000
00100000
00000000
00000000
01100000
00000000
00000000
10000000
00000000
,
00010000
00000000
00100000
01000000
00000000
00100000
01000000
00000000
10000000
00000000
00000000
10000000
00000000
00000000
00000000
00000000
,
10000000
00000000
00000000
10010000
00000000
00000000
00000000
00000000
00010000
00000000
00000000
01010000
00000000
00000000
00000000
00000000
,
00100000
00000000
00000000
00101000
00000000
00000000
00000000
00000000
00001000
00000000
00000000
00011000
00000000
00000000
00011000
00000000
,
00010000
00000000
00000000
00010100
00000000
00000000
00000000
00000000
00000100
00000000
00000000
00001100
00000000
00000000
00001000
00000000
,
00000001
00000000
00000010
00000100
00000000
00000010
00000100
00000000
00010000
00000000
00000000
00001000
00000000
00000000
00010000
00000000
,
00011000
00000000
00000000
00000000
,
00000000
00000000
00000000
00000000
;
