
//----- song ID: part -----//
#TITLE:Party Rock Anthem;
#ARTIST:LMFAO;
#BANNER:Party Rock Anthem.png;
#BACKGROUND:Party Rock Anthem-bg.png;
#CDTITLE:./CDTitles/DDR A20.png;
#MUSIC:Party Rock Anthem.ogg;
#SAMPLESTART:76.116;
#SAMPLELENGTH:15;
#BPMS:0=130;
#NOTES:
     dance-single:
     :
     Beginner:
     2:
     :
0000
0000
0000
0000
,
0000
0000
0000
0000
,
0000
0000
0000
0000
,
0000
0000
0000
0000
,
0000
0000
0000
0000
,
0001
0000
0000
0000
,
0001
0000
0000
0000
,
1000
0000
0000
0000
,
1000
0000
0000
0000
,
0001
0000
0001
0000
,
0100
0000
0000
0000
,
1000
0000
1000
0000
,
0100
0000
0000
0000
,
0001
0000
0001
0000
,
0010
0000
0000
0000
,
1000
0000
1000
0000
,
0000
0000
0000
0000
,
0001
0000
0010
0000
,
1000
0000
0000
0000
,
1000
0000
0010
0000
,
0001
0000
0000
0000
,
0001
0000
0100
0000
,
1000
0000
0000
0000
,
1000
0000
0100
0000
,
0001
0000
0000
0000
,
1000
0000
0010
0000
,
0100
0000
0000
0000
,
0001
0000
0010
0000
,
0100
0000
0000
0000
,
1000
0000
0100
0000
,
0010
0000
0000
0000
,
0001
0000
0100
0000
,
0010
0000
0000
0000
,
2000
0000
3000
0000
,
2000
0000
3000
0000
,
0002
0000
0003
0000
,
0002
0000
0003
0000
,
0020
0000
0030
0000
,
0020
0000
0030
0000
,
0200
0000
0300
0000
,
0000
0000
0000
0000
,
0001
0000
0010
0000
,
0100
0000
0000
0000
,
1000
0000
0010
0000
,
0001
0000
0000
0000
,
1000
0000
0010
0000
,
0100
0000
0000
0000
,
0001
0000
0010
0000
,
1000
0000
0000
0000
,
1000
0000
0000
0000
,
0001
0000
0001
0000
,
0010
0000
0000
0000
,
1000
0000
0000
0000
,
0001
0000
0000
0000
,
1000
0000
1000
0000
,
0010
0000
0000
0000
,
1001
0000
0000
0000
,
0000
0000
0000
0000
;
#NOTES:
     dance-single:
     :
     Easy:
     5:
     :
0000
0000
0000
0000
,
0000
0000
0000
0000
,
0000
0000
0000
0000
,
0000
0000
0000
0000
,
0000
0000
0000
0000
,
0002
0000
0003
0000
,
0020
0000
0030
0000
,
2000
0000
3000
0000
,
0200
0000
0300
0000
,
0001
0010
0100
0010
,
0100
0000
1001
0000
,
1000
0100
0001
0100
,
1000
0000
1001
0000
,
1000
0010
0100
0010
,
0100
0000
1001
0000
,
0001
0010
1000
0010
,
0000
0000
0000
0000
,
0010
0100
0010
0100
,
0010
0100
0010
0100
,
1000
0001
1000
0100
,
0010
0100
1000
0000
,
0010
0100
0010
0100
,
0010
0100
0010
0100
,
0001
1000
0001
0100
,
0220
0000
0000
0330
,
0100
0001
0100
0001
,
1000
0010
1000
0010
,
1000
0100
1000
0100
,
0010
0001
0010
0001
,
1000
0010
0100
0001
,
0100
0010
1000
0001
,
1000
0100
0010
0001
,
2002
0000
0000
3003
,
1000
0010
0100
0100
,
0001
0010
0100
0100
,
2000
3000
0002
0003
,
0100
0010
0100
0000
,
0002
0003
2000
3000
,
0100
0010
0100
0100
,
1000
0010
0100
0001
,
0000
0000
0000
0000
,
0001
1000
0010
0000
,
0110
0000
1001
0000
,
1000
0010
0001
0000
,
0010
1000
0001
0000
,
0100
0010
1000
0000
,
1001
0000
0110
0000
,
0001
0010
1000
0000
,
0010
0001
0100
0000
,
0001
0010
0100
1000
,
0001
1000
1001
0000
,
1000
0010
0001
0010
,
0100
0010
0110
0000
,
1000
0100
0010
0001
,
1000
0001
1001
0000
,
0001
0010
1000
0010
,
0200
0000
0300
0010
,
0000
0000
0000
0000
;
#NOTES:
     dance-single:
     :
     Medium:
     8:
     :
0000
0000
0000
0000
,
0000
0000
0000
0000
,
0000
0000
0000
0000
,
0000
0000
0000
0000
,
0000
0000
0000
0000
,
0002
0000
0000
0013
0000
0000
0000
0000
,
2000
0000
0000
3010
0000
0000
0000
0000
,
0200
0000
0000
0310
0000
0000
0000
0000
,
0002
0000
0000
1003
0000
0000
0000
0000
,
0000
0000
0001
0000
1000
0100
0010
0000
,
2001
0000
3000
0001
0200
0000
0000
0000
,
0300
0000
0010
0000
0100
0001
0010
0000
,
0100
1000
0010
0000
2002
0000
0000
0000
,
3003
0000
0000
0001
0100
0010
0100
0000
,
0102
0000
0003
1000
0200
0000
0000
0000
,
0300
0000
1000
0010
0100
0001
1000
0010
,
0000
0000
0000
0000
,
0001
0010
0100
0000
1000
0100
0010
0000
,
0110
1001
0110
0000
,
0001
1000
0010
0000
0100
0010
1000
0000
,
1001
0110
1001
0000
,
0100
0010
1000
0000
0100
0010
0001
0000
,
1001
0110
1001
0000
,
0001
1000
0100
0000
1000
0001
0100
0000
,
2002
0000
0000
3003
,
0010
0000
0110
0000
0001
1000
0100
0000
,
1000
0000
1001
0000
0001
0100
0010
0000
,
0100
0000
0110
0000
1000
0001
0010
0000
,
0001
0000
1001
0000
0010
0100
1000
0000
,
0001
0000
0011
0000
1000
0010
0100
0000
,
0010
0000
1010
0000
0001
0010
0100
0000
,
1000
0000
1001
0000
0100
0010
0100
0000
,
0220
0000
0000
0330
,
0001
0000
1000
0000
0100
0010
0001
0010
,
0200
0302
0203
2300
,
3010
0000
0100
0000
0001
0100
0010
0100
,
0002
0023
2030
3020
,
0031
0011
0001
1001
,
0001
0011
0001
1001
,
1000
0100
1000
0000
1000
0100
0010
0000
,
0220
0000
0000
0330
,
0000
0000
0001
0000
1000
0100
1000
0000
,
1020
0230
0302
0000
,
0003
0000
1000
0000
0010
0100
0001
0000
,
1000
0100
0002
0000
,
0003
0000
0000
1000
0100
0010
0100
0000
,
0120
0032
2003
0000
,
3000
0000
0001
0000
0010
0100
1000
0000
,
0001
0100
2000
0000
,
3010
0000
0001
0000
0100
0010
0100
0000
,
0002
0000
0013
0100
2000
0000
0000
0000
,
3001
0000
0100
0010
1000
0001
1000
0000
,
0011
1010
2002
3003
,
0100
0000
1000
0000
0010
1000
0100
0000
,
0020
0000
0031
0100
0020
0000
0000
0000
,
0130
0000
1000
0100
0001
0100
1000
0000
,
2002
0000
0000
3003
,
0000
0000
0000
0000
;
#NOTES:
     dance-single:
     :
     Hard:
     11:
     :
0000
0000
0000
0000
,
0000
0000
0000
0000
,
0000
0000
0000
0000
,
0000
0000
0000
0000
,
0000
0000
0000
0000
,
0001
0000
0000
0001
0000
0000
0001
0000
0000
0000
0010
0000
0000
0010
0000
0000
,
1000
0000
0000
1000
0000
0000
1000
0000
0000
0000
0010
0000
0000
0010
0000
0000
,
0100
0000
0000
0100
0000
0000
0100
0000
0000
0000
0010
0000
0000
0010
0000
0000
,
1000
0000
0000
1000
0000
0000
1000
0000
0000
0000
0001
0000
0000
0001
0000
0000
,
1000
0000
0001
1000
0100
0010
0100
0010
,
0220
0000
0330
0001
0020
0000
0000
0000
,
0030
0000
0001
0100
1000
0100
0001
0000
,
1000
0100
0010
0000
2002
0000
0000
0000
,
3003
0000
0000
0001
0100
0010
0100
0010
,
2020
0000
3030
0001
0200
0000
0000
0000
,
0300
0000
0001
0010
0100
1000
0010
0100
,
0000
0000
0000
0000
,
1000
0010
1000
0010
0100
0010
0100
0001
,
1000
0100
0010
0100
0010
0001
0010
0000
,
0001
0100
0001
0100
0010
0100
0010
1000
,
0001
0010
0100
0010
0100
1000
0100
0000
,
1000
0100
1000
0100
0001
0100
1000
0001
,
0100
1000
0100
1000
0100
0001
0100
0000
,
0001
0010
0001
0010
1000
0010
0001
1000
,
0100
0000
0000
0100
0000
0000
0010
0000
0000
0000
0110
0000
0000
0110
0000
0000
,
1000
0010
0100
0010
0001
1000
0100
0010
,
0100
0001
0010
0100
0001
1000
0010
0100
,
1000
0010
0100
1000
0001
0010
0100
0010
,
0001
1000
0100
0001
1000
0100
0001
0100
,
0010
0001
0100
0010
1000
0100
0010
0001
,
0010
0100
0010
1000
0010
0100
0001
0100
,
0010
0001
1000
0010
0001
1000
0100
0001
,
2002
0000
0000
3003
,
0001
0100
1000
0100
0010
0100
0010
0100
,
0010
1000
0100
0001
1000
0010
0001
0100
,
1000
0001
0010
0100
0001
0010
0100
1000
,
0010
0100
1000
0100
0010
1000
0001
1000
,
0100
0001
0100
0010
0100
0001
1000
0010
,
0001
0100
0001
0010
1000
0001
0100
1000
,
0001
1000
0010
1000
0100
0010
0001
0100
,
0020
0000
0000
0030
,
0000
0000
1000
0100
0010
0001
0010
0100
,
2001
0000
0000
3001
0200
0000
0000
0000
,
0300
0000
0010
1000
0001
0100
0001
0000
,
0010
0100
1000
0000
2002
0000
0000
0000
,
3003
0000
0000
0001
0100
1000
0100
0001
,
1002
0000
0000
0103
0020
0000
0000
0000
,
0030
0000
1000
0100
0001
0100
1000
0000
,
0100
0010
0100
0000
2002
0000
0000
0000
,
3003
0000
0010
1000
0100
0010
0001
0100
,
0120
0000
0000
1030
0200
0000
0000
0000
,
0300
0000
0001
0100
1000
0001
0100
0000
,
0010
0100
0010
0000
2002
0000
0000
0000
,
3003
0000
0000
0001
0100
0010
0100
0010
,
2010
0000
0000
3001
0200
0000
0000
0000
,
0300
0000
0010
0100
0001
1000
0001
1000
,
0010
0000
0000
0010
0000
0000
2002
0000
0000
0000
0000
0000
3003
0000
0000
0000
,
0000
0000
0000
0000
;
#NOTES:
     dance-double:
     :
     Easy:
     5:
     :
00000000
00000000
00000000
00000000
,
00000000
00000000
00000000
00000000
,
00000000
00000000
00000000
00000000
,
00000000
00000000
00000000
00000000
,
00000000
00000000
00000000
00000000
,
00020000
00000000
00000000
00030000
,
00002000
00000000
00000000
00003000
,
00200000
00000000
00000000
00300000
,
00020000
00000000
00000000
00030000
,
10000000
01000000
00100000
00010000
,
00100000
00001000
00020000
00000000
,
00031000
00000010
00000100
00000010
,
00000001
00000100
00000002
00000000
,
00000003
00000100
00001000
00010000
,
00001000
00010000
00200000
00000000
,
01300000
00100000
10000000
00100000
,
00000000
00000000
00000000
00000000
,
10000000
10000000
00100000
01000000
,
00010000
00010000
01000000
00100000
,
00010000
00010000
00001000
00010000
,
00001000
00001000
00000010
00000000
,
00000010
00000010
00000001
00000100
,
00000010
00000010
00001000
00000100
,
00010000
00010000
00001000
00010000
,
00022000
00000000
00000000
00033000
,
00010000
00100000
10000000
00100000
,
01000000
00010000
01000000
00100000
,
10000000
01000000
00100000
00001000
,
00010000
00001000
00010000
00000100
,
00000010
00000001
00001000
00000100
,
00000001
00000100
00001000
00000001
,
00000100
00001000
00010000
00001000
,
00022000
00000000
00000000
00033000
,
00001000
00100000
00010000
10000000
,
00100000
01000000
00001000
00010000
,
00001000
00000010
00000001
00000100
,
00000010
00010000
00001000
00010000
,
01000000
10000000
00010000
00100000
,
00001000
00000010
00000001
00000100
,
00001000
00010000
00001000
01000000
,
00100000
00000000
00000000
00000000
,
10000000
01000000
00100000
00000000
,
00011000
00000000
00011000
00000000
,
00000010
00000001
00000100
00000000
,
00011000
00000000
00011000
00000000
,
01000000
00100000
01000000
00000000
,
00011000
00000000
00011000
00000000
,
00000100
00000010
00000100
00000000
,
00011000
00000000
00011000
00000000
,
00100000
10000000
00010000
01000000
,
00001000
00010000
00001000
00000000
,
00010000
00000100
00001000
00000001
,
00000010
00000100
00000010
00000000
,
00000001
00000100
00001000
00010000
,
00100000
10000000
00010000
00000000
,
10000000
01000000
00100000
00001000
,
00022000
00000000
00000000
00033000
,
00000000
00000000
00000000
00000000
;
#NOTES:
     dance-double:
     :
     Medium:
     8:
     :
00000000
00000000
00000000
00000000
,
00000000
00000000
00000000
00000000
,
00000000
00000000
00000000
00000000
,
00000000
00000000
00000000
00000000
,
00000000
00000000
00000000
00000000
,
00200000
00000000
00000000
00310000
00000000
00000000
00000000
00000000
,
20000000
00000000
00000000
31000000
00000000
00000000
00000000
00000000
,
00020000
00000000
00000000
00031000
00000000
00000000
00000000
00000000
,
00000020
00000000
00000000
00000031
00000000
00000000
00000000
00000000
,
00001000
00000000
00000001
00000000
00000100
00000010
00000100
00000000
,
00000120
00000000
00000000
00001000
00002000
00000000
00000000
00000000
,
00003030
00000000
00000100
00000000
00010000
00001000
00010000
00000000
,
00101000
00110000
20020000
00000000
,
30030000
00000000
00000000
01000000
00100000
01000000
00100000
00000000
,
21000000
00000000
00000000
00010000
00020000
00000000
00000000
00000000
,
30030000
00000000
00100000
00000000
00001000
00010000
00001000
00000000
,
00000000
00000000
00000000
00000000
,
00000010
00001001
00000010
00001001
,
00000010
00000100
00001000
00000000
00000100
00010000
00001000
00000000
,
00100000
00011000
00100000
00011000
,
00100000
00001000
00010000
00000000
00001000
01000000
00010000
00000000
,
01000000
10010000
01000000
10010000
,
01000000
00100000
10000000
00000000
01000000
00100000
00001000
00000000
,
01000000
00011000
01000000
00011000
,
00022000
00000000
00000000
00033000
,
00001000
00000000
00011000
00000000
00000100
00000010
00000001
00000000
,
00001000
00001001
00000100
00000100
,
00000010
00000000
00000110
00000000
00000100
00000010
00010000
00000000
,
00001000
00101000
01000000
01000000
,
10000000
00000000
10010000
00000000
00100000
01000000
00010000
00000000
,
01000000
01100000
00001000
00001000
,
00010000
00000000
00011000
00000000
00000010
00000001
00000010
00000000
,
00002002
00000000
00000000
00003003
,
00000100
00000000
00001001
00000000
00000001
00000010
00000100
00010000
,
00002000
00203000
00320000
02030000
,
03100000
00000000
10010000
00000000
10000000
01000000
00100000
00001000
,
00020000
00030200
00002300
00003002
,
00000013
00000110
00001000
00001100
,
00010000
00011000
00001000
01001000
,
00100000
10000000
00100000
00000000
01000000
00010000
01000000
00000000
,
20020000
00000000
00000000
00000000
,
30030000
00000000
00100000
00000000
10000000
01000000
00010000
00000000
,
01200000
00000000
00000000
00001000
00002000
00000000
00000000
00000000
,
00303000
00000000
00010000
00000000
00000100
00000010
00000100
00000000
,
00001100
00000101
00002002
00000000
,
00003003
00000000
00000000
00000001
00001000
00000001
00001000
00000000
,
00000120
00000000
00000000
00010000
00020000
00000000
00000000
00000000
,
00030030
00000000
00001000
00000000
01000000
00100000
01000000
00000000
,
01100000
10100000
20020000
30030000
,
00100000
10010000
01000000
00100000
,
00010000
00011000
00001000
00010000
,
00000100
00000110
00000001
00000100
,
00000110
00010010
00022000
00033000
,
00000100
00000110
00000001
00001000
,
00000100
00011000
00010000
00100000
,
01000000
00000000
01100000
00000000
10000000
00010000
20000000
00020000
,
00000000
00000000
00000000
30030000
,
00000000
00000000
00000000
00000000
;
#NOTES:
     dance-double:
     :
     Hard:
     11:
     :
00000000
00000000
00000000
00000000
,
00000000
00000000
00000000
00000000
,
00000000
00000000
00000000
00000000
,
00000000
00000000
00000000
00000000
,
00000000
00000000
00000000
00000000
,
00000001
00000000
00000000
00000001
00000000
00000000
00000001
00000000
00000000
00000000
00000100
00000000
00000000
00000100
00000000
00000000
,
00000010
00000000
00000000
00000010
00000000
00000000
00000010
00000000
00000000
00000000
00001000
00000000
00000000
00001000
00000000
00000000
,
00010000
00000000
00000000
00010000
00000000
00000000
00010000
00000000
00000000
00000000
01000000
00000000
00000000
01000000
00000000
00000000
,
00100000
00000000
00000000
00100000
00000000
00000000
00100000
00000000
00000000
00000000
10000000
00000000
00000000
10000000
00000000
00000000
,
00010000
00000000
10000000
00100000
01000000
00001000
00010000
00001000
,
00021000
00000000
00000000
00030100
00002000
00000000
00000000
00000000
,
00003000
00000000
00000010
00000001
00000010
00000100
00000020
00000000
,
00001030
00000100
00001000
00000000
00002002
00000000
00000000
00000000
,
00003003
00000000
00000000
00000001
00000010
00000100
00010000
00001000
,
00012000
00000000
00000000
00103000
00020000
00000000
00000000
00000000
,
00030000
00000000
01000000
00100000
10000000
00100000
01000000
00100000
,
00000000
00000000
00000000
00000000
,
10000000
01000000
00010000
01000000
10000000
00100000
01000000
00100000
,
00010000
00001000
00000100
00000001
00001000
00000100
00000010
00000000
,
00000001
00000100
00001000
00000100
00000001
00000010
00000100
00000010
,
00001000
00010000
01000000
10000000
00010000
01000000
00100000
00000000
,
10000000
00100000
00010000
00100000
10000000
01000000
00100000
00010000
,
00100000
01000000
00010000
00001000
00000010
00000001
00001000
00000000
,
00000001
00000010
00001000
00000010
00000001
00000100
00000010
00010000
,
00001000
00000000
00000000
00010000
00000000
00000000
00001000
00000000
00000000
00000000
00011000
00000000
00000000
00011000
00000000
00000000
,
00001000
00100000
00010000
01000000
00100000
00010000
00001000
00000100
,
00000010
00001000
00000100
00000010
00001000
00010000
00001000
00000100
,
00000010
00000100
00001000
00010000
00100000
00010000
00001000
01000000
,
00010000
00100000
01000000
00010000
00001000
00010000
01000000
00100000
,
00001000
00010000
00000010
00000100
00001000
00000100
00000010
00001000
,
00010000
01000000
00100000
00010000
00100000
01000000
00010000
00100000
,
00010000
00001000
00000100
00000010
00001000
00010000
01000000
00100000
,
00020000
00000000
00000000
00030000
,
10000000
00010000
00100000
01000000
00010000
01000000
00100000
00001000
,
00010000
00000010
00000100
00001000
00000100
00000010
00001000
00010000
,
01000000
00100000
00010000
00100000
01000000
00010000
00100000
01000000
,
00010000
00001000
00000010
00001000
00010000
00001000
00000100
00000010
,
00000001
00000010
00001000
00000100
00000010
00001000
00010000
01000000
,
00100000
00001000
00010000
00001000
00000100
00000010
00000100
00001000
,
00010000
00100000
01000000
00010000
00100000
00010000
00001000
00000100
,
00000020
00000000
00000000
00000030
,
00000000
00000000
00000001
00000100
00000010
00001000
00000100
00000010
,
00000210
00000000
00000000
00010300
00002000
00000000
00000000
00000000
,
00003000
00000000
00010000
01000000
10000000
01000000
00010000
00000000
,
01000000
00100000
01000000
00000000
20020000
00000000
00000000
00000000
,
30030000
00000000
00000000
01000000
00100000
00010000
01000000
00100000
,
02100000
00000000
00000000
03001000
00020000
00000000
00000000
00000000
,
00030000
00000000
00001000
00000010
00000001
00000010
00001000
00000000
,
00000010
00000100
00000010
00000000
00002002
00000000
00000000
00000000
,
00003003
00000000
00000001
00000100
00000010
00000100
00001000
00010000
,
00021000
00000000
00000000
00031000
02000000
00000000
00000000
00000000
,
03000000
00000000
00100000
10000000
01000000
00100000
00010000
00000000
,
01000000
00001000
00010000
00000000
00022000
00000000
00000000
00000000
,
00033000
00000000
00000000
00000100
00000010
00000001
00001000
00000100
,
00000120
00000000
00000000
00000130
00020000
00000000
00000000
00000000
,
00030000
00000000
00001000
01000000
00100000
10000000
00010000
01000000
,
00001000
00000000
00000000
00010000
00000000
00000000
00022000
00000000
00000000
00000000
00000000
00000000
00033000
00000000
00000000
00000000
,
00000000
00000000
00000000
00000000
;
