
//----- song ID: ouso -----//
#TITLE:Our Soul;
#ARTIST:CaZ;
#BANNER:Our Soul.png;
#BACKGROUND:Our Soul-bg.png;
#CDTITLE:./CDTitles/DDR A20.png;
#MUSIC:Our Soul.ogg;
#SAMPLESTART:79.971;
#SAMPLELENGTH:15;
#BPMS:0=150;
#NOTES:
     dance-single:
     :
     Beginner:
     3:
     :
0000
0000
0000
0000
,
0000
0000
0000
0000
,
0000
0000
0000
0000
,
0000
0000
0000
0000
,
0000
0000
0000
0000
,
0000
0000
0000
0000
,
0010
0000
0010
0000
,
0010
0010
0010
0000
,
0100
0000
0100
0000
,
0100
0100
0100
0000
,
0001
0000
0001
0000
,
1000
0000
1000
0000
,
0001
0000
0001
0000
,
1000
0000
1000
0000
,
0010
0000
0010
0000
,
0100
0000
0100
0000
,
0010
0010
0010
0000
,
1001
0000
0000
0000
,
0001
0000
0001
0000
,
1000
0000
1000
0000
,
0010
0000
0010
0000
,
0100
0000
0100
0000
,
0001
0000
1000
0000
,
0001
0000
1000
0000
,
0010
0000
0100
0000
,
0010
0000
0100
0000
,
0001
0000
0001
0000
,
1000
0000
1000
0000
,
0010
0000
0010
0000
,
0100
0000
0100
0000
,
0001
0000
1000
0000
,
0001
0000
1000
0000
,
0010
0000
0100
0000
,
0010
0000
0100
0000
,
1001
0000
0000
0000
,
1001
0000
0000
0000
,
1001
0000
0000
0000
,
1001
0000
0000
0000
,
0100
0000
0100
0000
,
0010
0010
0010
0000
,
0001
0000
0001
0000
,
1000
1000
1000
0000
,
0010
0000
0100
0000
,
0001
0000
1000
0000
,
0010
0000
0100
0000
,
0001
0000
0010
0000
,
0100
0000
0100
0000
,
0010
0010
0010
0000
,
0001
0000
1000
0000
,
2002
0000
3003
0000
,
0010
0000
0010
0000
,
0100
0100
0100
0000
,
0001
0000
0001
0000
,
1000
1000
1000
0000
,
0100
0000
0100
0000
,
0010
0010
0010
0000
,
1000
0000
1000
0000
,
0001
0001
0001
0000
,
1001
0000
0000
0000
,
0000
0000
0000
0000
,
0010
0010
0010
0000
,
0100
0000
0100
0000
,
0001
0000
1000
0000
,
0100
0100
0100
0000
,
0010
0000
0001
0000
,
1000
0000
0100
0000
,
1001
0000
0000
0000
,
0000
0000
0000
0000
;
#NOTES:
     dance-single:
     :
     Easy:
     6:
     :
0000
0000
0000
0000
,
0000
0000
0000
0000
,
0000
0000
0000
0000
,
0000
0000
0000
0000
,
0000
0000
0000
0000
,
0000
0000
0000
0000
,
1000
0000
1000
0000
,
0001
0010
0001
0000
,
0100
0000
0010
0000
,
1000
0100
0010
0001
,
1000
1000
0001
0001
,
1000
1000
0001
0001
,
0010
0010
0100
0100
,
0010
0010
0100
0100
,
0010
0100
1000
0001
,
0010
0100
1000
0001
,
0010
0010
0010
0010
,
0220
0000
0330
1001
,
0001
0001
0010
0100
,
1000
0100
0010
0001
,
1000
1000
0010
0100
,
0001
0100
0010
1000
,
0100
0100
0010
0001
,
0100
0010
1000
0100
,
0010
0010
0100
1000
,
0002
0000
0000
1003
,
0010
1001
0100
0100
,
0010
1000
0001
0100
,
0010
0010
0100
0001
,
0100
1000
0100
0001
,
1000
1000
0001
0001
,
1000
0001
0110
1001
,
0010
0010
0100
0100
,
0000
0001
1000
0000
0100
0000
0010
0000
,
0110
0000
1001
0000
,
0010
0100
1001
0000
,
1001
0000
0110
0000
,
0001
1000
0010
0100
,
0110
0000
1001
0000
,
1000
0001
0110
0000
,
1001
0000
0110
0000
,
1000
0001
0110
1001
,
0010
0010
1000
1000
,
0100
0100
0010
0010
,
0001
1000
0010
0100
,
0001
0010
0100
1000
,
0020
0030
0020
0030
,
0100
0010
2002
3003
,
0002
0003
2000
3000
,
0020
0000
0030
0110
,
0010
0010
0100
0100
,
0001
1000
0100
0110
,
0010
0010
0100
0100
,
1000
0001
0100
1001
,
0001
1000
0001
1000
,
0010
0010
0200
0300
,
1001
0100
1001
0100
,
0010
0100
0001
1000
,
0020
0000
0230
0000
,
0320
0000
0130
1001
,
0100
0000
0010
0100
0010
0000
0100
0000
,
0010
0100
1001
0110
,
0010
0010
0100
0100
,
1001
0110
2002
3003
,
0010
1000
0001
0100
,
0010
1000
0001
0100
,
1001
0000
0000
0000
,
0000
0000
0000
0000
;
#NOTES:
     dance-single:
     :
     Medium:
     8:
     :
0000
0000
0000
0000
,
0000
0000
0000
0000
,
0000
0000
0000
0000
,
0000
0000
0000
0000
,
0000
0000
0000
0000
,
0000
0000
0000
0000
,
1001
0100
1001
0100
,
0001
1000
0100
0000
0010
0000
0100
0000
,
0110
1000
0110
0001
,
0001
1000
0000
0010
0000
0100
0001
0010
,
0100
0000
1000
0000
0100
1000
0100
0000
,
0010
0000
0001
0000
0010
0001
0010
0000
,
0100
0000
0010
0000
0100
0010
0100
0000
,
1000
0000
0001
0000
1000
0001
1000
0000
,
0010
1000
0100
0001
,
0010
1000
0100
0001
,
0110
1100
0011
0110
,
2000
0000
0000
3001
,
0010
0010
0100
0000
1000
0000
0010
0000
,
0100
0100
0001
0000
0010
0000
0100
0000
,
1000
1000
0010
0000
0100
0000
0001
0000
,
0100
0100
0001
0001
0100
0000
0110
0000
,
0100
0100
0010
0000
1000
0000
0100
0000
,
0010
0010
0001
0000
0100
0000
0010
0000
,
1000
1000
0100
0000
1000
0000
0001
0000
,
2000
3002
0023
0230
,
0310
0000
0001
1000
0010
0000
0100
0100
,
0100
0000
0001
0000
0100
0000
0010
1000
,
0010
0000
0100
0000
0001
0000
1000
0001
,
1000
0000
0100
0000
0020
0000
0000
0030
,
0110
0000
1001
0000
0110
0000
0010
0100
,
0010
0100
0110
1001
,
0010
1000
0001
0100
,
0000
0001
0010
0000
1000
0000
0001
0000
,
0110
0000
1001
0000
,
0100
0000
0000
0001
0000
0000
1000
0000
0001
0000
0000
0000
0010
0000
0000
0000
,
0110
0000
1001
0000
,
0001
0010
0000
0100
0000
1000
0010
0000
,
0110
0000
1001
0000
,
0010
0000
0000
0001
0000
0000
1000
0000
0001
0000
0000
0000
0100
0000
0000
0000
,
1001
0000
0110
0000
,
0010
0100
0000
0001
0000
0010
0100
0000
,
1000
1000
0001
0001
,
0100
0100
0010
0010
,
1000
0010
0001
0100
,
1000
0010
0001
0100
,
0020
0030
0020
0030
,
0001
0000
0000
1000
0000
0000
0010
0000
0200
0000
0000
0000
0300
0000
0000
0000
,
0002
0003
2000
3000
,
0020
0000
0030
0110
,
1000
0100
1000
0000
0001
0100
0001
0000
,
1000
0001
0100
0110
,
1000
0010
1000
0000
0001
0010
0001
0000
,
1000
0100
1010
0101
,
1000
0010
0100
0000
0001
0010
0100
0000
,
0010
0100
2002
3003
,
0010
0110
0100
1001
,
0001
0010
0000
0100
0000
1000
0100
0000
,
2000
0000
3002
0000
,
0013
0010
0010
1001
,
1000
0100
0010
0001
0100
0000
0100
0000
,
0001
1000
0110
1001
,
0001
1000
0100
0000
1000
0001
0100
0000
,
0011
1100
0220
0330
,
0010
1001
0100
1001
,
0010
0100
0000
0001
0000
0100
0010
0000
,
1001
0000
0000
0000
,
0000
0000
0000
0000
;
#NOTES:
     dance-single:
     :
     Hard:
     11:
     :
0000
0000
0000
0000
,
0000
0000
0000
0000
,
0000
0000
0000
0000
,
0000
0000
0000
0000
,
0000
0000
0000
0000
,
0000
0000
0000
0000
,
0100
0001
0100
0000
0010
1000
0010
0000
,
0100
0000
0000
0010
0000
0000
1000
0000
0100
0000
0000
0000
1100
0000
0000
0000
,
0100
1000
0100
0000
0010
0001
0010
0000
,
0100
0010
0000
0001
0000
0100
0010
1000
,
0100
1000
0010
0000
1000
0100
0010
0000
,
0001
0100
0010
0000
1000
0001
0100
0000
,
0010
1000
0100
0000
0010
0001
0100
0000
,
0001
1000
0010
0000
1000
0001
0100
0000
,
0011
0101
1010
1100
,
1001
0110
1001
0110
,
0010
1000
0001
0100
0010
1000
0100
0010
,
0002
0000
0000
0000
0000
1000
0013
0001
,
0010
0010
0101
0000
1100
0000
0010
1000
,
0100
0000
0010
0001
0100
0010
1000
0001
,
0100
0000
1010
0000
0101
0000
0001
0010
,
0100
0000
1000
0010
0100
0001
0010
0100
,
1000
0000
0011
0000
1100
0000
0010
0100
,
0010
0000
0000
0000
0001
0000
0000
0000
1000
0000
0000
0010
0100
0000
0010
0000
,
1000
0001
0100
0010
,
0100
0000
0000
0100
0000
0000
0100
0000
0001
0000
0001
0000
1000
0000
1000
0000
,
0010
0000
0000
0000
1001
0000
0001
1000
0100
0000
0000
0000
1000
0000
0001
0000
,
0100
0001
0110
1001
,
0010
0000
1000
0000
0010
0000
0000
0000
0100
0000
0000
0001
0100
0000
0010
0000
,
1000
0000
0010
0000
0100
0001
1000
0001
,
1001
0000
1100
0000
0101
0000
0010
0100
,
0010
0000
0000
0000
1000
0000
0000
0000
0001
0000
1000
0001
1000
0000
0010
0000
,
0100
0001
0100
0010
,
0000
1000
0001
1000
0010
0100
0001
0010
,
0011
0000
1100
0000
,
0100
0000
0000
1000
0000
0000
0010
0000
0010
0000
0000
0000
1000
0000
0010
0000
,
0110
0000
1001
0000
,
0100
0001
0000
0010
0000
0001
0010
0100
,
1100
0000
0101
0000
,
0010
0000
0000
1000
0000
0000
0001
0000
0100
0000
0000
0000
0010
0000
0100
0000
,
0101
0000
1100
0000
,
0010
1000
0000
0001
0000
0100
0010
1000
,
0001
0001
1000
1000
,
0010
0010
0100
0100
,
0001
0010
0001
0000
1000
0100
1000
0000
,
0001
1000
0100
0000
1000
0001
0010
0000
,
0020
0030
0020
0030
,
0001
0000
0000
1000
0000
0000
0100
0000
2000
0000
0000
0000
3000
0000
0000
0000
,
0002
0003
2000
3000
,
0020
0000
0030
0110
,
1000
0100
0010
0000
0001
0100
0010
0000
,
0100
0010
1000
0100
0010
0001
1000
0010
,
0100
0001
0010
0000
0100
1000
0010
0000
,
1000
0010
0100
0002
0000
0013
0100
1000
,
0010
0100
0010
0000
1000
0001
1000
0000
,
0001
0010
0100
0010
0002
0000
0103
0010
,
1000
0100
0010
0000
0001
1000
0100
0000
,
0020
0000
0001
1000
,
0032
0000
2003
0000
,
3020
0000
0000
0230
0000
0000
0302
0000
2003
0000
0000
0000
3001
0000
0100
0000
,
0010
0100
0010
0000
0100
0000
0010
0000
1000
0000
0000
0000
0001
0000
0100
0000
,
0010
1000
0100
0020
0000
0130
1000
0100
,
0010
0001
0100
0000
0010
1000
0100
0000
,
0010
0000
0000
0001
0000
0000
0100
0000
2002
0000
0000
0000
3003
0000
0000
0000
,
1000
0000
0001
0100
0010
0000
1000
0001
,
0100
0010
1000
0000
0001
0100
0000
0100
,
1001
0000
0000
0000
,
0000
0000
0000
0000
;
#NOTES:
     dance-single:
     :
     Challenge:
     15:
     :
0000
0000
0000
0000
,
0000
0000
0000
0000
,
0000
0000
0000
0000
,
0000
0000
0000
0000
,
0000
0000
0000
0000
,
0000
0000
0000
0000
,
0001
0000
0010
0000
0001
0000
0100
0001
0010
0001
0100
0000
0010
0000
0100
0000
,
0010
0000
1000
0000
0100
0000
0010
0001
0100
0001
0010
0000
0100
0000
1000
0000
,
0001
0000
0100
0000
0010
0000
0100
0010
0100
0010
0100
0000
0010
0000
1000
0000
,
0001
0100
0000
0110
0000
0001
1000
0100
,
0010
0001
0010
0001
0100
0010
0100
0010
,
1000
0100
1000
0100
0010
0001
0010
0001
,
1000
0001
1000
0001
0100
0010
0100
0010
,
1000
0000
0100
0000
1000
0000
0100
0000
0010
0000
0001
0000
0010
0001
0010
0000
,
0100
0100
1000
1000
0001
0001
0010
0010
,
0001
0010
0001
0000
0100
0010
0100
0000
0010
1000
0010
0000
1000
0100
1000
0000
,
0010
1000
0100
1000
0010
0100
0001
0010
0001
0100
0010
1000
0100
0010
0001
0100
,
0020
0000
0000
0000
0000
0130
0001
1001
,
0010
0000
0010
0000
0100
0000
0001
0010
0100
0000
1000
0000
0010
0000
0100
0000
,
0001
0000
0010
0001
0000
0010
0001
0000
0100
0000
0010
0000
1000
0000
0010
0000
,
0100
0000
0100
0000
1010
0000
0001
0010
0100
0000
1000
0000
0001
0000
0010
0000
,
0100
0000
1000
0100
0000
1000
0100
0000
0010
0000
0001
0000
1000
0000
0100
0000
,
0010
0000
0010
0000
1100
0000
1000
0010
0100
0000
0001
0000
0010
0000
0100
0000
,
1000
0000
0100
0010
0000
0100
0010
0000
0001
0000
0010
0000
0100
0000
1000
0000
,
0010
0000
0010
0000
1001
0000
0001
1000
0100
0000
0010
0000
0001
0000
0100
0000
,
0010
0000
0000
0010
0000
0000
0010
0000
1000
0000
0001
0000
0100
0000
0010
0000
,
0000
0000
0000
0000
1001
0000
0001
0010
1000
0000
0010
0000
0001
0000
0100
0000
,
0010
0000
1000
0100
0000
0001
0100
0000
0110
0000
0010
0000
1001
0000
0100
0000
,
0010
0000
0010
0000
0110
0000
1000
0001
0100
0000
0010
0000
1000
0000
0001
0000
,
1000
0000
0001
0010
0000
1000
0010
0000
0200
0000
0001
0000
0010
0000
1300
0000
,
1100
0000
1010
0000
0101
0000
0001
1000
,
0100
0000
0000
0000
0011
0000
0000
0000
1100
0000
0100
1000
0010
0000
0100
0000
,
0110
0011
1100
0110
,
0000
0010
1000
0010
0001
0100
0010
0100
,
0002
0000
0103
0000
2000
0000
3100
1000
,
0001
0000
0010
0001
0000
0010
0001
0000
0100
0000
0000
0000
1100
0000
0101
0000
,
0020
1030
0200
0301
,
0010
1000
0100
0001
0000
0001
0100
1000
,
0010
0000
1000
0000
0100
0000
1000
0001
0100
0001
1000
0000
0010
0000
0100
0000
,
0010
0000
1000
0000
0100
0000
0010
0001
1000
0001
0010
0000
0100
0000
0010
0000
,
0001
0010
0001
0000
0100
0000
0010
0000
1000
0100
1000
0000
0010
0000
0100
0000
,
0010
0100
0010
0000
1000
0000
0001
0000
0000
0000
0100
0000
0010
0000
1000
0000
,
0010
0010
1100
0101
,
1000
1000
0011
1001
,
0010
0010
1010
0011
,
0001
0000
0001
0000
2000
0010
0001
3100
,
1000
0100
0010
0001
0100
0010
1000
0100
,
0010
0001
0010
0001
1000
0010
1000
0010
,
0100
0001
0010
0001
0100
0010
1000
0100
1000
0010
0100
0001
0010
0100
1000
0010
,
0200
0000
0000
0310
,
1001
0000
1000
0100
1000
0000
0010
0000
0110
0000
0100
0010
0100
0000
0001
0000
,
1000
0000
0100
1000
0000
0100
1000
0000
0010
0100
0001
0000
0010
0000
0100
0000
,
1100
0000
0100
0010
0001
0000
0100
0000
0110
0000
0100
0010
1000
0000
0100
0000
,
0010
0000
0001
0100
0000
0001
0100
0000
0010
0000
1000
0010
0100
0000
0001
0000
,
1010
0000
0100
0001
1000
0000
0100
0000
0110
0000
0010
0001
1000
0000
0100
0000
,
0110
0000
0000
0011
0000
0000
1010
0000
0000
0000
0020
0000
0130
0010
0100
0010
,
0100
0000
0010
0000
1000
0000
0100
1000
0001
0000
0100
0000
0010
0100
0010
0000
,
2002
0000
0000
3003
,
0020
0030
0020
0030
,
0002
0000
0000
2003
0000
0000
3020
0000
0130
0000
0010
0100
0010
0000
1001
0000
,
0001
0010
1000
0000
0110
0000
1100
0000
0011
0000
0000
0000
1100
0000
0101
0000
,
1001
0000
0000
0000
1001
0000
0000
0000
0010
0000
1001
0000
0100
0000
0001
0010
,
0001
0100
0010
1000
0100
1000
0010
0000
,
0100
0000
0000
0010
0000
0000
1010
0000
0011
0000
0000
0000
1001
0000
0000
0000
,
0010
0000
0000
0000
0100
0000
1000
0010
0001
0000
0000
0000
0110
0000
0001
0100
,
1000
0100
0001
0000
0010
0100
0000
0010
,
1001
0000
0000
0000
,
0000
0000
0000
0000
;
#NOTES:
     dance-double:
     :
     Easy:
     6:
     :
00000000
00000000
00000000
00000000
,
00000000
00000000
00000000
00000000
,
00000000
00000000
00000000
00000000
,
00000000
00000000
00000000
00000000
,
00000000
00000000
00000000
00000000
,
00000000
00000000
00000000
00000000
,
01000000
00000000
01000000
00000000
,
00010000
00100000
00001000
00000000
,
00010000
00000000
00000010
00000000
,
00001000
00000001
00000100
00000010
,
00001000
00001000
00000100
00000100
,
00010000
00010000
00001000
00001000
,
01000000
01000000
00100000
00100000
,
10000000
10000000
00010000
00010000
,
00100000
00010000
01000000
00001000
,
00010000
00000100
00000010
00000001
,
00000010
00000010
00000010
00000010
,
00002002
00000000
00003003
00000110
,
00001000
00001000
00000100
00010000
,
00001000
01000000
00100000
10000000
,
01000000
01000000
00100000
00010000
,
01000000
00001000
00010000
00000100
,
00000010
00000010
00000001
00000100
,
00000010
00010000
00001000
01000000
,
00010000
00010000
00100000
00001000
,
00020000
00000000
00000000
00031000
,
01000000
10010000
00100000
00100000
,
01000000
00001000
00010000
00000100
,
00000010
00000010
00000001
00001000
,
00010000
00001000
00010000
00100000
,
10000000
10000000
00100000
00100000
,
00010000
00001000
00011000
00001001
,
00000010
00000010
00000100
00000100
,
00000000
00000001
00001000
00000000
00000100
00000000
00010000
00000000
,
00011000
00000000
10010000
00000000
,
10000000
00010000
01100000
00000000
,
00011000
00000000
00001001
00000000
,
00001000
00000001
00000010
00000100
,
00011000
00000000
10010000
00000000
,
01000000
00100000
01100000
00000000
,
00011000
00000000
00001001
00000000
,
00000001
00000100
00000110
00001001
,
00000100
00000100
00010000
00010000
,
00001000
00001000
00100000
00100000
,
00010000
10000000
00100000
00010000
,
00001000
00000100
00000001
00001000
,
00000020
00000030
00000020
00000030
,
00001000
00000001
00002002
00003003
,
00000200
00000300
00020000
00030000
,
00022000
00000000
00033000
00011000
,
01000000
01000000
00010000
00010000
,
00100000
01000000
10000000
01100000
,
00010000
00010000
00001000
00001000
,
00000100
00000001
00000010
00001001
,
00000010
00000100
00001000
00010000
,
00000100
00000100
00020000
00030000
,
00011000
00100000
00011000
00000100
,
00010000
00001000
00100000
00010000
,
02000000
00000000
03200000
00000000
,
00320000
00000000
00031000
00011000
,
00001000
00000000
00010000
00001000
00010000
00000000
00000100
00000000
,
00000010
00000100
00001001
00000110
,
00001000
00000100
00010000
00001000
,
00011000
01100000
20020000
30030000
,
00100000
10000000
00010000
00100000
,
00001000
00010000
00000100
00000010
,
00001001
00000000
00000000
00000000
,
00000000
00000000
00000000
00000000
;
#NOTES:
     dance-double:
     :
     Medium:
     9:
     :
00000000
00000000
00000000
00000000
,
00000000
00000000
00000000
00000000
,
00000000
00000000
00000000
00000000
,
00000000
00000000
00000000
00000000
,
00000000
00000000
00000000
00000000
,
00000000
00000000
00000000
00000000
,
00000101
00000010
00001100
00000010
,
00001000
00000100
00010000
00000000
00001000
00000000
01000000
00000000
,
10100000
01000000
00110000
01000000
,
00001000
00010000
00000000
00001000
00000000
00000010
00000001
00000100
,
00000010
00000000
00000100
00000000
00000001
00000100
00000001
00000000
,
00001000
00000000
00000100
00000000
00010000
00001000
00010000
00000000
,
00001000
00000000
01000000
00000000
00010000
01000000
00010000
00000000
,
10000000
00000000
00100000
00000000
10000000
01000000
10000000
00000000
,
00100000
10000000
01000000
00010000
,
00001000
00000100
00000001
00000010
,
00000011
00000110
00001100
00011000
,
02000000
00000000
00000000
03001000
,
00010000
00010000
00001000
00000000
00000100
00000000
00000010
00000000
,
00001000
00001000
00000010
00000000
00000100
00000000
00000001
00000000
,
00000010
00000010
00000100
00000000
00001000
00000000
00000100
00000000
,
00010000
00010000
00001000
00001000
01000000
00000000
00110000
00000000
,
01000000
01000000
00100000
00000000
10000000
00000000
01000000
00000000
,
00100000
00100000
00001000
00000000
00010000
00000000
00001000
00000000
,
00000100
00000100
00000010
00000000
00001000
00000000
00000001
00000000
,
00002000
00003200
00020300
00032000
,
00013000
00000000
00001000
01000000
00010000
00000000
01000000
01000000
,
01000000
00000000
00100000
00000000
10000000
00000000
00100000
01000000
,
00001000
00000000
00010000
00000000
00001000
00000000
00000100
00000010
,
00000100
00000000
00000001
00000000
00000020
00000000
00000000
00000030
,
00000110
00000000
00001100
00000000
00011000
00000000
00010000
01000000
,
10000000
00100000
01100000
10010000
,
00100000
00010000
00001000
00000100
,
00000000
00001000
00000100
00000000
00010000
00000000
00001000
00000000
,
00011000
00000000
10010000
00000000
,
01000000
00000000
00000000
00100000
00000000
00000000
10000000
00000000
01000000
00000000
00000000
00000000
00100000
00000000
00000000
00000000
,
00011000
00000000
00001001
00000000
,
00001000
00000001
00000000
00000100
00000000
00000001
00000010
00000000
,
00000110
00000000
00011000
00000000
,
00010000
00000000
00000000
01000000
00000000
00000000
10000000
00000000
00100000
00000000
00000000
00000000
01000000
00000000
00000000
00000000
,
10010000
00000000
00011000
00000000
,
00000100
00000010
00000000
00000001
00000000
00001000
00000100
00000000
,
00000001
00000001
00001000
00001000
,
00010000
00010000
10000000
10000000
,
00100000
00010000
00001000
00000010
,
00001000
00010000
01000000
00010000
,
00002000
00003000
00002000
00003000
,
00010000
00000000
00000000
00000100
00000000
00000000
00000010
00000000
00000002
00000000
00000000
00000000
00000003
00000000
00000000
00000000
,
00002000
00003000
00000200
00000300
,
00020000
00000000
00030000
10010000
,
00010000
01000000
00010000
00000000
10000000
01000000
10000000
00000000
,
01000000
00010000
00001000
00000110
,
00001000
00000100
00001000
00000000
00000001
00000100
00000001
00000000
,
00000100
00001000
00011000
01100000
,
00100000
10000000
01000000
00000000
00100000
00010000
01000000
00000000
,
00001000
00010000
00022000
00033000
,
00000100
00001010
00000100
00000011
,
00001000
00000100
00000000
00010000
00000000
01000000
10000000
00000000
,
00020000
00000000
20030000
00000000
,
30100000
00010000
00001000
00011000
,
00001000
00010000
00001000
00000100
00000010
00000000
00000100
00000000
,
00000001
00000100
00001010
00001100
,
00010000
00001000
00100000
00000000
00010000
10000000
01000000
00000000
,
01100000
11000000
00220000
00330000
,
00001000
00011000
00000100
00000110
,
00000001
00000100
00000000
00001000
00000000
00010000
01000000
00000000
,
01100000
00000000
00000000
00000000
,
00000000
00000000
00000000
00000000
;
#NOTES:
     dance-double:
     :
     Hard:
     11:
     :
00000000
00000000
00000000
00000000
,
00000000
00000000
00000000
00000000
,
00000000
00000000
00000000
00000000
,
00000000
00000000
00000000
00000000
,
00000000
00000000
00000000
00000000
,
00000000
00000000
00000000
00000000
,
00010000
00001000
00000100
00000000
00001000
00010000
01000000
00000000
,
00100000
00000000
00000000
00001000
00000000
00000000
00100000
00000000
00010000
00000000
00000000
00000000
00110000
00000000
00000000
00000000
,
00001000
00010000
01000000
00000000
00010000
00001000
00000100
00000000
,
00000010
00001000
00000000
00000100
00000000
00001000
00000100
00010000
,
00001000
00100000
01000000
00000000
10000000
01000000
00100000
00000000
,
00010000
01000000
00001000
00000000
01000000
00010000
00100000
00000000
,
00001000
00010000
00000100
00000000
00001000
00000010
00000100
00000000
,
00001000
00000100
00000001
00000000
00000010
00000100
00000010
00000000
,
00000011
00000101
00001010
00001100
,
00110000
01010000
10100000
11000000
,
00100000
10000000
00010000
01000000
00001000
00000100
00000001
00000010
,
00002000
00000000
00000000
00000000
00000000
00003010
00000001
00000100
,
00000010
00000010
00000101
00000000
00001100
00000000
00000010
00010000
,
00001000
00000000
00010000
00001000
00010000
00100000
01000000
00010000
,
10000000
00000000
10100000
00000000
11000000
00000000
00100000
10000000
,
01000000
00000000
00100000
00010000
00001000
00000100
00001000
00000001
,
00000010
00000000
00000011
00000000
00000101
00000000
00000001
00001000
,
00000001
00000000
00000000
00000000
00001000
00000000
00000000
00000000
00000100
00000000
00000000
00010000
00001000
00000000
00100000
00000000
,
00010000
01000000
00001000
00010000
,
00000100
00000000
00000000
00000100
00000000
00000000
00000100
00000000
00010000
00000000
00010000
00000000
00001000
00000000
00001000
00000000
,
00010000
00000000
00000000
00000000
00011000
00000000
00001000
00010000
00001000
00000000
00000000
00000000
00100000
00000000
00001000
00000000
,
00010000
01000000
10010000
01100000
,
01000000
00000000
00010000
00000000
00100000
00000000
00000000
00000000
01000000
00000000
00000000
00010000
00001000
00000000
00000100
00000000
,
00000010
00000000
00000100
00000000
00000001
00001000
00000100
00000010
,
00000110
00000000
00001100
00000000
00011000
00000000
00001000
00100000
,
01000000
00000000
00000000
00000000
10000000
00000000
00000000
00000000
00010000
00000000
00100000
00001000
00100000
00000000
00010000
00000000
,
01000000
00001000
00010000
00001000
,
00000000
00000100
00000001
00001000
00000010
00000100
00001000
00010000
,
00011000
00000000
00110000
00000000
,
01000000
00000000
00000000
10000000
00000000
00000000
00100000
00000000
00100000
00000000
00000000
00000000
01000000
00000000
00001000
00000000
,
00011000
00000000
00001010
00000000
,
00000100
00000001
00000000
00000010
00000000
00000100
00001000
00010000
,
00110000
00000000
01100000
00000000
,
10000000
00000000
00000000
01000000
00000000
00000000
00010000
00000000
01000000
00000000
00000000
00000000
00100000
00000000
00001000
00000000
,
00011000
00000000
00001010
00000000
,
00000100
00000001
00000000
00000010
00000000
00000100
00000010
00000001
,
00001000
00001000
00000100
00000100
,
00010000
00010000
00001000
00001000
,
00100000
00010000
00100000
00000000
01000000
10000000
01000000
00000000
,
00010000
00001000
00000100
00000000
00000010
00001000
00000100
00000000
,
00000020
00000030
00000020
00000030
,
00000100
00000000
00000000
00000010
00000000
00000000
00000001
00000000
00000020
00000000
00000000
00000000
00000030
00000000
00000000
00000000
,
00000200
00000300
00020000
00030000
,
00002000
00000000
00003000
00011000
,
00001000
00010000
01000000
00000000
00100000
00010000
01000000
00000000
,
01000000
00100000
10000000
01000000
00010000
00001000
00000010
00000001
,
00001000
00000010
00000100
00000000
00000010
00001000
00000100
00000000
,
00000100
00001000
00000010
00020000
00000000
00031000
00100000
00010000
,
01000000
10000000
01000000
00000000
00010000
10000000
00010000
00000000
,
00100000
00001000
00010000
00001000
00200000
00000000
00301000
00010000
,
00001000
00000010
00000100
00000000
00001000
00000010
00000100
00000000
,
00000020
00000000
00000001
00000100
,
00002030
00000000
00003200
00000000
,
00000320
00000000
00000000
00002030
00000000
00000000
00203000
00000000
00320000
00000000
00030000
00000000
00011000
00000000
00001000
00000000
,
00010000
00001000
00010000
00000000
00001000
00000000
00010000
00000000
00000100
00000000
00000000
00000000
00010000
00000000
00001000
00000000
,
00000100
00000010
00001000
00000200
00000000
00010300
00001000
00100000
,
00010000
01000000
00100000
00000000
10000000
01000000
00100000
00000000
,
01000000
00000000
00000000
00010000
00000000
00000000
00001000
00000000
00022000
00000000
00000000
00000000
00033000
00000000
00000000
00000000
,
00001000
00000000
00010000
00000100
00000010
00000000
00001000
00000001
,
00000010
00001000
01000000
00000000
00010000
00100000
00000000
01000000
,
10010000
00000000
00000000
00000000
,
00000000
00000000
00000000
00000000
;
#NOTES:
     dance-double:
     :
     Challenge:
     15:
     :
00000000
00000000
00000000
00000000
,
00000000
00000000
00000000
00000000
,
00000000
00000000
00000000
00000000
,
00000000
00000000
00000000
00000000
,
00000000
00000000
00000000
00000000
,
00000000
00000000
00000000
00000000
,
10000000
00000000
00100000
00000000
01000000
00000000
00010000
00100000
00001000
00100000
00010000
00000000
00100000
00000000
00001000
00000000
,
00010000
00000000
00000100
00000000
00000010
00000000
00000001
00001000
00000010
00001000
00000001
00000000
00000100
00000000
00000010
00000000
,
00001000
00000000
00000100
00000000
00010000
00000000
00001000
00010000
00000100
00010000
00001000
00000000
00100000
00000000
00010000
00000000
,
10000000
01000000
00000000
01100000
00000000
00100000
00010000
01000000
,
00100000
00010000
00100000
00010000
00001000
00000100
00001000
00000100
,
00000010
00001000
00000010
00001000
00000001
00000010
00000001
00000010
,
00000100
00001000
00000100
00001000
00010000
00100000
00010000
00100000
,
01000000
00000000
10000000
00000000
01000000
00000000
10000000
00000000
00100000
00000000
00010000
00000000
00100000
01000000
00100000
00000000
,
10000000
10000000
00010000
00010000
00100000
00100000
00001000
00001000
,
00010000
00001000
00010000
00000000
00000100
00000010
00000100
00000000
00000010
00000001
00000010
00000000
00000001
00000100
00000001
00000000
,
00000100
00000001
00000100
00000010
00001000
00000100
00000010
00000100
00001000
00000010
00010000
00001000
00100000
00010000
10000000
00010000
,
00200000
00000000
00000000
00000000
00000000
01300000
10000000
00110000
,
00001000
00000000
00001000
00000000
00010000
00000000
00001000
00000100
00000010
00000000
00001000
00000000
00000010
00000000
00001000
00000000
,
00000001
00000000
00000010
00001000
00000000
00010000
00001000
00000000
00010000
00000000
00100000
00000000
10000000
00000000
01000000
00000000
,
00100000
00000000
00100000
00000000
10010000
00000000
00100000
00001000
00010000
00000000
00001000
00000000
00000100
00000000
00000010
00000000
,
00000100
00000000
00000001
00000010
00000000
00000001
00000010
00000000
00000100
00000000
00001000
00000000
00000100
00000000
00010000
00000000
,
00001000
00000000
00001000
00000000
01010000
00000000
00100000
00010000
01000000
00000000
00100000
00000000
10000000
00000000
01000000
00000000
,
00100000
00000000
00001000
00010000
00000000
00001000
00010000
00000000
00000100
00000000
00000010
00000000
00000100
00000000
00001000
00000000
,
00000010
00000000
00000010
00000000
00001100
00000000
00001000
00000001
00000010
00000000
00000100
00000000
00001000
00000000
00000100
00000000
,
00010000
00000000
00000000
01000000
00000000
00000000
10000000
00000000
00010000
00000000
01000000
00000000
00100000
00000000
10000000
00000000
,
00000000
00000000
00000000
00000000
10010000
00000000
10000000
01000000
00010000
00000000
00001000
00000000
00010000
00000000
01000000
00000000
,
00100000
00000000
00001000
00010000
00000000
00001000
00000100
00000000
00000010
00000000
00001000
00000000
00000001
00000000
00000100
00000000
,
00000010
00000000
00000010
00000000
00000101
00000000
00001000
00000001
00000100
00000000
00000010
00000000
00001000
00000000
00000100
00000000
,
00010000
00000000
00001000
00010000
00000000
01000000
00010000
00000000
02000000
00000000
00010000
00000000
00100000
00000000
13000000
00000000
,
11000000
00000000
01100000
00000000
00110000
00000000
01000000
00010000
,
00001000
00000000
00000000
00000000
00001100
00000000
00000000
00000000
00000110
00000000
00001000
00000001
00000010
00000000
00000001
00000000
,
00000011
00000110
00001100
00011000
,
00000000
00001000
00010000
01000000
00010000
00001000
00000100
00000001
,
00000020
00000000
00000130
00000000
00002000
00000000
00003100
00010000
,
00001000
00000000
00100000
00010000
00000000
10000000
01000000
00000000
00100000
00000000
00000000
00000000
00110000
00000000
00011000
00000000
,
00200000
00301000
00000200
00000301
,
00000010
00000001
00000100
00000010
00000000
00000010
00001000
00010000
,
01000000
00000000
00100000
00000000
10000000
00000000
01000000
10000000
01000000
00100000
01000000
00000000
00100000
00000000
00001000
00000000
,
00010000
00000000
00001000
00000000
00000100
00000000
00000010
00001000
00000010
00000100
00000010
00000000
00000100
00000000
00000001
00000000
,
00000010
00000001
00000010
00000000
00000100
00000000
00001000
00000000
00000100
00010000
00000100
00000000
00010000
00000000
00001000
00000000
,
00100000
00010000
00100000
00000000
00010000
00000000
10000000
00000000
00000000
00000000
00100000
00000000
01000000
00000000
00010000
00000000
,
01000000
00100000
00011000
00011000
,
00000100
00000100
00000011
00000011
,
00001000
00001000
00010100
00010100
,
00001000
00000000
00001000
00000000
02000000
00001000
00010000
03100000
,
10000000
01000000
00100000
00010000
10000000
00100000
01000000
00010000
,
00100000
00000000
00001000
00010000
00000000
00010000
00001000
00000000
00000100
00000000
00000001
00000000
00000010
00000000
00000100
00000000
,
00001000
00000100
00001000
00000010
00000100
00000001
00000010
00000001
00000100
00000010
00001000
00000100
00010000
00001000
00100000
00010000
,
02000000
00000000
00000000
03100000
,
10010000
00000000
01000000
00001000
00010000
00000000
00001000
00000000
00010000
00000000
00001000
00000100
00000010
00000000
00001000
00000000
,
00000010
00000000
00000100
00000001
00000000
00000001
00000100
00000000
00000010
00000100
00001000
00000000
00000100
00000000
00000010
00000000
,
00001001
00000000
00000100
00010000
00001000
00000000
01000000
00000000
00100000
00000000
01000000
00100000
10000000
00000000
01000000
00000000
,
00100000
00000000
00001000
00010000
00000000
00010000
00001000
00000000
00000100
00000000
00000001
00000010
00000100
00000000
00001000
00000000
,
00000110
00000000
00000100
00001000
00000001
00000000
00000100
00000000
00001100
00000000
00010000
00001000
00100000
00000000
01000000
00000000
,
00100000
00000000
00000000
00001000
00000000
00000000
00011000
00000000
00000000
00000000
00001000
00000000
00010000
00001000
00010000
00001000
,
00010000
00000000
01000000
00000000
10000000
00000000
01000000
00010000
00001000
00000000
00010000
00000000
00001000
00000100
00000001
00000000
,
00000220
00000000
00000000
00000330
,
00000020
00000030
00000020
00000030
,
00002000
00000000
00000000
00003200
00000000
00000000
00020300
00000000
00031000
00000000
00010000
00001000
00010000
00000000
00011000
00000000
,
00001000
00010000
01000000
00000000
01100000
00000000
11000000
00000000
00110000
00000000
00000000
00000000
00011000
00000000
00001100
00000000
,
00000110
00000000
00000000
00000000
00001001
00000000
00000000
00000000
00000100
00000000
00001001
00000000
00000010
00000000
00001000
00000100
,
00010000
00001000
00100000
01000000
10000000
00100000
01000000
00000000
,
00100000
00000000
00000000
01000000
00000000
00000000
10100000
00000000
00110000
00000000
00000000
00000000
10010000
00000000
00000000
00000000
,
01000000
00000000
00000000
00000000
00100000
00000000
01000000
00010000
00001000
00000000
00000000
00000000
00011000
00000000
00001000
00000100
,
00000001
00000010
00000100
00000000
00010000
00001000
00000000
00100000
,
00110000
00000000
00000000
00000000
,
00000000
00000000
00000000
00000000
;
