
//----- song ID: ohmy -----//
#TITLE:おーまい!らぶりー!すうぃーてぃ!だーりん!;
#ARTIST:BEMANI Sound Team "PON" feat.NU-KO;
#TITLETRANSLIT:Oh my! lovely! sweety! darling!;
#BANNER:Oh my! lovely! sweety! darling!.png;
#BACKGROUND:Oh my! lovely! sweety! darling!-bg.png;
#CDTITLE:./CDTitles/DDR A20.png;
#MUSIC:Oh my! lovely! sweety! darling!.ogg;
#SAMPLESTART:32.508;
#SAMPLELENGTH:15;
#BPMS:0=170;
#NOTES:
     dance-single:
     :
     Beginner:
     3:
     :
0000
0000
0000
0000
,
0000
0000
0000
0000
,
0000
0000
0000
0000
,
0000
0000
0000
0000
,
0000
0000
0000
0000
,
1000
0000
0000
0000
,
1000
0000
0000
0000
,
0010
0000
0000
0000
,
0010
0000
0000
0000
,
0001
0000
0000
0000
,
0001
0000
0000
0000
,
1001
0000
0000
0000
,
0001
0001
0001
0000
,
0001
0000
0010
0000
,
0001
0000
0000
0000
,
0001
0000
0100
0000
,
0001
0000
0000
0000
,
0001
0000
0010
0000
,
1000
0000
0000
0000
,
1001
0000
0000
0000
,
1000
0000
1000
0000
,
2000
0000
0000
0000
,
3000
0000
0000
0000
,
0001
0000
0100
0000
,
0001
0000
0100
0000
,
1000
0000
1000
0000
,
1000
0000
0000
0000
,
1000
0000
0010
0000
,
1000
0000
0010
0000
,
0001
0000
0001
0000
,
0001
0000
0000
0000
,
1001
0000
0000
0000
,
0000
0000
0000
0000
,
0010
0000
0010
0000
,
0100
0000
0100
0000
,
0001
0000
0001
0000
,
0001
0000
0000
0000
,
1000
0000
1000
0000
,
1000
0000
0000
0000
,
0001
0000
0010
0000
,
0001
0000
0000
0000
,
1000
0000
0010
0000
,
1000
0000
0000
0000
,
1000
0000
0000
0000
,
1000
1000
1000
0000
,
1000
0000
0100
0000
,
0010
0000
0001
0000
,
0010
0000
0100
0000
,
1000
0000
0000
0000
,
1000
0000
0010
0000
,
0100
0000
0001
0000
,
0100
0000
0010
0000
,
1000
0000
0000
0000
,
1001
0000
0000
0000
,
0000
0000
0000
0000
,
0001
0000
1000
0000
,
0001
0000
0000
0000
,
0001
0000
0001
0000
,
0100
0000
0100
0000
,
0010
0000
0010
0000
,
1000
0000
0000
0000
,
1000
0000
1000
0000
,
0100
0000
0100
0000
,
0010
0000
0010
0000
,
0001
0000
0000
0000
,
1001
0000
0000
0000
,
1001
0000
0000
0000
,
1000
0000
0100
0000
,
1000
0000
0000
0000
,
1000
0000
0010
0000
,
1000
0000
0010
0000
,
0001
0000
0100
0000
,
0001
0000
0000
0000
,
0002
0000
0003
0000
,
0020
0000
0030
0000
,
0002
0000
0003
0000
,
0200
0000
0300
0000
,
2000
0000
3000
0000
,
0020
0000
0030
0000
,
2000
0000
3000
0000
,
0200
0000
0300
0000
,
1001
0000
0000
0000
,
0000
0000
0000
0000
,
0001
0000
0010
0000
,
0100
0000
0000
0000
,
1001
0000
0000
0000
,
0000
0000
0000
0000
;
#NOTES:
     dance-single:
     :
     Easy:
     7:
     :
0000
0000
0000
0000
,
0000
0000
0000
0000
,
0000
0000
0000
0000
,
0000
0000
0000
0000
,
0000
0000
0000
0000
,
0001
0010
0001
0010
,
0001
0100
0001
0000
,
1000
0010
1000
0010
,
1000
0100
1000
0000
,
0001
0010
1000
0000
,
1000
0010
0001
0000
,
2002
0000
0000
0000
,
3003
0000
0000
0000
,
1000
0100
0010
0001
,
1001
0110
1001
0000
,
0001
0100
0010
1000
,
1001
0110
1001
0000
,
1000
0100
0010
0001
,
1000
0100
0010
0000
,
0002
0003
2000
3000
,
0002
0003
0200
0300
,
0220
0000
0000
0000
,
0330
0010
0010
0010
,
1000
0100
0001
1000
,
0001
0100
1000
0001
,
1000
0010
0001
0010
,
2000
0010
3010
0000
,
0001
0100
1000
0001
,
1000
0100
0001
1000
,
0001
0010
1000
0010
,
0001
1000
0001
0000
,
2002
0000
0000
0000
,
3003
0000
0000
0000
,
0010
0100
0010
0010
,
0100
0010
0100
0100
,
0001
1000
0010
1000
,
0002
0000
0003
0000
,
1000
0001
0100
0001
,
2000
0000
3000
0000
,
0010
0100
0001
0100
,
0020
0000
0030
0000
,
0100
0010
1000
0010
,
0220
0000
0330
0000
,
0220
0000
0330
0000
,
1001
0100
0100
0100
,
0001
0010
0001
0010
,
1000
0010
1000
0010
,
0001
0010
1000
0010
,
0002
0010
0013
0000
,
1000
0010
1000
0010
,
0001
0010
0001
0010
,
1000
0010
0001
0010
,
1000
0001
1000
0000
,
2002
0000
0000
0000
,
3003
0000
0000
0000
,
0001
0001
0100
0000
,
1000
1000
0100
0000
,
0001
0010
0100
0100
,
1000
0010
0100
0000
,
1000
0100
0010
0010
,
0001
0100
0010
0000
,
0010
0000
1001
0000
,
0100
0000
1001
0000
,
0010
0010
0010
0000
,
2002
0000
3003
0000
,
0001
0000
0010
0000
,
1000
0000
0100
0000
,
0001
0000
0010
0000
,
1000
1000
0100
0000
,
0001
0100
1000
0100
,
0001
1000
0001
0001
,
1000
0100
0001
0100
,
1000
0001
1000
0000
,
2002
0000
3003
0000
,
0010
0010
0100
0100
,
2002
0000
3003
0000
,
0100
0100
0010
0010
,
0220
0000
0330
0000
,
0001
0001
1000
1000
,
0220
0000
0330
0000
,
1000
0001
1000
0000
,
2002
0000
0000
0000
,
3003
0000
1000
0001
,
1000
0010
0100
0001
,
1000
0100
0010
0001
,
1001
0000
0000
0000
,
0000
0000
0000
0000
;
#NOTES:
     dance-single:
     :
     Medium:
     12:
     :
0000
0000
0000
0000
,
0000
0000
0000
0000
,
0000
0000
0000
0000
,
0000
0000
0000
0000
,
0000
0000
0000
0000
,
0001
0000
0010
0000
0100
0000
1000
0010
,
0000
0100
0000
0020
0000
0000
0030
0000
,
1000
0000
0100
0000
0010
0000
0001
0100
,
0000
0010
0000
0200
0000
0000
0300
0000
,
0001
0000
0100
0000
1000
0000
0100
0001
,
0000
0010
0000
0100
0000
0010
0000
0220
,
0000
0000
0000
0330
,
1000
0001
1000
0000
0001
1000
0000
0000
,
0001
0100
0001
0000
0001
0010
0001
0000
,
0011
1010
1100
0000
,
1000
0100
1000
0000
1000
0010
1000
0000
,
1010
0011
0101
0000
,
0001
0100
0010
0000
1000
0100
0010
0000
,
1001
0110
1001
0110
,
2001
0000
0010
0000
,
0200
3300
0010
0001
,
0100
0010
1000
0100
0010
0001
0010
0100
,
1000
0100
0100
0100
,
0010
0001
1000
0001
0100
0001
1000
0001
,
0010
0001
0100
0001
0010
0001
1000
0000
,
0100
1000
0001
1000
0010
1000
0001
1000
,
0100
0000
1000
0000
0010
1000
0100
0000
,
0010
0001
0010
0001
1000
0001
0100
0001
,
0010
0001
0100
0001
0010
0001
1000
0000
,
0110
1010
0011
0101
,
1100
0000
1010
0000
0110
0000
0000
0002
,
2000
0000
0000
0000
,
3003
0000
0000
0000
,
0001
0010
0001
0000
0100
0001
0100
0000
,
0010
1000
0010
0000
1000
0100
1000
0000
,
0001
0100
0010
0100
1000
0100
0010
0100
,
0002
0000
0000
0003
,
1000
0100
0010
0100
0001
0100
0010
0100
,
2000
0000
0000
3000
,
0001
0010
0100
0010
1000
0010
0100
0010
,
0002
0000
0000
0003
,
1000
0010
0100
0010
0001
0010
0100
0010
,
1000
0000
0000
1000
0100
0000
0000
0000
,
0010
0000
0000
0010
0001
0000
0000
0000
,
1001
0110
1001
0110
,
1000
0100
1000
0100
0001
0100
0001
0100
,
1000
0100
0001
0100
1000
0100
1000
0000
,
0001
0010
0001
0010
1000
0010
1000
0010
,
0001
0000
0100
0000
0010
0100
0001
0000
,
1000
0010
1000
0010
0001
0010
0001
0010
,
1000
0010
0001
0010
1000
0010
1000
0000
,
0101
0011
1010
1100
,
0101
0000
0011
0000
0110
0000
0000
2000
,
0002
0000
0000
0000
,
3003
0000
0000
0000
,
0010
1000
0010
0000
0010
0100
0010
0000
,
0100
0001
0100
0000
0100
0010
0100
0000
,
0010
1000
0010
1000
0100
1000
0100
0010
,
0001
1000
0001
0100
0001
0010
0001
0000
,
1000
0100
0010
0001
0010
0100
1000
0000
,
1010
0011
0101
1100
,
0001
0000
0010
0000
0100
0000
0000
0110
0000
0000
0000
0000
0000
0000
0000
0000
,
1000
0000
0010
0000
0100
0000
0000
0110
0000
0000
0000
0000
0000
0000
0000
0000
,
0001
0010
0001
0000
1000
0010
1000
0000
,
2002
0000
3003
0000
,
1001
0000
0000
0000
0000
0000
0000
0000
0110
0000
0000
0000
0000
0000
0000
1001
,
0000
0000
0110
0000
,
0001
0001
0100
0100
,
1000
0100
0001
0100
,
1000
0100
1000
0100
0010
0001
0010
0001
,
0100
0001
0100
0001
1000
0010
1000
0000
,
0110
0101
0011
1010
,
1100
0000
0101
0000
0110
0000
0000
0002
,
2000
0000
0000
0000
3003
0100
0010
0100
,
0000
0110
0000
2002
0000
0000
3003
0000
,
0220
0000
0000
0000
0330
0001
1000
0001
,
0000
1001
0000
0110
0000
1001
0000
0000
,
0220
0000
0000
0000
0330
0001
1000
0001
,
0000
1001
0000
0010
0000
0100
0010
0100
,
0002
2000
0000
0000
0000
0000
3003
0000
,
0101
0000
0011
0000
1010
0000
0000
0002
,
2000
0000
0000
0000
,
0000
3003
1001
0110
,
0010
1000
0100
0000
0010
0001
0100
0000
,
0010
1000
0100
0000
0010
0001
0100
0000
,
1001
0000
0000
0000
,
0000
0000
0000
0000
;
#NOTES:
     dance-single:
     :
     Hard:
     15:
     :
0000
0000
0000
0000
,
0000
0000
0000
0000
,
0000
0000
0000
0000
,
0000
0000
0000
0000
,
0000
0000
0000
0000
,
0001
0010
0001
1000
0010
0100
0010
0000
,
1000
0010
1000
0001
0010
0100
1000
0000
,
0100
0010
0100
0010
0001
1000
0010
0000
,
0100
0001
0100
0001
0010
0100
1000
0000
,
0010
0100
0001
1000
0100
0010
0001
0000
,
1000
0001
1000
0001
1000
0100
1000
0000
,
0020
0000
0000
0030
,
0010
0000
0100
0000
0001
1000
0000
0001
1000
0000
2002
0000
0000
0000
3003
0000
,
0001
0000
0100
0000
0010
1000
0000
0010
1000
0000
0100
0000
0010
0000
0001
0000
,
1000
0000
0100
0000
0010
0001
0000
0010
0001
0000
0100
0000
1000
0000
0100
0000
,
0010
0000
1000
0000
0001
0100
0000
0001
0100
0000
0010
0000
1000
0000
0100
0000
,
1000
0000
0001
0000
1000
0100
0000
1000
0100
0000
0010
0000
0001
0000
0000
0000
,
1000
0000
0010
0000
0100
0001
0000
0100
0001
0000
0010
0000
0100
0000
1000
0000
,
0001
0000
0010
0000
0100
1000
0000
0100
1000
0000
0010
0000
0001
0000
0010
0000
,
1000
0000
0000
0000
0000
0000
0001
0010
0200
0000
0000
0000
0300
0000
1000
0100
,
0020
0000
0100
0130
,
0001
0000
1000
0000
0001
0000
1000
0000
0001
1000
0001
1000
0001
1000
0001
1000
,
0001
0100
0010
0110
,
1000
0000
0001
0010
0001
0000
1000
0000
0100
0000
0010
0000
0001
0010
0000
0001
,
0000
0000
1000
0000
0010
0000
1000
0000
0001
0000
0100
0000
0010
1000
0000
0010
,
0000
0000
1000
0000
0001
0000
0010
0000
0100
0000
1000
0000
0001
0010
0000
0100
,
0000
0000
1000
0000
0010
0000
0001
0000
0010
0000
0000
0220
0000
0000
0330
0000
,
0000
0000
1000
0010
1000
0000
0001
0000
0100
0000
0010
0000
1000
0010
0000
1000
,
0000
0000
0001
0000
0010
0000
0001
0000
1000
0000
0100
0000
0010
0001
0000
0000
,
1000
0010
0001
1000
0100
0001
1000
0100
,
0001
1000
0010
0001
1000
0000
0001
1000
,
2002
0000
0000
0000
,
3003
0000
0000
0000
,
0001
0000
0100
0000
0001
0000
0000
0010
0000
0001
0000
0010
0001
0010
0001
0000
,
1000
0000
0100
0000
1000
0000
0000
0010
0000
1000
0000
0010
1000
0010
1000
0000
,
0001
0000
0100
0000
0010
0000
0010
0100
0000
0000
0001
0000
1000
0000
0001
0000
,
1000
0100
1000
0000
0001
0010
0001
0000
1000
0001
1000
0001
1000
0000
0000
0000
,
1000
0000
0010
0000
0100
0000
0100
0010
0000
0000
1000
0000
0001
0000
1000
0000
,
0001
0010
0001
0000
1000
0100
1000
0000
0001
1000
0001
1000
0001
0000
0000
0000
,
1000
0000
0010
0000
1000
0000
1000
0100
0000
0000
0010
0000
0001
0000
0100
0000
,
0010
1000
0010
0000
1000
0001
1000
0000
0100
1000
0100
1000
0100
0000
0000
0000
,
0001
0000
0100
0000
0010
0000
1000
0100
0000
1000
0100
0000
0010
0000
0001
0000
,
2001
0000
0000
3001
0100
0000
0010
0000
,
1002
0000
0000
1003
0100
0000
0010
0000
,
0011
1100
1010
0101
,
1000
0000
0001
0100
0010
0000
0100
0000
0001
0000
0010
0000
0100
1000
0000
1100
,
0000
0000
1000
0001
0010
0000
0001
0000
0100
0000
0010
0000
1000
0010
0000
1010
,
0000
0000
0001
1000
0100
0000
0010
0000
0001
0000
0100
0000
0010
0100
0000
0110
,
0000
0000
0010
0000
0100
0000
0010
0000
1000
0000
0000
2002
0000
0000
0000
0000
,
3003
0000
0010
0100
0001
0000
0010
0000
1000
0000
0010
0000
0001
1000
0000
1001
,
0000
0000
1000
0100
0010
0000
0001
0000
0100
0000
1000
0000
0100
0001
0000
0000
,
0001
0010
1000
0001
0100
1000
0001
0100
,
1000
0001
0010
1000
0001
0000
1000
0001
,
2002
0000
0000
0000
,
3003
0000
0000
0000
,
0010
0000
0100
0000
0010
0000
0000
0100
0000
0010
0000
1000
0010
0100
0001
0000
,
1000
0000
0001
0000
1000
0000
0000
0001
0000
1000
0000
0001
0010
0100
1000
0000
,
0002
0000
0000
0000
0003
0000
1000
0100
1000
0000
0001
0100
0001
0000
0010
0000
,
0001
0010
0100
0000
1000
0100
0010
0000
0001
1000
0000
0001
0000
0000
0001
0000
,
1000
0100
0001
0100
1000
0010
0001
0010
,
1000
0100
1100
0000
0010
0001
0101
0000
,
0010
0000
0100
0000
0010
0100
0000
0220
0000
0000
0000
0000
0330
0000
0000
0000
,
0001
0000
1000
0000
0001
1000
0000
2002
0000
0000
0000
0000
3003
0000
0000
0000
,
1000
0100
0010
0000
0001
0010
0100
0000
1000
0010
0100
0000
0001
0100
0010
0000
,
1000
0001
1000
0001
1000
0001
1000
0001
1000
0000
0010
0000
1000
0000
0100
0000
,
1001
0000
0000
0000
0000
0000
0000
0000
0011
0000
0000
0000
0000
0000
0000
1100
,
0000
0000
0000
0000
0010
0000
0000
0000
1001
0000
0001
1000
0001
0000
0000
0000
,
1000
0001
0100
0010
1000
0010
0100
0001
,
1000
0100
1000
0000
0001
0010
0001
0000
0010
0100
0010
0000
0100
0000
0000
0000
,
1000
0000
0001
0000
0100
0000
0010
0000
1000
0000
0100
0000
0010
0001
0000
0011
,
0000
0000
0001
0000
0100
0000
1000
0000
0100
0000
0001
0000
1000
0010
0000
0000
,
1000
0100
1000
0000
0100
0010
0100
0000
0010
0001
0010
0000
0001
1000
0001
0000
,
0100
0001
0100
0000
0010
0100
0010
0000
2000
0000
0000
0000
0000
0000
3001
0000
,
1000
0100
0001
0100
0010
0001
1000
0010
,
0100
0010
1000
0100
0010
0001
1000
0010
,
0100
1000
0100
0001
1000
0001
0010
0100
,
0011
0101
0110
1010
,
1000
0001
0100
1000
0100
0010
0100
0001
,
1000
0010
0001
1000
0100
0001
0010
0100
,
1000
0010
0100
0000
0001
0010
0100
0000
,
0011
0000
0101
0000
1100
0000
1000
0010
,
0220
0000
0000
0000
,
0000
0330
0010
1001
,
1000
0000
0010
0000
0100
0000
0001
0010
0000
0001
0000
0010
0100
1000
0001
0000
,
1000
0000
0010
0000
0100
0000
0001
0100
0000
0001
0000
0100
0010
1000
0001
0000
,
1001
0000
0000
0000
,
0000
0000
0000
0000
;
#NOTES:
     dance-double:
     :
     Easy:
     6:
     :
00000000
00000000
00000000
00000000
,
00000000
00000000
00000000
00000000
,
00000000
00000000
00000000
00000000
,
00000000
00000000
00000000
00000000
,
00000000
00000000
00000000
00000000
,
10000000
00100000
10000000
01000000
,
00100000
00001000
00010000
00000000
,
00001000
00010000
00001000
00000010
,
00000001
00001000
00000001
00000000
,
00000001
00000100
00001000
00010000
,
00001000
00010000
00100000
10000000
,
00020000
00000000
00000000
00030000
,
10000000
10000000
10000000
00000000
,
01000000
10000000
01000000
00100000
,
00001000
00100000
00010000
00100000
,
00001000
00010000
00001000
00010000
,
00000100
00001000
00000100
00000000
,
00000010
00000001
00000010
00000001
,
00001000
00000100
00001000
00000100
,
00010000
00001000
00010000
00001000
,
00100000
00010000
00100000
00000000
,
20020000
00000000
00000000
00000000
,
30030000
00000000
00000000
00000000
,
10000000
01000000
00100000
00100000
,
00001000
00010000
00001000
00001000
,
00010000
00001000
00010000
00001000
,
00000100
00001000
00000100
00000000
,
00000001
00000100
00000001
00000001
,
00000010
00001000
00000010
00000010
,
00001000
00010000
00001000
00010000
,
01000000
10000000
01000000
00000000
,
02200000
00000000
00000000
00000000
,
03300000
00000000
00000000
00000000
,
00010000
00001000
00010000
00000000
,
00001000
00010000
00001000
00000000
,
00010000
00010000
00100000
00000000
,
10000000
01000000
00010000
00000000
,
00001000
00001000
00000010
00000000
,
00000001
00000100
00001000
00000000
,
00010000
00100000
00010000
00000000
,
00001000
00010000
00001000
00000000
,
00001000
00000010
00001000
00000000
,
00010000
00001000
00010000
00000000
,
00010000
00001000
00010000
00000000
,
00011000
00000000
00011000
00000000
,
00010000
01000000
00100000
01000000
,
10000000
01000000
00100000
01000000
,
00010000
00001000
00010000
00001000
,
00011000
00000000
00011000
00000000
,
00001000
00000100
00000010
00000100
,
00000001
00000100
00000010
00000100
,
00001000
00001000
00010000
00010000
,
00001000
00010000
00001000
00000000
,
00022000
00000000
00000000
00000000
,
00033000
00000000
00000000
00000000
,
00000100
00000010
00000110
00000000
,
00000010
00000100
00000110
00000000
,
00000001
00000100
00000010
00010000
,
00001000
00000100
00001000
00010000
,
00100000
10000000
00010000
01000000
,
01100000
00000000
10010000
00000000
,
10000000
10000000
01000000
00000000
,
00010000
00010000
00001000
00000000
,
00000100
00001000
00010000
00001000
,
00000200
00000000
00000300
00000000
,
00000001
00000000
00001000
00000000
,
00001000
00000000
00010000
00000000
,
00010000
00000000
10000000
00000000
,
20020000
00000000
30030000
00000000
,
10000000
00100000
00010000
00100000
,
01000000
00001000
00010000
00010000
,
00001000
00000010
00000001
00000010
,
00000100
00010000
00001000
00000000
,
00011000
00000000
00001000
00010000
,
00100000
10000000
00100000
01000000
,
01100000
00000000
10000000
01000000
,
00010000
00001000
00010000
00001000
,
00011000
00000000
00001000
00000010
,
00000001
00000100
00000001
00001000
,
00000110
00000000
00000001
00000100
,
00001000
00010000
00001000
00000000
,
00022000
00000000
00000000
00000000
,
00033000
00000000
00010000
00100000
,
01000000
00010000
10000000
10000000
,
00100000
00010000
00001000
00001000
,
00011000
00000000
00000000
00000000
,
00000000
00000000
00000000
00000000
;
#NOTES:
     dance-double:
     :
     Medium:
     12:
     :
00000000
00000000
00000000
00000000
,
00000000
00000000
00000000
00000000
,
00000000
00000000
00000000
00000000
,
00000000
00000000
00000000
00000000
,
00000000
00000000
00000000
00000000
,
00000001
00000000
00000010
00000000
00000100
00000000
00010000
00001000
,
00000000
00000010
00000000
00001000
00000000
00000000
00000000
00000000
,
00010000
00000000
00001000
00000000
00100000
00000000
01000000
10000000
,
00000000
00100000
00000000
01000000
00000000
00000000
00000000
00000000
,
00100000
00000000
00010000
00000000
00001000
00000000
00000100
00000010
,
00000000
00001000
00000000
00000001
00000000
00000010
00000000
00000220
,
00000000
00000000
00000000
00000330
,
00000001
00001000
00000001
00000000
00001000
00000001
00000000
00000000
,
00000001
00000010
00000001
00000000
00000001
00000100
00000001
00000000
,
00001001
00001100
00011000
00000000
,
00100000
00010000
00100000
00000000
00100000
01000000
00100000
00000000
,
00110000
01010000
10010000
00000000
,
10000000
00100000
01000000
00000000
00010000
00100000
00001000
00000000
,
00011000
00010010
00001010
00000110
,
00000002
00000000
00000000
00000103
00002000
00000000
00000000
00013000
,
00200000
00000000
00000000
00300000
,
20020000
00000000
00000000
00000000
,
30030000
01000000
01000000
01000000
,
01000000
10000000
01000000
00100000
01000000
00010000
00001000
00000000
,
00010000
00000010
00001000
00000010
00000100
00000010
00000100
00000000
,
00000100
00000001
00000100
00000010
00000100
00001000
00010000
00000000
,
00011000
00110000
11000000
01010000
,
10000000
00100000
01000000
00100000
10000000
00010000
00100000
00001000
,
00010000
00000100
00001000
00000010
00000100
00000001
00000100
00000000
,
00000001
00000010
00000100
00000010
00000001
00001000
00000010
00010000
,
00001000
01000000
00010000
00100000
01000000
00000000
00100000
00000000
,
20020000
00000000
00000000
00000000
,
30030000
00000000
00000000
00000000
,
10000000
01000000
00010000
00000000
00001000
00010000
00001000
00000000
,
00000010
00000001
00000100
00000000
00000001
00001000
00000001
00000000
,
00000001
00000000
00001000
00000000
00000100
00010000
00001000
00010000
,
00002000
00000000
00003000
00000000
,
10000000
00000000
00010000
00000000
01000000
00001000
00010000
00001000
,
00020000
00000000
00030000
00000000
,
00000001
00000010
00000100
00001000
00000010
00000100
00001000
00000000
,
00020000
00000000
00030000
00000000
,
10000000
01000000
00100000
00010000
01000000
00100000
00010000
00000000
,
00001000
00000000
00000000
00000010
00000001
00000000
00000000
00000000
,
00000001
00000000
00000000
00000100
00001000
00000000
00000000
00000000
,
00011000
00001000
00010000
00001000
,
00010000
01000000
00010000
01000000
10000000
00100000
01000000
00100000
,
10000000
00100000
10000000
00100000
00010000
00001000
00100000
00000000
,
00001000
00010000
00001000
00010000
00000010
00001000
00000001
00000000
,
00000011
00000101
00001100
00011000
,
00001000
00000010
00001000
00000010
00000001
00000100
00000010
00000100
,
00000001
00000100
00000001
00000100
00001000
00010000
00000100
00000000
,
00011000
00110000
10100000
11000000
,
01010000
00110000
00011000
00000000
,
00022000
00000000
00000000
00000000
,
00033000
00000000
00000000
00000000
,
00000010
00001000
00000010
00000000
00010000
00001000
00010000
00000000
,
00100000
00010000
00100000
00000000
00010000
01000000
00010000
00000000
,
10000000
00100000
01000000
00010000
00100000
00001000
00010000
00001000
,
00000100
00000010
00001000
00000100
00000010
00000001
00001000
00000000
,
00000001
00000100
00000001
00000100
00001000
00010000
00001000
00010000
,
00100000
10000000
00100000
01000000
00100000
10000000
00100000
00000000
,
10000000
00000000
01000000
00000000
00100000
00000000
00000000
01100000
00000000
00000000
00000000
00000000
00000000
00000000
00000000
00000000
,
00010000
00000000
00001000
00000000
00010000
00000000
00000000
00011000
00000000
00000000
00000000
00000000
00000000
00000000
00000000
00000000
,
00000010
00000001
00001000
00000100
00000010
00000001
00000010
00002000
,
00020000
00000000
00033000
00000000
,
00100000
00000000
00000000
00000000
00000000
00000000
00000000
00000000
10000000
00000000
00000000
00000000
00000000
00000000
00000000
01000000
,
00000000
00000000
00010000
00000000
,
00001000
00000010
00001000
00010000
,
00011000
00001010
00000110
00000101
,
00000001
00000100
00001000
00000100
00001000
00010000
00001000
00010000
,
00100000
10000000
00010000
10000000
01000000
00100000
00001000
00010000
,
00000100
00001000
00000001
00000000
00000100
00000010
00001000
00000000
,
00000100
00010000
00001000
00000000
00100000
00010000
01000000
00000000
,
20020000
00000000
00000000
00000000
30030000
10000000
00100000
00010000
,
00000000
00001000
00000000
00022000
00000000
00000000
00033000
00000000
,
00002000
00000000
00000000
00000000
00003000
00000010
00000001
00000010
,
00000000
00001000
00000000
00010000
00000000
00001000
00000000
00000000
,
00022000
00000000
00000000
00000000
00033000
00001000
00000100
00000001
,
00000000
00000100
00000000
00000010
00000000
00010000
00001000
00010000
,
00002000
00020000
00000000
00000000
00000000
00000000
00033000
00000000
,
01000000
00000000
10000000
00000000
00100000
00000000
00000000
00200000
,
02000000
00000000
00000000
00000000
,
00000000
03300000
00100000
10010000
,
10000000
00100000
01000000
00001000
00010000
00000010
00000100
00000000
,
00000001
00000010
00000100
00010000
00001000
00100000
01000000
00000000
,
10010000
00000000
00000000
00000000
,
00000000
00000000
00000000
00000000
;
#NOTES:
     dance-double:
     :
     Hard:
     15:
     :
00000000
00000000
00000000
00000000
,
00000000
00000000
00000000
00000000
,
00000000
00000000
00000000
00000000
,
00000000
00000000
00000000
00000000
,
00000000
00000000
00000000
00000000
,
00000001
00000010
00000001
00000100
00000001
00000010
00000100
00000000
,
00010000
00001000
00010000
00000010
00010000
00001000
00010000
00000000
,
00001000
00010000
00001000
00100000
00001000
00010000
01000000
00000000
,
10000000
00010000
00100000
00010000
10000000
00010000
01000000
00000000
,
00100000
10000000
00100000
01000000
00100000
00010000
00001000
00000000
,
00010000
00001000
00010000
00000100
00010000
00001000
00010000
00000000
,
00022000
00000000
00000000
00033000
,
00010000
00000000
00001000
00000000
00010000
00001000
00000000
00010000
00001000
00000000
00011000
00000000
00000000
00000000
00000000
00000000
,
00000100
00000000
00001000
00000000
00000001
00000100
00000000
00000001
00000100
00000000
00000010
00000000
00001000
00000000
00000100
00000000
,
00010000
00000000
00001000
00000000
00010000
00001000
00000000
00010000
00001000
00000000
00100000
00000000
00010000
00000000
00000000
00000000
,
10000000
00000000
00100000
00000000
01000000
00010000
00000000
01000000
00010000
00000000
00100000
00000000
01000000
00000000
00010000
00000000
,
00001000
00000000
00010000
00000000
00001000
00010000
00000000
00001000
00010000
00000000
00000010
00000000
00001000
00000000
00000000
00000000
,
00000001
00000000
00001000
00000000
00000010
00000100
00000000
00000010
00000100
00000000
00001000
00000000
00010000
00000000
00100000
00000000
,
10000000
00000000
00010000
00000000
00100000
01000000
00000000
00100000
01000000
00000000
10000000
00000000
00100000
00000000
00010000
00000000
,
00002000
00000000
01000000
00000000
,
00000100
00000000
01000000
00003000
,
00001000
00000000
00010000
00000000
00001000
00000000
00010000
00000000
00001000
00010000
00001000
00010000
00001000
00010000
00001000
00010000
,
00001000
00010000
01000000
10000000
,
00100000
00000000
01000000
00100000
01000000
00000000
00010000
00000000
10000000
00000000
01000000
00000000
00100000
00001000
00000000
00011000
,
00000000
00000000
00001000
00000000
00000100
00000000
00000001
00000000
00001000
00000000
00000100
00000000
00000010
00000100
00000000
00000110
,
00000000
00000000
00000010
00000000
00000001
00000000
00000100
00000000
00000010
00000000
00010000
00000000
00001000
00010000
00000000
00011000
,
00000000
00000000
00100000
00000000
00001000
00000000
00010000
00000000
00000010
00000000
00000000
00001001
00000000
00000000
00000000
00000000
,
00000010
00000000
00000100
00000010
00000100
00000000
00001000
00000000
00000001
00000000
00000100
00000000
00000010
00010000
00000000
00011000
,
00000000
00000000
00010000
00000000
01000000
00000000
10000000
00000000
00010000
00000000
01000000
00000000
00100000
01000000
00000000
00000000
,
00010000
01000000
00001000
00010000
00100000
10000000
01000000
00010000
,
00001000
00000010
00000001
00000100
00001000
00000000
00010000
00001000
,
00022000
00000000
00000000
00000000
,
00033000
00000000
00000000
00000000
,
01000000
00000000
10000000
00000000
01000000
00000000
00000000
00100000
00000000
00001000
00000000
00010000
00001000
00010000
00001000
00000000
,
00000100
00000000
00000001
00000000
00000100
00000000
00000000
00001000
00000000
00010000
00000000
00001000
00010000
00001000
00010000
00000000
,
00001000
00000000
00000010
00000000
00000001
00000000
00000000
00001001
00000000
00000000
00000001
00000000
00000100
00000000
00001000
00000000
,
00010000
01000000
00010000
00000000
01000000
10000000
01000000
00000000
10000000
00010000
10000000
00010000
10000000
00000000
00000000
00000000
,
00100000
00000000
01000000
00000000
00010000
00000000
00000000
10010000
00000000
00000000
10000000
00000000
00100000
00000000
00010000
00000000
,
00001000
00000100
00001000
00000000
00000100
00000001
00000100
00000000
00000001
00001000
00000001
00001000
00000001
00000000
00000000
00000000
,
00000100
00000000
00000010
00000000
00010000
00000000
00000000
00011000
00000000
00000000
00100000
00000000
00010000
00000000
10000000
00000000
,
01000000
00010000
01000000
00000000
00010000
00001000
00010000
00000000
00001000
00000100
00001000
00000100
00001000
00000000
00000000
00000000
,
00010000
00000000
00001000
00000000
00000010
00000000
00000000
00001010
00000000
00000000
00000010
00000000
00000001
00000000
00001000
00000000
,
00000001
00000100
00001000
00010000
01000000
10000000
00010000
00000000
,
10000000
00100000
00010000
00001000
00000010
00000001
00001000
00000000
,
00001010
00011000
01010000
10100000
,
10000000
00000000
01000000
00100000
00010000
00000000
01000000
00000000
00001000
00000000
00010000
00000000
00000010
00001000
00000000
00000010
,
00000000
00000000
00010000
00001000
00010000
00000000
01000000
00000000
00100000
00000000
00010000
00000000
01000000
10000000
00000000
01000000
,
00000000
00000000
00100000
10000000
01000000
00000000
00010000
00000000
00001000
00000000
00100000
00000000
00010000
00100000
00000000
00001000
,
00000000
00000000
00010000
00000000
00001000
00000000
00000010
00000000
00000100
00000000
00000000
00000110
00000000
00000000
00000000
00000000
,
00000001
00000000
00000100
00000010
00001000
00000000
00000100
00000000
00010000
00000000
00001000
00000000
00100000
00010000
00000000
00100000
,
00000000
00000000
00001000
00010000
00001000
00000000
00000100
00000000
00000010
00000000
00001000
00000000
00000100
00000001
00000000
00000000
,
00000100
00000010
00000001
00000100
00001000
00010000
00000010
00001000
,
00000001
00000100
00001000
00010000
00100000
00000000
10000000
00010000
,
20020000
00000000
00000000
00000000
,
30030000
00000000
00000000
00000000
,
01000000
00000000
10000000
00000000
00100000
00000000
00000000
00010000
00000000
00001000
00000000
00010000
00001000
00010000
00001000
00000000
,
00000010
00000000
00000001
00000000
00000100
00000000
00000000
00000001
00000000
00001000
00000000
00000001
00001000
00000001
00001000
00000000
,
00002002
00000000
00000000
00000000
00003003
00000000
00000010
00001000
00000010
00000000
00010000
00001000
00010000
00000000
00001000
00000000
,
00100000
00010000
00100000
00000000
00010000
10000000
01000000
00000000
00100000
01000000
00000000
01100000
00000000
00000000
00000000
00000000
,
10000000
00100000
01000000
00000000
00010000
00000000
00100000
00000000
00001000
00010000
00000010
00000000
00001000
00000000
00000001
00000000
,
00000011
00000110
00010100
00011000
,
00100000
00000000
00010000
00000000
01000000
00100000
00000000
10010000
00000000
00000000
00000000
00000000
00000000
00000000
00000000
00000000
,
00000010
00000000
00001000
00000000
00000100
00000010
00000000
00001001
00000000
00000000
00000000
00000000
00000000
00000000
00000000
00000000
,
00100000
00010000
00100000
00000000
00001000
00000000
00010000
00000000
00000010
00001000
00000010
00000000
00000100
00000000
00000010
00000000
,
00010000
00001000
00010000
00001000
00010000
00001000
00010000
00001000
00010000
00000000
00001000
00000000
00000100
00000000
00000001
00000000
,
00000010
00000000
00000000
00000000
00000000
00000000
00000000
00000000
00100000
00000000
00000000
00000000
00000000
00000000
00000000
01000000
,
00000000
00000000
00000100
00000000
,
00000001
00000010
00000001
00000000
00001000
00000100
00001000
00000000
,
00001100
00011000
00110000
11000000
,
00100000
00000000
10000000
00000000
01000000
00000000
00100000
00000000
00001000
00000000
00010000
00000000
00000100
00000010
00000000
00000010
,
00000001
00000000
00000100
00000000
00000010
00000000
00010000
00000000
00001000
00000000
01000000
00000000
00100000
10000000
00000000
00000000
,
01000000
00010000
00001000
00000010
00001000
00010000
00100000
00010000
,
00001000
00000100
00000001
00000010
00002000
00000000
00000000
00013000
,
00001000
00100000
00010000
01000000
00010000
00100000
01000000
10000000
,
00100000
01000000
00100000
10000000
01000000
00010000
00001000
00000010
,
00000001
00001000
00000001
00001000
00000100
00000010
00000001
00000010
,
00000011
00000101
00001100
00011000
,
00010000
00001000
00010000
00100000
10000000
00010000
00100000
10000000
,
00100000
00010000
10000000
01000000
00010000
00001000
00000100
00000001
,
00001000
00000010
00001000
00000000
00000001
00000010
00000001
00000000
,
00000100
00000010
00001000
00000100
00010000
00000000
00001000
00010000
,
00022000
00000000
00000000
00000000
,
00000000
00033000
00001000
00100000
,
01000000
00000000
10000000
00000000
00100000
00000000
01000000
00100000
00000000
00010000
00000000
00001000
00010000
00001000
00010000
00000000
,
00001000
00000000
00000100
00000000
00000001
00000000
00000010
00000100
00000000
00000010
00000000
00001000
00010000
00001000
00010000
00000000
,
00011000
00000000
00000000
00000000
,
00000000
00000000
00000000
00000000
;
