
//----- song ID: ovso -----//
#TITLE:ΩVERSOUL;
#ARTIST:BlackY;
#TITLETRANSLIT:OVERSOUL;
#BANNER:OVERSOUL.png;
#BACKGROUND:OVERSOUL-bg.png;
#CDTITLE:./CDTitles/SDVX IV HEAVENLY HAVEN.png;
#MUSIC:OVERSOUL.ogg;
#SAMPLESTART:9.335;
#SAMPLELENGTH:15;
#DISPLAYBPM:155;
#BPMS:0=155.5,4=155;
#NOTES:
     dance-single:
     :
     Beginner:
     3:
     :
0000
0000
0000
0000
,
0000
0000
0000
0000
,
0000
0000
0000
0000
,
0000
0000
0000
0000
,
0000
0000
0000
0000
,
0000
0000
0000
0000
,
0001
0000
0100
0000
,
0001
0000
0000
0000
,
0001
0000
0010
0000
,
0001
0000
0000
0000
,
1000
0000
0100
0000
,
1000
0000
0000
0000
,
1000
0000
0010
0000
,
1000
0000
0000
0000
,
1001
0000
0000
0000
,
0010
0010
0010
0000
,
1001
0000
0000
0000
,
0100
0100
0100
0000
,
1000
0000
0100
0000
,
1000
0000
0010
0000
,
0001
0000
1000
0000
,
2002
0000
3003
0000
,
0001
0000
0001
0000
,
0100
0100
0100
0000
,
0010
0000
0100
0000
,
0010
0010
0010
0000
,
1000
0000
1000
0000
,
0100
0100
0100
0000
,
0010
0000
0100
0000
,
0010
0010
0010
0000
,
0001
0000
0100
0000
,
1000
0000
1000
0000
,
1000
0000
0010
0000
,
0001
0000
0001
0000
,
1001
0000
0000
0000
,
1001
0000
0000
0000
,
1000
0000
0001
0000
,
1001
0000
0000
0000
,
0001
0001
0001
0000
,
0020
0000
0030
0000
,
1000
1000
1000
0000
,
0020
0000
0030
0000
,
0001
0001
0001
0000
,
0200
0000
0300
0000
,
1000
1000
1000
0000
,
0200
0000
0300
0000
,
0001
0001
0001
0000
,
0010
0010
0010
0000
,
1000
1000
1000
0000
,
0100
0100
0100
0000
,
1000
0000
0010
0000
,
0001
0000
0010
0000
,
1000
0000
0001
0000
,
2002
0000
3003
0000
,
0002
0000
0003
0000
,
0020
0000
0030
0000
,
2000
0000
3000
0000
,
0200
0000
0300
0000
,
1000
1000
0010
0000
,
0010
0000
0001
0000
,
0001
0001
0100
0000
,
0100
0000
1000
0000
,
1000
0000
0100
0000
,
1000
0001
1000
0000
,
0010
0000
0001
0000
,
1001
0000
0000
0000
,
0001
0000
0010
0000
,
0001
1000
0001
0000
,
0100
0000
1000
0000
,
1001
0000
0000
0000
,
1001
0000
0000
0000
,
1000
0000
0001
0000
,
1001
0000
0000
0000
,
0001
0000
1000
0000
,
1001
0000
0000
0000
,
0000
0000
0000
0000
;
#NOTES:
     dance-single:
     :
     Easy:
     6:
     :
0000
0000
0000
0000
,
0000
0000
0000
0000
,
0000
0000
0000
0000
,
0000
0000
0000
0000
,
0000
0000
0000
0000
,
0000
0000
0000
0000
,
1000
0100
0010
0010
,
0001
0100
0010
0010
,
1000
0100
0001
0100
,
1000
0001
1001
0000
,
0001
0100
0010
0010
,
1000
0010
0001
0010
,
1000
1000
0100
0100
,
0010
0001
1000
0001
,
2002
0000
3003
0000
,
0010
0010
0010
0000
,
2002
0000
3003
0000
,
0100
0100
0100
0000
,
1000
0100
1000
0100
,
0001
0100
0001
0100
,
1000
0100
0001
0100
,
1000
0000
0110
1001
,
0001
0010
0001
0100
,
0001
0001
0001
0000
,
1000
0010
1000
0100
,
1000
1000
1000
0000
,
0010
1000
0010
0100
,
0010
0010
0010
0000
,
0001
0010
0100
0010
,
0001
0001
0001
0001
,
1000
0100
1000
0100
,
0010
0010
0010
0000
,
0001
0100
0001
0100
,
0010
0010
0010
0000
,
1000
1000
2000
3000
,
0001
0001
0002
0003
,
1001
0000
0110
0000
,
2002
0000
3003
0000
,
0011
0000
1100
0000
,
1001
1001
1001
0000
,
1010
0000
0101
0000
,
1001
1001
1001
0000
,
1100
0000
0011
0000
,
0110
0110
0110
0000
,
0101
0000
1010
0000
,
0110
0110
0110
0000
,
0010
1000
2020
3030
,
1000
0100
2200
3300
,
0100
0001
0202
0303
,
0001
0010
0022
0033
,
0010
0010
1000
1000
,
0100
0100
0001
0001
,
0010
1000
0100
0001
,
0020
0000
0030
0000
,
0001
0000
0010
0000
,
0100
0000
1000
0000
,
0001
0000
0010
0000
,
0100
0100
0100
0000
,
1000
0010
1000
0010
,
0100
0001
0100
0100
,
0010
1000
0100
0010
,
0001
1000
0002
0003
,
0001
0010
0100
0110
,
1000
0010
0100
0110
,
0001
0010
1000
0110
,
0001
1000
1001
0000
,
1000
0010
0100
0110
,
0001
0100
1000
0110
,
0001
0010
1000
0100
,
0001
1000
0001
1000
,
0220
0000
0330
0000
,
1000
0100
0010
0001
,
0200
0000
0300
0000
,
1001
0000
0010
0100
,
1001
0000
0000
0000
,
0000
0000
0000
0000
;
#NOTES:
     dance-single:
     :
     Medium:
     12:
     :
0000
0000
0000
0000
,
0000
0000
0000
0000
,
0000
0000
0000
0000
,
0000
0000
0000
0000
,
0000
0000
0000
0000
,
0000
0000
0000
0000
,
1000
0001
1000
0000
0010
0100
0010
0000
,
1000
0000
0100
0000
0010
0000
0001
0000
1000
0000
0000
1000
0000
0000
1000
0000
,
0010
0100
0010
0000
1000
0001
1000
0000
,
0001
0000
0000
0001
0000
0001
0000
0001
0000
0000
1000
0000
1001
0000
0000
0000
,
0010
1000
0100
0000
0010
0001
0100
0000
,
0010
0000
0000
1000
0000
0000
0100
0000
0000
0001
0000
0000
0010
0000
0000
0000
,
0001
0010
0001
0010
0100
1000
0100
1000
,
0001
0000
0000
1000
0000
0000
1001
0000
0000
0000
1000
0000
0010
0000
0100
0000
,
0002
0000
0000
0003
,
0010
0000
0000
0010
0000
0000
0010
0000
0000
0000
0110
0000
0000
0000
0001
0000
,
2000
0000
0000
3000
,
0020
0000
0000
0000
0000
0000
0000
0000
0130
0000
0000
0100
0000
0000
0100
0000
,
0010
1000
0010
1000
0100
0010
0100
0000
,
0010
0001
0010
0001
0100
0010
0100
0000
,
0001
0100
0010
1000
0001
1000
0010
0100
,
0001
0000
0110
1001
,
2000
0000
3001
0100
1000
0100
0001
0000
,
1000
0100
0001
0100
1000
1000
2000
0000
,
3010
0000
0100
0010
0000
0100
0010
0000
0100
0000
0100
0000
0100
0000
0000
0000
,
0001
0000
1000
0001
0000
1000
0001
0000
1000
0000
0000
1001
0000
0000
0110
0000
,
0002
0000
1003
0100
0001
0100
1000
0000
,
0001
0100
1000
0100
0001
0001
0002
0000
,
0013
0000
0100
0010
0000
0100
0010
0000
0100
0000
0100
0000
0100
0000
0000
0000
,
1000
0000
0001
0000
1000
0000
0000
1001
0000
0000
0110
0000
1001
0000
0000
0000
,
0020
0000
1030
0010
0001
0010
1000
0000
,
0001
0010
1000
0010
0001
0001
0001
0000
,
0100
0000
0010
0100
0000
0010
0100
0000
0010
0000
1000
0000
0001
0000
1000
0000
,
0100
0000
0010
0100
0000
0010
0100
0000
0010
0000
0010
0000
0010
0000
0000
0000
,
0001
0000
0001
0000
0001
0000
0000
1000
0000
1000
0000
1000
0000
0000
0000
0000
,
0010
0000
0010
0000
0010
0000
0000
0100
0000
0100
0000
0100
0000
0000
0000
0000
,
0001
0010
0001
0000
1000
0100
0010
0000
,
2001
0000
0000
0000
0000
0000
0000
0000
3100
0000
0000
0100
0000
0000
0100
0000
,
0110
0000
0000
0000
0000
0000
0000
0000
0011
0000
0000
1100
0000
0000
0000
0000
,
0001
0000
0000
0010
0000
0000
1000
0000
0000
0000
0100
0000
0001
0000
0000
0000
,
1001
0000
0000
0000
0000
0000
0000
0000
1010
0000
0000
0101
0000
0000
0000
0000
,
1000
0000
0000
0010
0000
0000
0001
0000
0000
0100
0000
0000
1000
0000
0000
0000
,
1001
0000
0000
0000
0000
0000
0000
0000
0110
0000
0000
1001
0000
0000
0000
0000
,
0010
0000
0000
0000
0000
0000
0000
0000
0000
1000
0000
0000
0000
0000
0000
0000
0000
0000
0100
0000
0000
0000
0000
0000
0000
0000
0000
0000
0000
0000
1000
0000
0000
0000
0000
0000
0001
0000
0000
0000
1000
0000
0000
0000
0001
0000
0000
0000
,
2000
0000
0000
0000
3000
0000
0000
0000
1001
0000
0000
0110
0000
0000
0000
0000
,
0001
0000
0000
1000
0000
0000
0100
0000
0000
0010
0000
0000
1001
0000
0000
0000
,
0001
0000
0010
0000
0100
0000
1000
0000
0010
0000
0000
0020
0000
0000
0000
0000
,
1030
0000
0100
0000
0010
0000
0001
0000
0100
0000
0000
0200
0000
0000
0000
0000
,
0310
0000
1000
0000
0100
0000
0010
0000
0001
0000
0000
0002
0000
0000
0000
0000
,
0103
0000
0001
0000
0010
0000
0100
0000
1000
0000
0000
2000
0000
0000
0000
0000
,
3001
0010
1000
0010
0001
0100
1000
0100
,
0001
0010
0001
0010
1000
0010
1000
0010
,
0001
0100
1000
0100
0001
0100
1000
0100
,
0002
0000
0000
0003
,
1000
1000
0100
0000
,
0001
0001
0100
0000
,
1000
1000
0001
0000
,
0010
0000
0000
0010
0000
0010
0000
0010
0000
0000
1000
0000
1001
0000
0000
0000
,
0001
0100
0001
0000
1000
0100
1000
0000
,
0010
0000
0000
1000
0000
0000
0001
0000
0000
0100
0000
0000
0010
0000
0000
0000
,
1000
0100
0001
0000
0001
0100
1000
0000
,
0001
0100
0001
0100
0020
0000
0030
0000
,
1000
0100
0010
0001
0100
0010
1000
0100
,
0001
0000
0100
0000
0010
0000
0001
0000
1000
0000
0000
1000
0000
0000
1000
0000
,
0010
0100
0001
0010
1000
0010
0001
0100
,
0010
0000
0000
0010
0000
0010
0000
0010
0000
0000
1000
0000
1001
0000
0000
0000
,
0010
1000
0100
0010
0001
0100
0010
1000
,
0100
0000
0000
0100
0000
0000
0010
0000
0000
0010
0000
0000
0001
0000
1000
0000
,
0001
0010
0001
1000
0010
1000
0001
1000
,
0001
0100
0010
1000
0100
1000
0010
0100
,
0002
0000
0000
0003
,
1000
0000
0000
1000
0000
0000
1000
0000
0010
0000
0100
0000
0010
0000
0100
0000
,
0020
0000
0000
0030
,
2002
0000
0000
0000
3003
0000
0000
0000
0010
0000
0000
0010
0000
0000
0010
0000
,
1001
0000
0000
0000
,
0000
0000
0000
0000
;
#NOTES:
     dance-single:
     :
     Hard:
     15:
     :
0000
0000
0000
0000
,
0000
0000
0000
0000
,
0000
0000
0000
0000
,
0000
0000
0000
0000
,
0000
0000
0000
0000
,
0000
0000
0000
0000
,
0001
1000
0001
0100
0010
1000
0100
0010
,
0001
0000
1000
0000
0001
0000
0100
0000
0001
0000
0000
0011
0000
0000
0101
0000
,
0001
1000
0001
0100
0010
1000
0100
0010
,
0001
0000
0000
1000
0000
0001
0000
1001
0000
0000
0100
0010
0001
0000
1000
0000
,
0000
0001
1000
0100
0010
0001
0100
0010
,
1000
0000
0000
1001
0000
0000
1100
0000
0000
0110
0000
0000
0001
0000
0001
0000
,
1000
0001
1000
0100
0010
0001
0010
0100
,
1000
0000
0000
0001
0000
0000
1001
0000
0000
0000
0100
0010
1000
0000
0100
0010
,
0002
0000
0000
0003
,
0100
0000
0000
0010
0000
0000
0110
0000
0000
0000
0100
0000
0001
0000
1000
0100
,
2000
0000
0000
3000
,
0020
0000
0000
0000
0000
0000
0000
0000
0100
0000
0000
0100
0000
0000
0130
0000
,
0001
0000
0010
0000
0001
0100
0000
0110
0000
0000
0010
0000
1000
0000
0100
0000
,
0001
0000
0100
0000
1000
0100
0000
1100
0000
0000
1000
0000
0010
0000
0100
0000
,
0001
0000
0100
0000
0001
0000
0100
0000
0010
1000
0010
1000
0001
0100
0001
0100
,
0010
0000
0000
0000
0110
1001
0110
0000
,
0002
0000
0000
0000
0003
1000
0010
1000
0000
0001
0100
0001
0000
1000
0001
0000
,
1000
0100
0010
0000
0100
0010
0001
0000
1000
0000
1000
0001
2000
0000
0000
0000
,
3001
0000
0100
0001
0000
0100
0001
0000
1000
0000
0100
0000
0010
0000
0001
0000
,
0100
0000
0010
1000
0000
0010
0100
0000
0101
0000
0000
0011
0000
0000
1001
0000
,
2000
0000
0000
0000
3000
0001
0010
0001
0000
1000
0100
1000
0000
0001
1000
0000
,
0001
0100
0010
0000
0100
0010
1000
0000
0001
0000
0001
1000
0002
0000
0000
0000
,
1003
0000
0100
1000
0000
0100
1000
0000
0001
0000
0100
0000
0010
0000
1000
0000
,
0100
0000
0010
0000
0011
0000
0000
0101
0000
0000
1001
0000
0010
0000
0100
0000
,
0020
0000
0000
0000
0030
1000
0100
0010
0000
0001
0100
0010
0000
1000
0010
0000
,
0100
0000
0001
0100
0001
0000
1000
0100
1000
0000
0010
0000
0200
0000
0000
0000
,
0301
0000
0001
1000
0000
0010
0100
0010
0000
0100
0010
0100
0010
0000
1000
0000
,
0010
0000
0100
0001
0000
0100
0001
0000
1000
0000
0010
0000
1000
0001
1000
0001
,
1000
0000
0100
0000
0010
0000
0000
0011
0000
0110
0000
1100
0000
0000
0000
0000
,
1000
0000
0010
0000
0100
0000
0000
0101
0000
0110
0000
1010
0000
0000
0000
0000
,
1000
0000
0100
0000
0010
0000
0001
0000
0100
0001
0100
0001
1000
0010
1000
0010
,
2000
0000
0000
0000
0000
0000
0000
0000
0001
0000
0000
0001
0000
0000
0001
0000
,
3002
0000
0000
0000
0003
0000
0000
0000
0110
0000
0000
1001
0000
0000
0110
0000
,
0001
0000
0000
1000
0000
0000
1001
0000
0000
0000
0010
0000
0100
0010
0100
0000
,
2000
0000
0000
0000
3000
0000
0000
0000
0110
0000
0000
2002
0000
0000
3003
0000
,
1100
0000
0000
1010
0000
0000
0011
0000
0000
0101
0000
0000
2000
0000
0000
0000
,
3002
0000
0000
0000
0003
0000
0000
0000
0110
0000
0000
2002
0000
0000
3003
0000
,
1100
0000
0000
0000
0000
0000
0000
0000
0000
0101
0000
0000
0000
0000
0000
0000
0000
0000
0011
0000
0000
0000
0000
0000
0000
0000
0000
0000
0000
0000
1010
0000
0000
0000
0000
0000
1000
0000
0000
0000
0100
0000
0000
0000
0010
0000
0000
0000
,
0002
0000
0000
0000
0003
0000
0000
0000
1001
0000
0000
0220
0000
0000
0330
0000
,
0001
0000
0000
1000
0000
0000
1001
0000
0000
0100
0010
0000
0001
0010
0001
0000
,
1000
0000
0100
0000
0001
0000
0100
0000
1000
0001
0000
2002
0000
0000
3003
0000
,
0001
0000
0100
0000
1000
0000
0100
0000
0001
1000
0000
2002
0000
0000
3003
0000
,
1000
0000
0010
0000
0001
0000
0010
0000
1000
0001
0000
2002
0000
0000
3003
0000
,
0001
0000
0010
0000
1000
0000
0010
0000
0001
1000
0000
2002
0000
0000
3003
0000
,
0001
0010
0100
0010
0001
0000
0100
0000
0010
1000
0001
1000
0010
0000
1000
0000
,
0100
0010
0001
0000
0100
0010
1000
0000
0001
0010
0100
0000
1000
0010
0100
0000
,
0001
0010
0001
0010
0100
1000
0100
1000
0010
0100
0001
0010
0100
1000
0010
0100
,
0002
0000
1003
0110
,
1000
1000
0100
0100
,
0001
0001
0010
0010
,
1000
1000
0100
0100
,
0001
0000
0000
1000
0000
0001
0000
1001
0000
0000
0010
0000
0100
0000
0001
0000
,
0001
0000
0010
0000
1000
0000
0010
0000
0001
0000
0100
0000
0010
1000
0010
0000
,
0110
0000
0000
0101
0000
0000
0011
0000
0000
1010
0000
0000
1001
0000
1000
0000
,
0001
0000
0010
0000
0001
0010
0001
0000
1000
0000
0100
0000
1000
0100
1000
0000
,
0010
1000
0010
0000
0100
0001
0100
0000
0001
0010
0100
1000
0001
0000
1000
0000
,
0010
0000
0100
0000
0001
0010
0001
0000
1000
0000
0010
0000
1000
0100
1000
0000
,
0001
0000
0100
0000
0010
1000
0001
0000
0010
0001
0000
0011
0000
0000
0100
0000
,
1000
0000
0010
0000
0100
0001
0100
0000
0001
0000
0010
0000
0100
1000
0001
0000
,
1000
0000
0000
0010
0000
0100
0000
0110
0000
0000
0001
1000
0001
0000
0100
0000
,
0000
0000
0010
0000
1000
0100
1000
0000
0001
0000
0100
0000
0001
0010
0001
0000
,
1010
0000
0000
0110
0000
0000
0101
0000
0000
1100
0000
0000
0100
0000
0010
0000
,
0001
0000
0100
0000
0010
1000
0010
0000
1000
0000
0100
0000
0010
0001
1000
0000
,
0100
0010
0001
0000
0100
0010
1000
0000
0010
1000
0010
1000
0001
0100
0001
0100
,
0020
0000
0000
0030
,
1000
0000
0000
1100
0000
0000
1001
0000
0001
0000
0101
0000
0000
0000
0010
0000
,
0220
0000
0000
0330
,
0001
0010
0100
1000
0001
0010
0100
1000
0010
0000
0000
0010
0000
0000
0010
0000
,
1001
0000
0000
0000
,
0000
0000
0000
0000
;
#NOTES:
     dance-single:
     :
     Challenge:
     17:
     :
0000
0000
0000
0000
,
0000
0000
0000
0000
,
0000
0000
0000
0000
,
0000
0000
0000
0000
,
0000
0000
0000
0000
,
0000
0000
0000
0000
,
0001
0010
0001
0010
0100
1000
0100
1000
0001
0100
0000
0110
0000
0010
1000
0000
,
0001
0100
0001
0100
0010
1000
0010
1000
0001
1000
0000
1001
0000
0100
0010
0000
,
0001
1000
0001
1000
0100
0010
0100
0010
0001
0010
0000
0011
0000
0001
0100
0000
,
0010
1000
0100
1000
0010
1000
0100
1000
0000
0000
0010
0100
0001
0010
0100
0010
,
0001
0010
0001
0010
0100
1000
0100
1000
0100
0010
0000
0110
0000
0100
1000
0000
,
1010
0000
0000
0110
0000
0000
0011
0000
0000
1001
0000
0000
1000
0001
1000
0000
,
0001
0010
0100
0000
1000
0001
0100
0000
0010
1000
0001
0000
0010
0100
1000
0000
,
0100
0010
0100
0010
0001
1000
0001
1000
0100
0010
0001
1000
0010
0100
0001
1000
,
0002
0000
0000
0003
,
1000
0000
0000
1010
0000
0000
0011
0000
1000
0100
0001
0100
1000
0010
0001
0010
,
2000
0000
0000
3000
,
0001
0100
1000
0100
0001
0010
1000
0010
0001
0000
0000
0001
0000
0000
0001
0000
,
1000
0000
0100
0000
0010
0001
0000
0011
0000
0001
0100
0000
0010
1000
0010
0000
,
0100
0000
0001
0000
0010
0100
0000
0110
0000
0010
0100
0000
1000
0001
1000
0000
,
0100
0000
0010
0000
0001
0000
1000
0000
0100
0010
0001
1000
0100
0010
0001
1000
,
0200
0000
0000
0300
,
1001
0000
0000
0000
0001
0100
0010
0100
0001
0010
0100
0010
0001
0100
0001
0000
,
1000
0000
0010
0000
1000
0010
0100
0000
0010
0000
0010
1000
0001
0010
0001
0000
,
0100
0000
0010
1000
0000
0010
0100
0010
1000
0010
0100
0010
1000
0100
1000
0100
,
1000
0000
1000
0100
0000
0100
1000
0000
0001
0010
0000
0011
0000
0000
1001
0000
,
1001
0000
0000
0000
1000
0100
0010
0100
1000
0010
0100
0010
1000
0100
1000
0000
,
0001
0000
0010
0000
0001
0010
0100
0000
1000
0000
1000
0001
1000
0010
1000
0000
,
0100
0000
0010
0001
0000
0010
0100
0010
0001
0010
0100
0010
0001
0100
0001
0100
,
0001
0000
0001
0000
0100
0001
1000
0001
0000
0001
1000
0000
0010
0100
0010
0000
,
2000
0000
0000
0000
3001
0100
0100
0100
0001
0100
0100
0100
0001
1000
0001
0000
,
0100
0000
0010
0000
1000
0100
0010
0000
0100
0000
0100
1000
0001
0010
0100
0000
,
1001
0000
0001
1000
0000
0100
0100
0100
1000
0100
0100
0100
1000
0001
1000
0000
,
0001
0000
0100
1000
0000
0100
0001
0000
1000
0001
0000
1001
0000
0000
0020
0000
,
0130
0000
0001
0000
0010
0100
0000
1100
0000
1010
0000
1001
0000
0000
0000
0000
,
1000
0000
0010
0000
0100
0001
0000
0101
0000
0011
0000
1001
0000
0000
0000
0000
,
1000
0000
0100
0000
0010
0000
0001
0000
1000
0100
0010
0001
0010
0100
1000
0001
,
2000
0000
0000
0000
0000
0000
0000
0000
0010
0000
0000
0010
0000
0000
3010
0000
,
0100
0000
0001
0000
1000
0000
0100
0000
0010
0100
0000
0110
0000
0010
0001
0000
,
0101
0000
0000
1100
0000
0000
0011
0000
1000
0100
0010
0001
0100
0010
1000
0010
,
0100
0000
0010
0000
1000
0000
0001
0000
0101
0000
0000
0011
0000
0000
1100
0000
,
1001
0000
0000
0110
0000
0000
1001
0000
0000
0110
0000
0000
0002
0000
0000
0000
,
0013
0000
0100
0000
1000
0000
0001
0000
0010
0001
0000
1100
0000
0010
1000
0000
,
1001
0000
0000
0000
0000
0000
0000
0000
0000
0110
0000
0000
0000
0000
0000
0000
0000
0000
1001
0000
0000
0000
0000
0000
0000
0000
0000
0000
0000
0000
0110
0000
0000
0000
0000
0000
1000
0000
0000
0000
0010
0000
0000
0000
0100
0000
0000
0000
,
0001
0000
0010
0000
0010
0000
1000
0000
1100
0000
0000
0101
0000
0000
1100
0000
,
0001
0100
0010
1000
0010
0100
0001
0100
0010
0000
1000
0100
1000
0100
0010
0000
,
0001
0000
0010
0000
1000
0000
0010
0000
0001
1000
0000
1001
0000
0010
1000
0100
,
1000
0000
0010
0000
0001
0000
0010
0000
1000
0001
0000
1001
0000
0010
0001
0100
,
0001
0000
0100
0000
1000
0000
0100
0000
0001
1000
0000
1001
0000
0010
1000
0100
,
1000
0000
0100
0000
0001
0000
0100
0000
1000
0001
0000
1001
0000
0001
1000
0000
,
0100
1000
0100
1000
0001
0010
0100
1000
0010
0100
0010
0100
0001
0010
0100
1000
,
0010
0100
0001
1000
0010
0100
0001
1000
0010
0100
0001
1000
0001
1000
0001
1000
,
0010
1000
0100
0010
0001
0100
0010
1000
0100
0010
0001
0100
0010
1000
0100
0010
,
0002
0000
0000
0003
,
0001
0101
1000
1100
,
0001
0011
1000
1010
,
0001
0101
1000
1100
,
0001
0000
0000
1000
0000
0001
0000
1001
0000
0000
0010
0100
0010
0000
1000
0000
,
1000
0100
0010
0000
0001
0100
0010
0000
1000
0001
0000
1001
0000
0001
1000
0000
,
1010
0000
0000
1100
0000
0000
0011
0000
0000
0101
0000
0000
1001
0000
0001
0000
,
1000
1000
0010
0010
0100
0100
0001
0001
,
0011
0000
0000
0101
0000
0000
2002
0000
0000
0000
0000
0000
3003
0000
0000
0000
,
1000
0010
1000
0010
0100
0001
0100
0001
1000
0100
0000
0110
0000
0010
0001
0000
,
1000
0100
1000
0100
0010
0001
0010
0001
1000
0001
0000
1001
0000
0100
0010
0000
,
1000
0001
1000
0001
0100
0010
0100
0010
1000
0010
0000
1010
0000
1000
0100
0000
,
0010
0001
0100
0001
0010
0001
0100
0001
0000
0000
0010
0100
1000
0010
0100
0010
,
1000
0010
1000
0010
0100
0001
0100
0001
0100
0010
0000
0110
0000
0100
0001
0000
,
0011
0000
0000
0110
0000
0000
1010
0000
0000
1001
0000
0000
0001
1000
0001
0000
,
1000
0010
0100
0000
0001
1000
0100
0000
0010
0001
1000
0010
0100
0001
0010
0100
,
1000
0010
0010
0010
1000
0010
0010
0010
0100
0010
1000
0001
0010
0100
1000
0001
,
2000
0000
0000
3000
,
0001
0000
0000
0011
0000
0000
1010
0000
0001
0000
0100
0000
1000
0000
0100
0000
,
0002
0000
0000
0003
,
1000
0010
0001
0010
1000
0100
0001
0100
1000
0000
0000
0001
0000
0000
1000
0000
,
1001
0000
0000
0000
,
0000
0000
0000
0000
;
#NOTES:
     dance-double:
     :
     Easy:
     6:
     :
00000000
00000000
00000000
00000000
,
00000000
00000000
00000000
00000000
,
00000000
00000000
00000000
00000000
,
00000000
00000000
00000000
00000000
,
00000000
00000000
00000000
00000000
,
00000000
00000000
00000000
00000000
,
10000000
01000000
10000000
01000000
,
00100000
00001000
00011000
00000000
,
00000100
00001000
00000100
00000010
,
00000110
00000000
00001001
00000000
,
00000001
00000010
00000001
00000010
,
00000100
00000100
00010000
00010000
,
00001000
00010000
00001000
00000000
,
00010000
00001000
00010000
00000000
,
00022000
00000000
00033000
00000000
,
00100000
00100000
00100000
00000000
,
20020000
00000000
30030000
00000000
,
01000000
01000000
01000000
00000000
,
00001000
00010000
00001000
00001000
,
00010000
00000100
00001000
00001000
,
00000001
00000100
00000010
00000100
,
00000001
00000000
00000110
00001001
,
00000001
00000010
00001000
00010000
,
00001000
00010000
00001000
00000000
,
01000000
00100000
01000000
00100000
,
10000000
10000000
10000000
00000000
,
01000000
00100000
00001000
00010000
,
00001000
00001000
00001000
00000000
,
00010000
00000100
00001000
00000100
,
00000010
00000010
00000010
00000010
,
00000001
00000100
00001000
00000100
,
00000010
00000010
00000010
00000000
,
00010000
00001000
00010000
00001000
,
01000000
01000000
01000000
00000000
,
00100000
00100000
00200000
00300000
,
01000000
01000000
02000000
03000000
,
00001000
00000000
00010000
00000000
,
00022000
00000000
00033000
00000000
,
00001100
00000000
00000011
00000000
,
00001001
00001001
00001001
00000000
,
00001010
00000000
00010100
00000000
,
00011000
00011000
00011000
00000000
,
00110000
00000000
11000000
00000000
,
01100000
01100000
01100000
00000000
,
01010000
00000000
00101000
00000000
,
00011000
00011000
00011000
00000000
,
00000100
00000010
00000002
00000003
,
00000100
00000010
00002000
00003000
,
00000100
00010000
00002000
00003000
,
00100000
00010000
02000000
03000000
,
00100000
10000000
01000000
10000000
,
00100000
00100000
00010000
00010000
,
00001000
00010000
00001000
00010000
,
00002000
00000000
00003000
00000000
,
00000010
00000000
00000001
00000000
,
00000100
00000000
00001000
00000000
,
00010000
00000000
00100000
00000000
,
01000000
01000000
01000000
00000000
,
10000000
01000000
10000000
01000000
,
00100000
00010000
00001000
00001000
,
00000100
00000010
00000001
00000100
,
00002002
00000000
00003003
00000000
,
00000001
00000100
00001000
00001000
,
00010000
00100000
01100000
00000000
,
10000000
01000000
00010000
00010000
,
00011000
00000000
00000110
00000000
,
00000001
00000010
00001000
00001000
,
00010000
00100000
10000000
10000000
,
01000000
00010000
00001000
00000100
,
00001000
00010000
00001000
00000000
,
00022000
00000000
00033000
00000000
,
00001000
00000010
00001000
00010000
,
00002000
00000000
00003000
00000000
,
00011000
00000000
00010000
00001000
,
00011000
00000000
00000000
00000000
,
00000000
00000000
00000000
00000000
;
#NOTES:
     dance-double:
     :
     Medium:
     12:
     :
00000000
00000000
00000000
00000000
,
00000000
00000000
00000000
00000000
,
00000000
00000000
00000000
00000000
,
00000000
00000000
00000000
00000000
,
00000000
00000000
00000000
00000000
,
00000000
00000000
00000000
00000000
,
10000000
00100000
01000000
00000000
00010000
00100000
00001000
00000000
,
00010000
00000000
00001000
00000000
00010000
00000000
00001000
00000000
00010000
00000000
00000000
00010000
00000000
00000000
00010000
00000000
,
00001000
00010000
00000100
00000000
00001000
00000100
00000010
00000000
,
00000001
00000000
00000000
00000001
00000000
00000001
00000000
00000001
00000000
00000000
00001000
00000000
00001001
00000000
00000000
00000000
,
00000010
00000001
00000100
00000000
00000010
00001000
00000100
00000000
,
00010000
00000000
00000000
00001000
00000000
00000000
00100000
00000000
00000000
00010000
00000000
00000000
01000000
00000000
00000000
00000000
,
00100000
10000000
00100000
10000000
01000000
00100000
01000000
00100000
,
00001000
00000000
00000000
00010000
00000000
00000000
00011000
00000000
00000000
00000000
00010000
00000000
00000010
00000000
00000100
00000000
,
00000002
00000000
00000000
00000003
,
00000010
00000000
00000000
00000010
00000000
00000000
00000010
00000000
00000000
00000000
00000001
00000000
00000100
00000000
00001000
00000000
,
00020000
00000000
00000000
00030000
,
00002000
00000000
00000000
00000000
00000000
00000000
00000000
00000000
00013000
00000000
00000000
00010000
00000000
00000000
00010000
00000000
,
00001000
00100000
00001000
00100000
00010000
01000000
00100000
00000000
,
10000000
01000000
10000000
01000000
00100000
00001000
00010000
00000000
,
00000010
00001000
00000001
00000100
00000001
00000100
00000010
00001000
,
00000100
00000000
00010000
00011000
,
00002000
00000000
00013000
01000000
10000000
01000000
00100000
00000000
,
00010000
01000000
00100000
00010000
00001000
00001000
00002000
00000000
,
00013000
00000000
00001000
00010000
00000000
00001000
00010000
00000000
00001000
00000000
00001000
00000000
00001000
00000000
00000000
00000000
,
00000010
00000000
00000100
00000010
00000000
00000100
00000010
00000000
00000100
00000000
00000000
00010000
00000000
00000000
00001000
00000000
,
00011000
00000000
00001000
00000010
00000001
00000010
00000100
00000000
,
00001000
00000010
00000100
00001000
00010000
00010000
00020000
00000000
,
00031000
00000000
00010000
00001000
00000000
00010000
00001000
00000000
00010000
00000000
00010000
00000000
00010000
00000000
00000000
00000000
,
01000000
00000000
00100000
00000000
01000000
00000000
00000000
01100000
00000000
00000000
00001000
00000000
00020000
00000000
00000000
00000000
,
00031000
00000000
00001000
00000010
00000001
00000010
00001000
00000000
,
00010000
00000100
00001000
00000010
00000100
00000100
00000100
00000000
,
00001000
00000000
00010000
00001000
00000000
00010000
00001000
00000000
00010000
00000000
00100000
00000000
10000000
00000000
01000000
00000000
,
00100000
00000000
01000000
00100000
00000000
01000000
00100000
00000000
00010000
00000000
00010000
00000000
00010000
00000000
00000000
00000000
,
01000000
00000000
00001000
00000000
00010000
00000000
00000000
00001000
00000000
00001000
00000000
00001000
00000000
00000000
00000000
00000000
,
00000100
00000000
00010000
00000000
00001000
00000000
00000000
00010000
00000000
00010000
00000000
00010000
00000000
00000000
00000000
00000000
,
00000100
00001000
00000100
00000010
00000001
00000100
00001000
00000000
,
00022000
00000000
00000000
00000000
00033000
00000000
00000000
00000000
00001000
00000000
00000000
00010000
00000000
00000000
00001000
00000000
,
00011000
00000000
00000000
00000000
00000000
00000000
00000000
00000000
01100000
00000000
00000000
10010000
00000000
00000000
00000000
00000000
,
00010000
00000000
00000000
00100000
00000000
00000000
10000000
00000000
00000000
00000000
01000000
00000000
00010000
00000000
00000000
00000000
,
00011000
00000000
00000000
00000000
00000000
00000000
00000000
00000000
00000110
00000000
00000000
00001001
00000000
00000000
00000000
00000000
,
00001000
00000000
00000000
00000010
00000000
00000000
00000001
00000000
00000000
00000100
00000000
00000000
00001000
00000000
00000000
00000000
,
00011000
00000000
00000000
00000000
00000000
00000000
00000000
00000000
01100000
00000000
00000000
10010000
00000000
00000000
00000000
00000000
,
00010000
00000000
00000000
00000000
00000000
00000000
00000000
00000000
00000000
00100000
00000000
00000000
00000000
00000000
00000000
00000000
00000000
00000000
10000000
00000000
00000000
00000000
00000000
00000000
00000000
00000000
00000000
00000000
00000000
00000000
01000000
00000000
00000000
00000000
00000000
00000000
00010000
00000000
00000000
00000000
00001000
00000000
00000000
00000000
00010000
00000000
00000000
00000000
,
00001000
00000000
00000000
00000000
00000000
00000000
00000000
00000000
00001100
00000000
00000000
00000110
00000000
00000000
00000000
00000000
,
00000001
00000000
00000000
00000010
00000000
00000000
00001000
00000000
00000000
00000001
00000000
00000000
00001001
00000000
00000000
00000000
,
00000001
00000000
00000010
00000000
00000100
00000000
00001000
00000000
00010000
00000000
00000000
00010000
00000000
00000000
00000000
00000000
,
10000000
00000000
00100000
00000000
01000000
00000000
00010000
00000000
00001000
00000000
00000000
00001000
00000000
00000000
00000000
00000000
,
00000001
00000000
00000100
00000000
00000010
00000000
00001000
00000000
00010000
00000000
00000000
00010000
00000000
00000000
00000000
00000000
,
10000000
00000000
01000000
00000000
00100000
00000000
00010000
00000000
00001000
00000000
00000000
00001000
00000000
00000000
00000000
00000000
,
00000001
00000100
00001000
00000000
00010000
00100000
10000000
00000000
,
10000000
01000000
00010000
00000000
00001000
00000010
00000001
00000000
,
00000001
00000010
00001000
00010000
00100000
10000000
00010000
00000000
,
20020000
00000000
00000000
30030000
,
10000000
10000000
00100000
00000000
,
00010000
00010000
00001000
00000000
,
00000100
00000100
00000001
00000000
,
00000010
00000000
00000000
00000010
00000000
00000010
00000000
00000010
00000000
00000000
00000001
00000000
00001001
00000000
00000000
00000000
,
00000001
00000010
00000100
00000000
00001000
00000010
00010000
00000000
,
00001000
00000000
00000000
00100000
00000000
00000000
00010000
00000000
00000000
01000000
00000000
00000000
00100000
00000000
00000000
00000000
,
10000000
01000000
10000000
01000000
00100000
00010000
00100000
00001000
,
00010000
00000100
00001000
00000100
00000020
00000000
00000030
00000000
,
00000001
00000100
00000010
00000100
00000001
00000010
00000100
00010000
,
00001000
00000000
00100000
00000000
00010000
00000000
01000000
00000000
00100000
00000000
00000000
00100000
00000000
00000000
00100000
00000000
,
10000000
01000000
00010000
01000000
10000000
00100000
01000000
00001000
,
00010000
00000000
00000000
00001000
00000000
00001000
00000000
00001000
00000000
00000000
00010000
00000000
00011000
00000000
00000000
00000000
,
00001000
00010000
00000100
00001000
00000010
00001000
00000100
00000010
,
00000001
00000000
00000000
00000001
00000000
00000000
00000100
00000000
00000000
00000100
00000000
00000000
00000010
00000000
00001000
00000000
,
00000100
00000010
00000100
00000010
00001000
00010000
00001000
00010000
,
01000000
10000000
01000000
00100000
00001000
00010000
00000100
00000010
,
00000002
00000000
00000000
00000003
,
00001000
00000000
00000000
00001000
00000000
00000000
00001000
00000000
00000001
00000000
00000100
00000000
00001000
00000000
00010000
00000000
,
00002000
00000000
00000000
00003000
,
00020000
00000000
00000000
00000000
00030000
00000000
00000000
00000000
00001000
00000000
00000000
00001000
00000000
00000000
00001000
00000000
,
00011000
00000000
00000000
00000000
,
00000000
00000000
00000000
00000000
;
#NOTES:
     dance-double:
     :
     Hard:
     15:
     :
00000000
00000000
00000000
00000000
,
00000000
00000000
00000000
00000000
,
00000000
00000000
00000000
00000000
,
00000000
00000000
00000000
00000000
,
00000000
00000000
00000000
00000000
,
00000000
00000000
00000000
00000000
,
00001000
00010000
00001000
00010000
00100000
01000000
00100000
00010000
,
00001000
00000000
00010000
00000000
00001000
00000000
00000010
00000000
00000100
00000000
00000000
00001100
00000000
00000000
00011000
00000000
,
00001000
00010000
00001000
00010000
00100000
01000000
00100000
00010000
,
00001000
00000000
00000000
00000010
00000000
00000100
00000000
00000110
00000000
00000000
00000100
00010000
00001000
00000000
00010000
00000000
,
00000000
01000000
00100000
01000000
00010000
00001000
00000100
00000010
,
00001000
00000000
00000000
00001100
00000000
00000000
00000110
00000000
00000000
00001010
00000000
00000000
00011000
00000000
00000000
00000000
,
00001000
00100000
01000000
00100000
00001000
00010000
00001000
00010000
,
00000010
00000000
00000000
00000100
00000000
00000000
00000110
00000000
00000000
00000000
00000010
00001000
00000100
00000000
00010000
00001000
,
00020000
00000000
00000000
00030000
,
01000000
00000000
00000000
10000000
00000000
00000000
00100000
00000000
00000000
00000000
00010000
00000000
00001000
00000000
00010000
00001000
,
00020000
00000000
00000000
00030000
,
00001000
00000000
00000010
00000000
00001000
00000000
00010000
00000000
00001000
00000000
00000000
00001000
00000000
00000000
00001000
00000000
,
00000100
00000000
00000001
00000000
00000010
00000001
00000000
00000011
00000000
00000000
00000001
00000000
00000010
00000000
00000100
00000000
,
00001000
00000000
00000100
00000000
00010000
00001000
00000000
00011000
00000000
00000000
00010000
00000000
00001000
00000000
00100000
00000000
,
00010000
00000000
01000000
00000000
00010000
00000000
01000000
00000000
00010000
10000000
00010000
10000000
00010000
10000000
00010000
10000000
,
00010000
00000000
00000000
00000000
01100000
10010000
01100000
00000000
,
00020000
00000000
00000000
00000000
00030000
10000000
01000000
10000000
00000000
00010000
00100000
00010000
00000000
00100000
00001000
00000000
,
00010000
00000100
00001000
00000000
00000100
00000010
00000001
00000000
00001000
00000000
00001000
00000001
00002000
00000000
00000000
00000000
,
00003001
00000000
00000100
00001000
00000000
00001000
00010000
00000000
00100000
00000000
01000000
00000000
00010000
00000000
00100000
00000000
,
01000000
00000000
10000000
01000000
00000000
01000000
00010000
00000000
00011000
00000000
00000000
00001010
00000000
00000000
00000110
00000000
,
00002000
00000000
00000000
00000000
00003000
00000001
00000100
00000001
00000000
00001000
00000010
00001000
00000000
00000010
00010000
00000000
,
00001000
01000000
00010000
00000000
01000000
00100000
10000000
00000000
00010000
00000000
00010000
10000000
00020000
00000000
00000000
00000000
,
10030000
00000000
01000000
00010000
00000000
00010000
00001000
00000000
00000010
00000000
00000100
00000000
00001000
00000000
00000010
00000000
,
00000100
00000000
00000010
00000000
00000100
00000000
00000000
00011000
00000000
00000000
01100000
00000000
00020000
00000000
00000000
00000000
,
10030000
00000000
00000000
00000000
00000000
00100000
10000000
01000000
00000000
00100000
00010000
01000000
00000000
00100000
10000000
00000000
,
00100000
00000000
00010000
00001000
00010000
00000000
00001000
00000100
00001000
00000000
00000100
00000000
00000110
00000000
00000000
00000000
,
00000001
00000000
00000010
00000001
00000000
00000010
00001000
00000010
00000000
00001000
00010000
00001000
00010000
00000000
00001000
00000000
,
00010000
00000000
00100000
10000000
00000000
00100000
10000000
00000000
01000000
00000000
00100000
00000000
00001000
00010000
00001000
00010000
,
00001000
00000000
00000010
00000000
00000001
00000000
00000000
00000001
00000000
00000100
00000000
00001000
00000000
00000000
00000000
00000000
,
00010000
00000000
00100000
00000000
10000000
00000000
00000000
01000000
00000000
00010000
00000000
00001000
00000000
00000000
00000000
00000000
,
00000010
00000000
00000001
00000000
00000100
00000000
00000010
00000000
00001000
00000010
00001000
00000010
00010000
00001000
00010000
00001000
,
00020000
00000000
00000000
00000000
00000000
00000000
00000000
00000000
00001000
00000000
00000000
00001000
00000000
00000000
00001000
00000000
,
00032000
00000000
00000000
00000000
00003000
00000000
00000000
00000000
00010000
00000000
00000000
02200000
00000000
00000000
03300000
00000000
,
10000000
00000000
00000000
01100000
00000000
00000000
00010000
00000000
00000000
00000000
00001000
00000000
00000110
00000000
00000000
00000000
,
00000002
00000000
00000000
00000000
00000003
00000000
00000000
00000000
00001000
00000000
00000000
00000220
00000000
00000000
00000330
00000000
,
00000001
00000000
00000000
00000110
00000000
00000000
00010000
00000000
00000000
00001000
00000000
00000000
01100000
00000000
00000000
00000000
,
00020000
00000000
00000000
00000000
00030000
00000000
00000000
00000000
10000000
00000000
00000000
02200000
00000000
00000000
03300000
00000000
,
00010000
00000000
00000000
00000000
00000000
00000000
00000000
00000000
00000000
00001000
00000000
00000000
00000000
00000000
00000000
00000000
00000000
00000000
00000110
00000000
00000000
00000000
00000000
00000000
00000000
00000000
00000000
00000000
00000000
00000000
00001001
00000000
00000000
00000000
00000000
00000000
00000001
00000000
00000000
00000000
00000100
00000000
00000000
00000000
00001000
00000000
00000000
00000000
,
00020000
00000000
00000000
00000000
00030000
00000000
00000000
00000000
00100000
00000000
00000000
20020000
00000000
00000000
30030000
00000000
,
01000000
00000000
00000000
00100000
00000000
00000000
10010000
00000000
00000000
00010000
00100000
00000000
00001000
00010000
00001000
00000000
,
00010000
00000000
00001000
00000000
00000100
00000000
00000001
00000000
00000100
00001000
00000000
00022000
00000000
00000000
00033000
00000000
,
00001000
00000000
00010000
00000000
01000000
00000000
10000000
00000000
01000000
00010000
00000000
00022000
00000000
00000000
00033000
00000000
,
00010000
00000000
00001000
00000000
00000010
00000000
00000001
00000000
00000010
00001000
00000000
00022000
00000000
00000000
00033000
00000000
,
00001000
00000000
00010000
00000000
00100000
00000000
10000000
00000000
00100000
00010000
00000000
00022000
00000000
00000000
00033000
00000000
,
00000010
00000001
00000010
00000001
00000100
00000000
00000010
00000000
00001000
00000100
00001000
00000100
00010000
00000000
00001000
00000000
,
00100000
00010000
01000000
00000000
00100000
10000000
01000000
00000000
00100000
00010000
10000000
00000000
01000000
00100000
00010000
00000000
,
00100000
00001000
00100000
00001000
00010000
00000100
00001000
00000100
00000010
00000001
00000010
00000001
00000010
00000100
00010000
00001000
,
00020000
00000000
00031000
00011000
,
00100000
00100000
10000000
10000000
,
01000000
01000000
00100000
00100000
,
00001000
00001000
00010000
00010000
,
00001000
00000000
00000000
00010000
00000000
00001000
00000000
00011000
00000000
00000000
00001000
00000000
00010000
00000000
00001000
00000000
,
00000000
00000010
00000001
00000100
00000010
00001000
00000100
00010000
,
01000000
00000000
00000000
11000000
00000000
00000000
10100000
00000000
00000000
00110000
00000000
00000000
10010000
00000000
00000000
00000000
,
00100000
00000000
00010000
00000000
00001000
00010000
00001000
00000000
00000100
00000000
00001000
00000000
00010000
00001000
00010000
00000000
,
00000100
00001000
00000100
00000000
00000010
00000001
00000010
00000000
00000100
00010000
00001000
00000000
00010000
00000000
00000000
00000000
,
00001000
00000000
00010000
00000000
01000000
00100000
01000000
00000000
00100000
00000000
00001000
00000000
00010000
00000000
00000100
00000000
,
00000010
00000000
00001000
00000000
00010000
00000000
00001000
00000000
00000010
00000100
00000000
00001100
00000000
00000000
00011000
00000000
,
00001000
00000000
00010000
00000000
00001000
00000100
00001000
00000000
00010000
00000000
00100000
00000000
01000000
00010000
00100000
00000000
,
01000000
00000000
00000000
00010000
00000000
00001000
00000000
00011000
00000000
00000000
00000100
00010000
00001000
00000000
00010000
00000000
,
00000000
00000000
01000000
00000000
00100000
00010000
01000000
00000000
00100000
00000000
00010000
00000000
00001000
00000100
00000010
00000000
,
00001000
00000000
00000000
00001100
00000000
00000000
00000110
00000000
00000000
00001010
00000000
00000000
00011000
00000000
00000000
00000000
,
01000000
00000000
00100000
00000000
00010000
01000000
00010000
00000000
00100000
00000000
00001000
00000000
00010000
00000100
00001000
00000000
,
00000010
00001000
00000100
00000000
00001000
00000100
00010000
00000000
00001000
00100000
00010000
00100000
00001000
00010000
00001000
00010000
,
00002000
00000000
00000000
00003000
,
00010000
00000000
00000000
01000000
00000000
00000000
10000000
00000000
00000000
00000000
00100000
00000000
00010000
00000000
00001000
00010000
,
00002000
00000000
00000000
00003000
,
00010000
00000100
00000010
00000001
00000010
00000100
00010000
00001000
00010000
00000000
00000000
00001000
00000000
00000000
00010000
00000000
,
00011000
00000000
00000000
00000000
,
00000000
00000000
00000000
00000000
;
#NOTES:
     dance-double:
     :
     Challenge:
     17:
     :
00000000
00000000
00000000
00000000
,
00000000
00000000
00000000
00000000
,
00000000
00000000
00000000
00000000
,
00000000
00000000
00000000
00000000
,
00000000
00000000
00000000
00000000
,
00000000
00000000
00000000
00000000
,
10000000
01000000
10000000
01000000
00100000
00010000
00100000
00010000
00100000
00001000
00000000
00011000
00000000
00010000
00000100
00000000
,
00001000
00000100
00001000
00000100
00000010
00000001
00000010
00000001
00001000
00000001
00000000
00001001
00000000
00000001
00000100
00000000
,
00000010
00001000
00000010
00001000
00000100
00001000
00000100
00001000
00000100
00010000
00000000
00011000
00000000
00001000
00010000
00000000
,
00001000
01000000
00010000
01000000
00001000
01000000
00010000
01000000
00000000
00000000
00100000
01000000
00010000
10000000
00010000
00000000
,
10000000
00100000
10000000
00100000
01000000
00010000
01000000
00010000
01000000
00001000
00000000
00011000
00000000
00010000
00000010
00000000
,
00001010
00000000
00000000
00000110
00000000
00000000
00000101
00000000
00000000
00000011
00000000
00000000
00000001
00001000
00000001
00000000
,
00000010
00000001
00001000
00000000
00000010
00001000
00000100
00000000
00010000
00001000
00100000
00000000
00010000
01000000
00100000
00000000
,
10000000
00010000
10000000
00010000
00100000
00010000
00100000
00010000
00100000
00001000
00010000
00000100
00001000
00000010
00000100
00000001
,
00000020
00000000
00000000
00000030
,
00000001
00000000
00000000
00000110
00000000
00000000
00001001
00000000
00000001
00000100
00001000
00000000
00010000
00100000
10000000
00000000
,
00020000
00000000
00000000
00030000
,
10000000
01000000
00010000
00001000
00000010
00000001
00001000
00000001
00000100
00000000
00000000
00001000
00000000
00000000
00010000
00000000
,
00001000
00000000
00010000
00000000
00100000
00010000
00000000
00011000
00000000
00001000
00000010
00000000
00000100
00010000
00000100
00000000
,
00010000
00000000
01000000
00000000
00010000
00001000
00000000
00011000
00000000
00010000
00000100
00000000
00000010
00000100
00000010
00000000
,
00001000
00000000
00010000
00000000
01000000
00000000
00100000
00000000
00010000
01000000
00100000
00010000
00001000
00000100
00000010
00001000
,
00000200
00000000
00000000
00000300
,
00001001
00000000
00000000
00000000
00000001
00000010
00000100
00000010
00000001
00000010
00000100
00000010
00000001
00001000
00000001
00000000
,
00000100
00000000
00001000
00000000
00010000
00000000
00100000
00000000
10000000
00000000
10000000
00010000
10000000
00000000
00000000
00000000
,
00100000
00000000
01000000
00010000
00000000
00100000
01000000
00100000
00010000
00100000
01000000
00100000
00010000
10000000
00010000
00000000
,
10000000
00000000
10000000
01000000
00000000
01000000
00010000
00000000
00010000
00001000
00000000
00001010
00000000
00000000
00000110
00000000
,
00001001
00000000
00000000
00000000
00000001
00000100
00000010
00000100
00000001
00000100
00000010
00000100
00000001
00001000
00000001
00000000
,
00000010
00000000
00001000
00000000
00010000
00000000
01000000
00000000
10000000
00000000
10000000
00010000
10000000
00000000
00000000
00000000
,
00010000
00000000
10000000
00010000
00000000
01000000
00100000
01000000
00010000
01000000
00100000
01000000
00010000
10000000
00010000
00000000
,
10000000
00000000
00100000
00000000
00010000
00001000
00000100
00000010
00000000
00000010
00001000
00000000
00000100
00001000
00000100
00000000
,
00020000
00000000
00000000
00000000
00031000
00010000
00010000
00010000
00001000
00010000
00010000
00010000
00001000
00010000
00001000
00000000
,
00010000
01000000
00100000
00000000
00010000
01000000
00100000
00000000
00010000
00000000
00010000
00001000
00020000
00000000
00030000
00000000
,
00011000
00000000
00001000
00010000
00000000
00001000
00001000
00001000
00010000
00001000
00001000
00001000
00010000
00001000
00010000
00000000
,
00001000
00000000
00000100
00000010
00000000
00001000
00000100
00000000
00000010
00001000
00000000
00011000
00000000
00000000
00020000
00000000
,
00031000
00000000
00010000
00000000
00100000
01000000
00000000
01010000
00000000
00011000
00000000
00001010
00000000
00000000
00000000
00000000
,
00010000
00000000
00001000
00000000
00000010
00000100
00000000
00001100
00000000
00011000
00000000
00110000
00000000
00000000
00000000
00000000
,
01000000
00000000
10000000
00000000
01000000
00000000
00010000
00000000
00001000
00000010
00000001
00000010
00000001
00000100
00000010
00001000
,
00000020
00000000
00000000
00000000
00000000
00000000
00000000
00000000
00000100
00000000
00000000
00000100
00000000
00000000
00000130
00000000
,
00000001
00000000
00001000
00000000
00000100
00000000
00000010
00000000
00000001
00001000
00000000
00001001
00000000
00000001
00001000
00000000
,
00001010
00000000
00000000
00000101
00000000
00000000
00001001
00000000
00000010
00000001
00001000
00000010
00010000
00001000
00100000
00010000
,
10000000
00000000
00010000
00000000
00100000
00000000
01000000
00000000
10000000
00010000
00000000
10010000
00000000
10000000
00010000
00000000
,
01010000
00000000
00000000
10100000
00000000
00000000
10010000
00000000
00000000
00011000
00000000
00000000
00000010
00000000
00000000
00000000
,
00000100
00000000
00000010
00000000
00000001
00000000
00001000
00000000
00000010
00000100
00000000
00001010
00000000
00000100
00010000
00000000
,
00011000
00000000
00000000
00000000
00000000
00000000
00000000
00000000
00000000
01010000
00000000
00000000
00000000
00000000
00000000
00000000
00000000
00000000
01100000
00000000
00000000
00000000
00000000
00000000
00000000
00000000
00000000
00000000
00000000
00000000
10010000
00000000
00000000
00000000
00000000
00000000
10000000
00000000
00000000
00000000
00100000
00000000
00000000
00000000
01000000
00000000
00000000
00000000
,
00010000
00000000
00100000
00000000
00100000
00000000
00010000
00000000
00001000
00000000
00000000
00001100
00000000
00000000
00000110
00000000
,
00000001
00000100
00000010
00001000
00000010
00000100
00000001
00000100
00000010
00000000
00010000
00001000
00010000
00001000
00010000
00000000
,
01000000
00000000
10000000
00000000
01000000
00000000
00010000
00000000
00001000
00010000
00000000
00011000
00000000
00010000
00001000
00000000
,
00000100
00000000
00000001
00000000
00000100
00000000
00001000
00000000
00010000
00001000
00000000
00011000
00000000
00001000
00010000
00000000
,
00100000
00000000
10000000
00000000
00100000
00000000
00010000
00000000
00001000
00010000
00000000
00011000
00000000
00010000
00001000
00000000
,
00000010
00000000
00000001
00000000
00000010
00000000
00001000
00000000
00010000
00001000
00000000
00011000
00000000
00001000
00010000
00000000
,
01000000
10000000
01000000
10000000
00100000
01000000
00010000
00100000
00001000
00010000
00001000
00010000
00000100
00001000
00000010
00000100
,
00000001
00000010
00000100
00001000
00000001
00000010
00000100
00001000
00000001
00000010
00000100
00001000
00000001
00000000
00000010
00000001
,
00000100
00000010
00001000
00000100
00010000
00001000
00100000
00010000
01000000
00100000
10000000
01000000
00100000
00001000
00010000
00000100
,
00000020
00000000
00000000
00000030
,
00000001
00000001
00000100
00001000
,
00010000
00010000
01000000
10000000
,
00100000
00100000
00010000
00001000
,
00000110
00000000
00000000
00000001
00000000
00001000
00000000
00001001
00000000
00000000
00000100
00000010
00000001
00000000
00001000
00000000
,
00000001
00000100
00000010
00000000
00001000
00000100
00000010
00000000
00000100
00010000
00000000
00011000
00000000
00001000
01000000
00000000
,
01100000
00000000
00000000
10100000
00000000
00000000
00110000
00000000
00000000
11000000
00000000
00000000
10010000
00000000
00010000
00000000
,
10000000
01000000
10000000
01000000
00100000
00001000
00010000
00001000
,
00000010
00000000
00000000
00000011
00000000
00000000
00002002
00000000
00000000
00000000
00000000
00000000
00003003
00000000
00000000
00000000
,
00000001
00000100
00000001
00000100
00000010
00001000
00000010
00001000
00000010
00010000
00000000
00011000
00000000
00001000
01000000
00000000
,
00010000
01000000
00010000
01000000
00100000
10000000
00100000
10000000
00010000
10000000
00000000
10010000
00000000
10000000
01000000
00000000
,
00100000
00010000
00100000
00010000
01000000
00010000
01000000
00010000
01000000
00001000
00000000
00011000
00000000
00010000
00001000
00000000
,
00010000
00000100
00001000
00000100
00010000
00000100
00001000
00000100
00000000
00000000
00000010
00000100
00001000
00000001
00001000
00000000
,
00000001
00000010
00000001
00000010
00000100
00001000
00000100
00001000
00000100
00010000
00000000
00011000
00000000
00001000
00100000
00000000
,
00110000
00000000
00000000
01100000
00000000
00000000
11000000
00000000
00000000
10100000
00000000
00000000
10000000
00010000
10000000
00000000
,
00100000
10000000
00010000
00000000
00100000
00010000
01000000
00000000
00001000
00010000
00000010
00000000
00001000
00000100
00000010
00000000
,
00000001
00000100
00000100
00000100
00000001
00000100
00000100
00000100
00000010
00010000
00001000
01000000
00010000
00100000
01000000
10000000
,
00200000
00000000
00000000
00300000
,
10000000
00000000
00000000
01100000
00000000
00000000
10010000
00000000
10000000
01000000
00010000
00000000
00001000
00000010
00000001
00000000
,
00002000
00000000
00000000
00003000
,
00000001
00000100
00001000
00010000
00100000
10000000
01000000
00100000
00010000
00000000
00000000
00001000
00000000
00000000
00000100
00000000
,
00000110
00000000
00000000
00000000
,
00000000
00000000
00000000
00000000
;
