
//----- song ID: orca -----//
#TITLE:ORCA;
#ARTIST:かめりあ;
#ARTISTTRANSLIT:Camellia;
#BANNER:ORCA.png;
#BACKGROUND:ORCA-bg.png;
#MUSIC:ORCA.ogg;
#SAMPLESTART:75.878;
#SAMPLELENGTH:15;
#BPMS:0=155,46.5=77.5,47=155,62=77.5,66=38.75,66.5=310,76.5=155,77.5=77.5,81.5=310,96.5=155,97=77.5,100.5=38.75,100.75=155,108.75=77.5,112.75=38.75,113.25=77.5,116.25=155,123.25=77.5,123.75=155,129.75=77.5,130.75=155,195.75=77.5,199.75=155,242.75=77.5,243.5=155,251=77.5,251.25=155;
#STOPS:32=1.161,36.5=0.194,40=0.194,43.5=0.194,50.5=0.194,54=0.194,133.75=0.192,137.25=0.194,141.75=0.581,151.25=0.194,158.75=0.097,159=0.097,171.25=1.159,187.25=0.194,214.75=0.194,229.25=0.581,233.25=0.194,236.75=0.194,240.25=0.194,247=0.194,250.5=0.194;
#NOTES:
     dance-single:
     :
     Beginner:
     7:
     :
0000
0000
0000
0000
,
0000
0000
0000
0000
,
0000
0000
0000
0000
,
0000
0000
0000
0000
,
0000
0000
0000
0000
,
0001
0000
0001
0000
,
0100
0000
0100
0000
,
0001
0100
0001
0000
,
1001
0000
1000
0000
,
1000
0000
0000
0010
0000
0000
0000
0010
,
0000
1000
0000
1000
,
0000
0100
0000
0100
0000
0000
0000
0000
,
0001
0000
0000
0000
0001
0000
0000
0010
,
0000
0000
0000
0010
0000
0000
0001
0000
,
0000
0001
0000
0100
,
0100
0000
0001
0001
,
0001
0000
0000
0000
0000
0001
0000
0000
,
0000
0010
0000
0000
0000
0001
0000
0000
,
0000
0001
0000
0000
0000
0001
0000
0000
,
0000
0000
0000
1000
0000
1000
0000
1000
,
0000
0000
0000
1000
0000
0000
0000
0100
,
0000
0000
0000
1000
0000
0000
0000
1000
,
0000
0000
0000
0100
0000
0000
0000
0100
,
0000
0000
0000
1000
0000
0000
0000
0000
,
0000
0000
1000
0000
1000
0000
0100
0100
,
0100
0000
0000
0100
0000
0000
0000
0000
0000
0000
0000
1000
0000
0000
0000
0000
,
0000
0000
0000
0010
0000
0000
0000
0000
0000
0000
0000
2000
0000
0000
0000
0000
,
0000
0000
0000
3001
0000
0000
0000
0001
0000
0000
0000
0100
0000
0100
0000
0100
,
0000
0000
0000
0000
0000
0001
0000
0000
0000
0010
0000
0000
0000
0001
0000
0000
,
0000
0001
0000
0000
0000
0000
0000
0000
0000
0100
0000
0000
0000
0000
0000
0000
,
0000
0001
0000
0000
0000
0000
0000
0000
0000
0000
0000
0000
0000
0000
0000
1000
,
0000
0000
0000
0000
0000
0000
0000
0100
0000
0000
0000
0000
0000
0000
0000
1000
,
0000
0000
0000
0000
0000
0000
0000
0000
0000
0000
0000
0001
0000
0000
0000
0001
,
0000
0000
0000
0010
0000
0000
0000
0000
0000
0001
0000
0000
0000
0001
0000
0000
,
0000
0100
0000
0000
0000
0000
0000
0001
0000
0000
0000
0001
0000
0000
0000
0010
,
0000
0000
0000
0010
0000
0000
0000
0000
0000
0000
0000
0000
0000
0000
0000
0000
,
0000
1000
0000
0000
0000
1000
0000
0000
0000
0100
0000
0000
0000
0000
0000
0000
,
0000
1000
0000
0000
0000
1000
0000
0000
0000
0010
0000
0000
0000
0000
0000
1000
,
0000
0000
0000
0100
0000
0000
0000
1000
0000
0000
0000
0000
0000
0000
0000
0010
,
0000
0000
0000
1000
0000
0000
0000
0010
0000
0000
0000
0000
0000
0001
0000
0000
,
0000
0001
0000
0000
0000
0001
0000
0000
0000
0000
0000
0000
0000
0100
0000
0000
,
0000
0100
0000
0000
0000
0100
0000
0000
0000
0000
0000
0000
0000
0001
0000
0000
,
0000
0001
0000
0000
0000
0001
0000
0001
0000
0001
0000
0000
0000
0001
0000
0000
,
0000
1000
0000
0000
0000
0100
0000
0000
0000
1000
0000
0000
0000
0100
0000
0000
,
0000
1000
0000
0000
0000
0010
0000
0000
0000
1000
0000
1000
0000
1000
0000
0000
,
0000
0100
0000
0000
0000
0100
0000
0000
0000
1000
0000
0000
0000
1000
0000
0000
,
0000
0010
0000
0000
0000
0000
0000
0000
0000
0000
0000
0000
0000
0000
0000
0001
,
0000
0000
0000
0100
0000
0000
0000
0001
0000
0000
0000
0100
0000
0000
0000
0001
,
0000
0000
0000
0010
0000
0000
0000
0001
0000
0001
0000
0001
0000
0000
0000
0100
,
0000
0100
0000
0001
0000
0001
0000
0100
0000
0000
0000
0000
0000
0000
0000
1000
,
0000
0000
0000
0100
0000
0000
0000
1000
0000
0000
0000
0010
0000
0000
0000
1000
,
0000
0000
0000
0100
0000
0000
0000
1000
0000
0000
0000
0000
0000
0000
0000
1000
,
0000
0000
0000
1000
0000
0000
0000
1000
0000
0000
0000
0000
0000
0000
0000
2000
,
0000
0000
0000
0000
0000
0000
0000
0000
0000
0000
0000
3000
0000
0001
0000
0000
,
0000
0100
0000
0000
0000
0001
0000
0000
0000
0010
0000
0000
0000
0001
0000
0000
,
0000
0100
0000
0000
0000
0001
0000
0000
0000
0000
0000
0000
0000
0001
0000
0000
,
0000
0001
0000
0000
0000
0001
0000
0000
0000
0000
0000
0000
0000
0002
0000
0000
,
0000
0000
0000
0000
0000
0003
0000
1000
0000
0000
0000
0100
0000
0000
0000
1000
,
0000
0000
0000
0100
0000
0000
0000
0000
0000
1000
0000
0000
0000
0010
0000
0000
,
0000
1000
0000
0000
0000
0000
0000
0100
0000
0000
0000
1000
0000
0000
0000
0010
,
0000
0000
0000
0000
0000
1000
0000
0000
0000
1000
0000
0000
0000
0000
0000
0000
,
0000
0001
0000
0100
0000
0001
0000
0000
,
0010
0000
0000
0000
0001
0000
0000
0000
0010
0000
0000
0000
0000
0001
0000
0000
,
0000
0001
0000
0000
0000
0100
0000
0100
0000
0000
0000
0000
0000
0010
0000
0000
,
0000
0010
0000
0000
0000
0000
0000
0000
0000
2002
0000
0000
0000
0000
0000
0000
,
0000
0000
0000
0000
0000
3003
0000
0000
0000
2002
0000
0000
0000
0000
0000
0000
,
0000
3003
0000
0000
0000
1001
0000
0000
0000
1001
0000
0000
0000
0000
0000
0000
,
0000
0000
0000
0000
;
#NOTES:
     dance-single:
     :
     Easy:
     9:
     :
0000
0000
0000
0000
,
0000
0000
0000
0000
,
0000
0000
0000
0000
,
0000
0000
0000
0000
,
0000
0000
0000
0000
,
0001
1000
0001
1000
,
0010
0100
0010
0100
,
0001
0000
1000
0000
0100
0010
0100
0000
,
0220
0330
0001
0010
,
0002
0003
0000
1000
0000
0010
0000
2000
,
3000
0000
0001
0000
0100
0000
0002
0003
,
0000
1000
0000
0100
0000
0000
0000
0000
,
0001
0000
0010
0000
0002
0003
0000
0100
,
0000
0001
0000
0200
0300
0000
0010
0000
,
1000
0010
1000
0001
,
0100
0001
0100
0100
,
0010
0000
0010
0000
1000
1000
0000
0000
,
0000
1000
0000
0000
0000
0100
0000
0000
,
0000
0100
0000
0000
0000
0010
0000
0000
,
0000
0010
0000
0010
0000
0010
0000
0001
,
0000
0001
0000
1000
0000
0000
0000
0100
,
0000
0000
0000
1000
0000
0000
0000
0100
,
0000
0000
0000
1000
0000
0000
0000
0010
,
0000
0000
0000
0100
0000
0000
0000
0010
,
0000
0000
0100
0100
0001
0001
1000
1000
,
0100
0000
0100
0100
0000
0000
0000
0100
0000
0000
0000
0010
0000
0000
0000
0010
,
0000
0000
0000
0001
0000
0000
0000
0001
0000
0000
0000
2002
0000
0000
0000
3003
,
0000
0000
0000
0001
0000
0001
0000
0100
0000
0100
0000
0010
0000
0010
0000
1000
,
0000
1000
0000
1001
0000
0100
0000
0000
0000
0010
0000
0000
0000
1001
0000
0000
,
0000
0001
0000
0000
0000
0100
0000
0000
0000
1000
0000
0000
0000
0100
0000
0000
,
0000
0001
0000
0000
0000
1000
0000
0000
0000
0002
0000
0000
0000
0003
0000
1000
,
0000
0000
0000
0100
0000
0000
0000
0001
0000
0000
0000
0100
0000
0000
0000
1000
,
0000
0000
0000
0001
0000
0000
0000
2000
0000
0000
0000
3010
0000
0000
0000
1000
,
0000
0000
0000
0100
0000
0000
0000
2000
0000
3001
0000
0000
0000
0010
0000
0000
,
0000
0001
0000
0000
0000
0200
0000
0310
0000
0000
0000
1000
0000
0000
0000
0100
,
0000
0000
0000
0010
0000
0000
0000
0001
0000
0000
0000
0000
0000
0000
0000
0000
,
0000
0001
0000
0000
0000
1000
0000
0000
0000
1001
0000
0000
0000
0000
0000
0000
,
0000
0010
0000
0000
0000
0100
0000
0000
0000
0110
0000
0000
0000
0000
0000
0001
,
0000
0000
0000
0010
0000
0000
0000
0011
0000
0000
0000
0000
0000
0000
0000
1000
,
0000
0000
0000
0100
0000
0000
0000
1100
0000
0000
0000
0000
0000
0010
0000
0000
,
0000
0100
0000
0000
0000
0110
0000
0000
0000
0110
0000
0000
0000
0001
0000
0000
,
0000
1000
0000
0000
0000
1001
0000
0000
0000
1001
0000
0000
0000
0001
0000
1000
,
0000
0001
0000
0000
0000
1000
0000
0001
0000
1000
0000
0000
0000
1001
0000
0000
,
0000
0001
0000
0000
0000
0010
0000
0000
0000
0100
0000
0000
0000
1000
0000
0000
,
0000
0010
0000
0000
0000
0100
0000
0000
0000
0001
0000
0000
0000
1000
0000
0000
,
0000
0001
0000
0000
0000
0100
0000
0000
0000
0010
0000
0000
0000
1000
0000
0000
,
0000
0100
0000
0000
0000
0010
0000
0000
0000
0110
0000
0000
0000
0000
0000
1000
,
0000
0000
0000
0100
0000
0000
0000
0010
0000
0000
0000
0001
0000
0000
0000
0100
,
0000
0000
0000
0010
0000
0000
0000
1000
0000
0000
0000
0001
0000
0000
0000
1000
,
0000
1000
0000
1000
0000
0000
0000
0001
0000
0001
0000
0001
0000
0000
0000
0001
,
0000
0000
0000
0100
0000
0000
0000
0001
0000
0000
0000
0100
0000
0000
0000
0010
,
0000
0000
0000
1000
0000
0000
0000
0010
0000
1000
0000
0010
0000
0000
0000
1000
,
0000
0000
0000
0100
0000
0000
0000
1000
0000
0000
0000
0100
0000
0000
0000
0010
,
0000
0000
0000
0001
0000
0000
0000
0010
0000
0001
0000
0010
0000
0001
0000
0000
,
0000
0001
0000
0000
0000
0101
0000
0000
0000
0000
0000
0000
0000
1000
0000
0000
,
0000
1000
0000
0000
0000
1100
0000
0000
0000
0000
0000
0000
0000
0010
0000
0100
,
0000
0010
0000
0000
0000
0100
0000
0010
0000
0100
0000
0000
0000
0010
0000
0000
,
0000
0100
0000
0000
0000
0110
0000
0000
0000
0000
0000
0001
0000
0000
0000
0020
,
0000
0000
0000
0100
0000
0130
0000
0000
0000
1000
0000
0000
0000
0020
0000
0000
,
0000
0100
0000
0130
0000
0000
0000
0001
0000
0000
0000
0200
0000
0000
0000
0010
,
0000
0310
0000
0000
0000
1000
0000
0000
0000
0200
0000
0000
0000
0000
0310
0000
,
0000
0001
0000
0100
0000
1000
1000
0000
,
0001
0000
0000
0000
0010
0000
0000
0000
1000
0000
1000
0000
0000
0001
0000
0000
,
0000
1000
0000
0000
0000
0100
0000
0100
0000
0000
0000
0000
0000
0110
0000
0000
,
0000
1001
0000
0000
0000
0110
0000
0000
0000
2002
0000
0000
0000
0000
0000
0000
,
0000
0000
0000
0000
0000
3003
0000
0000
0000
2002
0000
0000
0000
0000
0000
0000
,
0000
3003
0000
0000
0000
0110
0000
0000
0000
1001
0000
0000
0000
0000
0000
0000
,
0000
0000
0000
0000
;
#NOTES:
     dance-single:
     :
     Medium:
     14:
     :
0000
0000
0000
0000
,
0000
0000
0000
0000
,
0000
0000
0000
0000
,
0000
0000
0000
0000
,
0000
0000
0000
0000
,
0001
0010
0011
0000
1000
0010
1010
0000
,
0001
0100
0101
0000
1000
0100
1100
0000
,
0001
0010
0001
0010
0100
1000
0100
0010
,
1001
0000
0110
0000
0011
0000
1000
0100
,
0010
0110
0000
1100
0000
1000
0010
0100
,
0110
0000
0110
0000
0100
0001
0010
0011
,
0001
0100
0010
1000
0010
0110
0110
0000
,
1001
0000
0001
1000
0100
1100
0000
1100
,
0000
0100
0010
0001
0011
0000
0110
0000
,
0001
1000
0001
0101
0000
0010
0010
0000
,
0100
0000
0000
0000
0000
0000
0100
0000
0000
0000
0000
0000
0100
0000
0000
0000
0010
0000
0000
0000
0010
0100
0010
0000
1000
0000
0001
0000
1000
0000
0001
0000
,
0000
0000
0000
0000
0010
0100
0010
0000
0001
0000
1000
0000
0001
0000
1000
0000
0001
0000
0001
0000
0100
0000
0000
0000
0000
0000
0000
0000
0000
0000
0000
0000
,
0110
0000
0000
0010
0000
0000
1010
0000
,
0000
0001
0000
0100
0000
0010
0000
1000
,
0000
0020
0000
0130
1010
1100
0101
0011
,
0101
1100
1010
0100
0000
0000
0110
0000
,
0000
1000
0000
0000
1010
0000
0000
0001
,
0000
0010
0000
0000
0000
0010
0000
0001
,
0000
0100
0010
0100
0000
0000
0200
0000
,
0000
0000
0000
0000
0000
0000
0000
0000
0310
0000
0000
0010
0000
0000
0010
0000
1000
0000
0000
1000
0000
0000
1000
0000
0001
0000
0000
0001
0000
0000
0001
0000
,
0100
0000
0200
0310
0000
0000
0000
1000
0000
0100
0000
0010
0000
0001
0000
1001
,
0000
0000
0000
0001
1000
0001
1000
0001
0000
0000
0000
0200
0000
0000
0000
0300
,
0000
0000
0000
0000
0000
0000
0010
0000
0000
0010
0000
0000
0010
0000
1000
0000
0000
1000
0000
0000
1000
0000
0100
0000
0000
0100
0000
0000
0100
0000
0010
0000
,
0001
0000
0100
0000
0000
0000
0110
0000
0000
0000
1000
0000
0000
1000
0000
0000
1000
0000
0100
0000
0000
0100
0000
0000
0100
0000
0001
0000
0000
0001
0000
0000
,
0001
0010
0000
0100
0000
0010
0000
0000
0000
0001
0000
0100
0000
0001
0000
0000
,
0000
1000
0000
0100
0000
0010
0000
0000
0000
0001
0000
0010
0000
0200
0000
1300
,
0000
0000
0001
0100
0000
0000
0000
0001
0000
0000
1000
0100
0000
0000
0000
1000
,
0000
0000
0000
0000
0000
0000
0100
0000
0000
0010
0000
0000
0000
0000
0000
0000
0000
0000
0000
0000
0000
0001
0000
0000
0000
0100
0000
0000
0000
0001
0000
0000
0000
0100
0000
0000
0000
0000
0000
0100
0000
0000
0000
0000
0000
0010
0000
0000
,
0000
0010
0000
1000
0000
1000
0000
1010
0000
0001
0000
0001
0000
0010
0000
0010
,
0000
0100
0000
0100
0000
0110
0000
0010
0000
0010
0000
0100
0000
0100
0000
0001
,
1000
0001
0000
1000
0001
1000
0000
1001
0000
0000
0000
0000
0000
0000
0000
0000
,
0000
0001
0010
0000
0001
0010
0000
0000
0000
0001
0100
0000
0001
0100
0000
0000
,
0000
0010
1000
0000
0010
1000
0000
0000
0000
0001
1000
0000
0001
1000
0000
1000
,
0010
0000
1000
0010
0000
0000
0000
1000
0100
0000
1000
0100
0000
0000
0000
0010
,
0001
0000
0010
0001
0000
0000
0000
1000
0001
0000
1000
0010
0010
0100
0010
0100
,
0000
0110
0000
0000
0000
0010
1000
0010
0000
1010
0000
0000
0000
1000
0001
1000
,
0000
1001
0000
0000
0000
0001
0010
0001
0000
0011
0000
0000
0000
0001
0000
0010
,
0000
1000
0000
0010
0000
0001
1000
0001
0000
1000
0001
1000
0000
1001
0000
0000
,
0000
0001
0000
0010
0000
0100
0000
0000
0000
0001
0000
0100
0000
0010
0000
0000
,
0000
0001
0000
0100
0000
0010
0000
0000
0000
0100
0010
0100
0000
0110
0000
0000
,
0000
1000
0000
0010
0000
0100
0000
0000
0000
1000
0000
0100
0000
0010
0000
0000
,
0000
1000
0000
0100
0000
0010
0000
0100
0000
0010
0100
0010
0100
0010
0000
0001
,
0000
0100
0000
0001
0000
0000
0000
0100
0000
1000
0000
0100
0000
0000
0000
1000
,
0000
0010
0000
1000
0000
0000
0000
0010
0000
0001
0000
0010
0000
0000
0000
0001
,
0010
1010
0000
1000
0010
0011
0000
0100
1000
0001
1000
1001
0000
0000
0000
0001
,
0000
0100
0000
0010
0000
0100
0000
1000
0000
0100
0000
0010
1000
0010
0000
1000
,
0000
0100
0000
0010
0000
0100
0000
0001
0000
0100
0000
0010
0001
0010
0000
0001
,
0000
0100
0000
0001
0000
0100
0000
1000
0000
0100
0000
0001
1000
0001
0000
1000
,
0000
0100
0000
0101
0000
0000
0000
0001
0000
0100
0000
1100
0000
0010
0000
1000
,
0000
0100
0000
0011
0000
0010
0000
0001
0000
0100
0000
1010
0000
0010
0000
1000
,
0000
0100
0000
0011
0000
0010
0000
0001
0000
0100
0000
1010
0000
0001
0000
0010
,
0000
0001
0000
0100
0000
0010
0000
0100
0000
0001
0000
0010
0000
1000
0000
0001
,
0000
0100
0000
1000
0000
1001
0000
1001
0000
0000
0000
1100
0000
0010
0000
0011
,
0000
0000
0000
1000
0000
1010
0000
0000
0000
1010
0000
0100
0000
0101
0000
0000
,
0000
0001
0000
0101
0000
0000
0000
0010
0000
1010
0000
0100
0000
0101
0000
0110
,
0000
1001
1000
0010
0000
1000
0010
0000
1000
0010
0000
0200
0000
0000
0310
0000
,
0000
1010
0010
0011
0000
1000
1100
0000
,
0101
0000
0100
0000
1100
0000
0000
0000
0001
0000
0011
0000
1010
0100
0000
0000
,
0000
0110
0000
0000
0000
1000
0000
0010
0000
0000
0000
0010
0000
0100
0000
0100
,
0010
0100
0000
0000
0001
0000
0000
1000
0000
2002
0000
0000
0000
0000
0000
0000
,
0000
0000
0000
0000
0000
3003
0000
0000
0000
0220
0000
0000
0000
0000
0000
0000
,
0000
0330
0000
0000
0000
0110
0000
0000
0000
1001
0000
0000
0000
0000
0000
0000
,
0000
0000
0000
0000
;
#NOTES:
     dance-single:
     :
     Hard:
     17:
     :
0000
0000
0000
0000
,
0000
0000
0000
0000
,
0000
0000
0000
0000
,
0000
0000
0000
0000
,
0000
0000
0000
0000
,
1001
0000
0001
0010
0000
0010
0100
0000
1100
0000
1000
0010
0000
0010
0100
0000
,
0101
0000
0001
1000
0000
1000
0100
0000
0110
0000
0010
0001
0000
0001
1000
0000
,
0001
0010
0100
0000
1000
0010
0100
0000
0001
0010
0001
0010
0100
1000
0100
0010
,
0001
0000
0000
0000
1001
0000
0000
0000
1000
0100
0010
0000
0001
0010
0100
0000
,
1100
0000
1001
0000
0010
0000
0100
0001
1000
0000
0010
1000
0001
0000
0101
0000
,
0110
0000
1100
0000
0101
0000
1000
0000
0100
0000
0010
0001
0100
0000
0110
0000
,
0001
0000
0100
0000
0010
1000
0100
0000
0010
0001
0100
0000
0110
0000
0000
0000
,
0001
1000
0010
0000
0100
0001
1000
0100
1000
0000
0110
0000
1001
0000
1000
0001
,
0010
0000
0100
1000
0001
0100
0001
0000
0110
0010
0100
0000
0110
0000
1000
0100
,
0010
0000
0001
0000
0010
0000
0001
0000
0000
1001
0000
0000
0000
0000
0000
0001
0000
0000
0100
0000
0000
0200
0000
0000
,
0010
0000
0000
0000
0000
0000
0010
0000
0000
0000
0000
0000
0310
0000
0000
0000
0110
0000
0000
0000
1000
0100
1000
0000
0001
0100
0001
0100
0001
0000
0110
0000
,
0000
0000
0010
0000
1000
0010
1000
0000
0001
0010
0001
0010
0001
0000
1001
0000
0010
1010
0100
0101
1000
0000
0000
0000
0000
0000
0000
0000
0100
0000
0000
0000
,
0001
0000
0100
1000
0000
0010
0001
0000
,
0010
1000
0000
1100
0000
1001
0000
1010
,
0000
0000
0000
0110
0000
0000
0000
0000
0000
1001
0000
0000
1000
0100
0010
0001
0010
0001
0010
0100
0010
0100
1000
0100
,
1000
0000
0001
0000
1000
0000
0001
0000
0100
0000
0001
0000
0100
0000
0000
0010
0000
0000
0110
0000
0000
0000
0000
0000
0000
0000
0000
0000
0000
0000
1000
0000
0000
0000
0000
0000
0010
0000
0000
0000
0000
0000
0000
0000
0000
0000
0000
0000
,
0001
0010
0000
1000
0100
0000
0001
0100
,
0000
1100
0000
0000
0000
1010
0000
0101
,
0000
1000
0100
0010
0000
0000
1001
0000
,
0000
0000
0000
0000
0110
0000
0000
0000
1000
0000
0100
0010
0000
0100
1000
0000
0001
0100
0000
0010
0000
0100
0001
0000
1000
0001
0000
0010
0000
0001
1000
0000
,
0001
0100
0000
0010
0100
0100
0010
0000
0000
0000
0110
0000
0000
0000
1000
0000
0100
0000
1000
0000
0000
0000
0001
0000
0100
0000
0010
0000
0100
0000
0001
0000
,
0000
1001
0000
1000
0100
0010
0100
1000
0000
0001
0000
1001
0000
0001
1000
0000
,
1000
0000
0100
0000
0000
0000
0010
0001
0000
1000
0000
0001
0010
0000
0100
1000
0000
0010
0000
1000
0100
0000
0100
1000
0000
0010
0000
1000
0100
0000
1000
0010
,
0100
0000
0000
0000
0000
0000
0000
0000
0000
0000
0000
0000
0001
0000
0000
0000
0000
0000
0010
0000
0000
0000
0000
0000
0100
0000
0000
0000
0000
0000
0000
0000
0000
0000
0000
0000
1000
0000
0000
0001
0000
0000
0010
0000
0000
0100
0000
0000
1000
0000
0000
0000
0010
0000
0000
0000
0100
0000
0000
0000
0001
0000
0000
0000
0000
0000
0000
0000
0000
0000
0000
0000
1000
0000
0000
0000
0000
0000
0100
0000
0000
0000
0000
0000
0000
0000
0000
0000
0000
0000
0100
0000
0000
0000
0000
0000
0010
0000
0000
0000
0000
0000
0000
0000
0000
0000
0000
0000
1001
0000
0000
0000
0000
0000
0000
0000
0000
0000
0000
0000
0100
0000
0000
0000
0000
0000
0010
0000
0000
0000
0000
0000
0000
0000
0000
0000
0000
0000
0010
0000
0000
0000
0000
0000
1000
0000
0000
0000
0000
0000
0000
0000
0000
0000
0000
0000
0110
0000
0000
0000
0000
0000
0000
0000
0000
0000
0000
0000
0001
0000
0000
0000
0000
0000
0100
0000
0000
0000
0000
0000
0000
0000
0000
0000
0000
0000
0100
0000
0000
0000
0000
0000
,
0010
1000
0100
1000
0100
0000
0001
0100
0000
1000
0010
1000
0010
0000
0001
0010
,
0000
0000
1000
0000
0100
0000
0010
0000
0001
0000
0000
0000
0001
0000
0010
0000
0000
0000
0001
0000
0100
0000
0001
0000
0100
0000
1000
0100
0000
0100
0001
0000
,
0000
0000
0001
0100
0000
1001
0000
0001
1000
0100
1000
0001
0000
1001
0000
1000
,
0001
0000
0000
0100
0000
0000
0001
0000
0000
1000
0000
0000
0000
0000
0000
0010
0000
0000
0000
0000
0000
0100
0000
0000
0000
0100
0000
0000
0000
0100
0000
0000
0000
0001
0000
0000
0000
0000
0000
0010
0000
0000
0000
0000
0000
0100
0000
0000
,
0000
1000
0000
0010
0000
0100
0000
0001
0000
1000
0000
0100
0000
0010
0000
0001
,
0000
0100
0000
0010
0000
1000
0000
0010
1000
0010
1000
0001
0100
0001
0100
0010
,
1000
0000
0000
0100
0000
0000
0010
0000
0000
0001
0000
0000
0100
0000
0000
0010
0000
0000
1000
0000
0000
0020
0000
0000
0000
0000
0000
0100
0000
0000
0000
0100
0000
0000
0000
0100
0000
0000
0000
0100
0000
0000
0000
0100
0000
0000
0000
0100
,
0000
0130
0001
0000
0001
0000
0100
0001
0000
1000
0100
0000
0100
0000
1000
0100
,
0000
0010
0001
0000
0001
0000
0010
0001
0000
1000
0010
0000
1000
0010
0000
0001
,
0010
0000
0010
0000
0001
0010
0000
0100
1000
0000
1000
0000
0100
1000
0000
0010
,
1000
0000
1000
0000
0010
1000
0000
0001
0100
0000
0100
0001
0001
1001
0000
1000
,
0010
0000
0010
0100
0000
1001
0000
0001
0010
0000
0010
0100
0000
1001
0000
1000
,
0100
0000
0010
0001
0000
1001
0000
0001
0100
0000
0010
1000
0000
1000
0100
0010
,
0001
0100
0010
1000
0010
0100
0001
0010
0100
1000
0010
0100
0001
1000
0000
0000
,
0000
1000
0100
1000
0100
0000
0001
0100
0000
0010
0001
0000
1001
0000
0010
0100
,
0000
0001
0010
0001
0010
0000
1000
0010
0000
0100
1000
0000
1001
0000
0100
0010
,
0000
0100
0010
0100
0010
0000
0001
0010
0000
1000
0001
0000
1001
0000
0001
0100
,
0000
1001
0000
1000
0100
0000
0100
0010
0000
1001
0000
0001
1000
0100
0000
0001
,
0010
0001
0010
0000
1000
0010
0000
0100
1000
0000
1001
0000
1000
0010
0000
1000
,
0100
1000
0100
0000
0001
0100
0000
0010
0001
0000
1001
0000
0001
0100
0000
0001
,
0100
0010
0000
0010
1000
0000
1000
0001
0000
0011
0000
0100
0001
0000
0010
0000
1010
0000
1100
0000
0101
0000
0001
0010
0100
0000
1000
0100
0010
0100
1000
0000
,
0000
0001
0100
0010
0000
1000
0100
0010
0000
0001
0100
0010
0000
1000
0100
0010
,
0000
0001
0010
0100
0000
0010
0100
1000
0000
0100
1000
0010
0000
0100
0001
0010
,
0000
0001
0010
0100
0000
0010
0001
0100
0000
0010
1000
0010
0000
0100
0001
0010
,
0000
0100
0010
0000
0001
0100
0000
0010
1000
0010
0100
0010
0000
1000
0010
0100
,
0000
0010
1000
0010
0000
0100
0001
0010
0000
0100
1000
0010
0000
0100
0010
1000
,
0000
0001
0010
0100
0000
1000
0100
0010
0000
0001
0010
0100
1000
0010
1000
0010
,
1000
0001
0100
0001
0100
0001
0010
0100
1000
0010
0100
0001
0010
0100
0000
1100
,
0000
0001
0000
0101
0000
1001
0000
0010
0000
0100
0000
0001
0010
1000
0000
0001
,
0100
1000
0000
0001
0000
1001
0000
0110
0000
1000
0010
0001
0000
1000
0100
0001
,
0000
1000
0000
1001
0000
1010
0000
0101
0000
1000
0100
0001
0000
1000
0010
0100
,
0010
0001
0001
0100
0000
0100
1000
0000
1000
0010
0000
0002
0000
0000
1003
0000
,
0000
0000
0100
0001
0010
0000
1000
0010
0100
0010
0001
0000
1001
0000
0110
0000
,
0010
0000
0000
1000
0000
0000
0100
0000
0000
0000
0000
0000
0001
0000
0000
0100
0000
0000
0010
0000
0000
0100
0000
0000
1000
0000
0000
0000
0000
0000
1001
0000
0000
0000
0000
0000
0010
0000
0000
1000
0000
0000
0000
0100
0000
0000
0000
0100
,
0000
0000
0000
0001
0000
0000
0000
0010
0000
0000
0000
0010
0000
0000
0000
0100
0000
0000
0000
0000
0000
0110
0000
0000
0000
0000
0000
0000
0000
0000
0000
0000
0000
0001
0000
0000
0000
0000
0000
1000
0000
0000
0000
0000
0000
0100
0000
0000
,
0010
0001
0000
0000
1000
0000
0000
0010
0000
0220
0000
0000
0000
0000
0000
0000
,
0000
0000
0000
0000
0000
0330
0000
0000
0000
2002
0000
0000
0000
0000
0000
0000
,
0000
3003
0000
0000
0000
0010
0000
0000
0000
1001
0000
0000
0000
0000
0000
0000
,
0000
0000
0000
0000
;
#NOTES:
     dance-double:
     :
     Easy:
     9:
     :
00000000
00000000
00000000
00000000
,
00000000
00000000
00000000
00000000
,
00000000
00000000
00000000
00000000
,
00000000
00000000
00000000
00000000
,
00000000
00000000
00000000
00000000
,
00000001
00000100
00000001
00000100
,
00000010
00010000
00000010
00010000
,
00001000
00000000
00010000
00000000
00001000
00010000
00001000
00000000
,
00022000
00033000
00001000
00100000
,
00020000
00030000
00000000
10000000
00000000
00100000
00000000
02000000
,
03000000
00000000
00100000
00000000
10000000
00000000
02000000
03000000
,
00000000
00010000
00000000
00001000
00000000
00000000
00000000
00000000
,
00001000
00000000
00010000
00000000
00000020
00000030
00000000
00001000
,
00000000
00000001
00000000
00000020
00000030
00000000
00000001
00000000
,
00000100
00000001
00000100
00001000
,
00000100
00001000
00010000
00010000
,
00100000
00000000
00100000
00000000
10000000
10000000
00000000
00000000
,
00000000
01000000
00000000
00000000
00000000
00100000
00000000
00000000
,
00000000
00010000
00000000
00000000
00000000
00100000
00000000
00000000
,
00000000
01000000
00000000
00010000
00000000
00001000
00000000
00010000
,
00000000
00000100
00000000
00000010
00000000
00000000
00000000
00000001
,
00000000
00000000
00000000
00001000
00000000
00000000
00000000
00000100
,
00000000
00000000
00000000
00000010
00000000
00000000
00000000
00000100
,
00000000
00000000
00000000
00001000
00000000
00000000
00000000
00000001
,
00000000
00000000
00000100
00000100
00000010
00000010
00010000
00010000
,
00001000
00000000
00001000
00010000
00000000
00000000
00000000
00100000
00000000
00000000
00000000
10000000
00000000
00000000
00000000
00100000
,
00000000
00000000
00000000
00010000
00000000
00000000
00000000
00000000
00000000
00000000
00000000
00022000
00000000
00000000
00000000
00033000
,
00000000
00000000
00000000
00100000
00000000
00100000
00000000
00010000
00000000
00010000
00000000
10000000
00000000
10000000
00000000
01000000
,
00000000
00000000
00000000
01010000
00000000
00011000
00000000
00000000
00000000
00001010
00000000
00000000
00000000
00001010
00000000
00000000
,
00000000
00000100
00000000
00000000
00000000
00000010
00000000
00000000
00000000
00001000
00000000
00000000
00000000
00000010
00000000
00000000
,
00000000
00000100
00000000
00000000
00000000
00000001
00000000
00000000
00000000
00002000
00000000
00000000
00000000
00003000
00000000
00010000
,
00000000
00000000
00000000
01000000
00000000
00000000
00000000
10000000
00000000
00000000
00000000
01000000
00000000
00000000
00000000
00010000
,
00000000
00000000
00000000
00000000
00000000
00000000
00000000
00021000
00000000
00000000
00000000
00031000
00000000
00000000
00000000
00000010
,
00000000
00000000
00000000
00000001
00000000
00000000
00000000
00000000
00000000
00000001
00000000
00000000
00000000
00000100
00000000
00000000
,
00000000
00001000
00000000
00000000
00000000
00000000
00000000
00010000
00000000
00000000
00000000
00100000
00000000
00000000
00000000
10000000
,
00000000
00000000
00000000
00100000
00000000
00000000
00000000
00010000
00000000
00000000
00000000
00000000
00000000
00000000
00000000
00000000
,
00000000
00001000
00000000
00000000
00000000
00010000
00000000
00000000
00000000
00011000
00000000
00000000
00000000
00000000
00000000
00000000
,
00000000
00010000
00000000
00000000
00000000
00001000
00000000
00000000
00000000
00011000
00000000
00000000
00000000
00000000
00000000
00000100
,
00000000
00000000
00000000
00000010
00000000
00000000
00000000
00000110
00000000
00000000
00000000
00000000
00000000
00000000
00000000
00000010
,
00000000
00000000
00000000
00000100
00000000
00000000
00000000
00000110
00000000
00000000
00000000
00000000
00000000
00000100
00000000
00000000
,
00000000
00010000
00000000
00000000
00000000
00001000
00000000
00000000
00000000
00100000
00000000
00000000
00000000
00010000
00000000
00000000
,
00000000
10000000
00000000
00000000
00000000
00100000
00000000
00000000
00000000
10000000
00000000
00000000
00000000
00100000
00000000
01000000
,
00000000
00100000
00000000
00000000
00000000
01000000
00000000
00100000
00000000
01000000
00000000
00000000
00000000
01100000
00000000
00000000
,
00000000
10000000
00000000
00000000
00000000
01000000
00000000
00000000
00000000
00100000
00000000
00000000
00000000
00010000
00000000
00000000
,
00000000
01000000
00000000
00000000
00000000
00100000
00000000
00000000
00000000
00010000
00000000
00000000
00000000
00100000
00000000
00000000
,
00000000
00010000
00000000
00000000
00000000
00010000
00000000
00000000
00000000
00001000
00000000
00000000
00000000
00001000
00000000
00000000
,
00000000
00000100
00000000
00000000
00000000
00000010
00000000
00000000
00000000
00001000
00000000
00000000
00000000
00000000
00000000
00000001
,
00000000
00000000
00000000
00000100
00000000
00000000
00000000
00000010
00000000
00000000
00000000
00001000
00000000
00000000
00000000
00000001
,
00000000
00000000
00000000
00000010
00000000
00000000
00000000
00001000
00000000
00000000
00000000
00000010
00000000
00000000
00000000
00000001
,
00000000
00000001
00000000
00000100
00000000
00000000
00000000
00001000
00000000
00001000
00000000
00010000
00000000
00000000
00000000
00010000
,
00000000
00000000
00000000
01000000
00000000
00000000
00000000
00010000
00000000
00000000
00000000
01000000
00000000
00000000
00000000
10000000
,
00000000
00000000
00000000
00100000
00000000
00000000
00000000
10000000
00000000
00000000
00000000
00100000
00000000
00000000
00000000
00010000
,
00000000
00000000
00000000
00100000
00000000
00000000
00000000
00010000
00000000
00000000
00000000
00001000
00000000
00000000
00000000
00000100
,
00000000
00000000
00000000
00000001
00000000
00000000
00000000
00000100
00000000
00000001
00000000
00000100
00000000
00001000
00000000
00000000
,
00000000
00010000
00000000
00000000
00000000
00001000
00000000
00000000
00000000
00010000
00000000
00000000
00000000
01000000
00000000
00000000
,
00000000
10000000
00000000
00000000
00000000
01000000
00000000
00000000
00000000
10000000
00000000
00000000
00000000
00100000
00000000
01000000
,
00000000
00100000
00000000
00000000
00000000
01000000
00000000
00001000
00000000
01000000
00000000
00000000
00000000
00001000
00000000
00010000
,
00000000
00001000
00000000
00000000
00000000
00011000
00000000
00000000
00000000
00000000
00000000
00000001
00000000
00000000
00000000
00002000
,
00000000
00000000
00000000
00000100
00000000
00003100
00000000
00000000
00000000
00000100
00000000
00000000
00000000
00020000
00000000
00000000
,
00000000
00001000
00000000
00031000
00000000
00000000
00000000
00001000
00000000
00000000
00000000
02000000
00000000
00000000
00000000
00100000
,
00000000
03100000
00000000
00000000
00000000
10000000
00000000
00000000
00000000
00200000
00000000
00000000
00000000
00000000
10300000
00000000
,
00000000
01000000
00000000
00100000
00000000
00010000
00000000
00000000
,
00001000
00000000
00000000
00000000
00000100
00000000
00000000
00000000
00000010
00000000
00000000
00000000
00000000
00000001
00000000
00000000
,
00000000
00000100
00000000
00000000
00000000
00001000
00000000
00001000
00000000
00000000
00000000
00000000
00000000
00011000
00000000
00000000
,
00000000
00110000
00000000
00000000
00000000
01100000
00000000
00000000
00000000
20020000
00000000
00000000
00000000
00000000
00000000
00000000
,
00000000
00000000
00000000
00000000
00000000
30030000
00000000
00000000
00000000
01100000
00000000
00000000
00000000
00000000
00000000
00000000
,
00000000
00000000
00000000
00000000
00000000
00110000
00000000
00000000
00000000
00011000
00000000
00000000
00000000
00000000
00000000
00000000
,
00000000
00000000
00000000
00000000
;
#NOTES:
     dance-double:
     :
     Medium:
     14:
     :
00000000
00000000
00000000
00000000
,
00000000
00000000
00000000
00000000
,
00000000
00000000
00000000
00000000
,
00000000
00000000
00000000
00000000
,
00000000
00000000
00000000
00000000
,
00100000
10000000
01000000
00000000
00100000
00010000
00100000
00000000
,
01000000
10000000
00100000
00000000
01000000
00010000
01000000
00000000
,
00100000
10000000
00010000
00100000
00001000
00010000
00001000
00000100
,
00001000
00000000
00010000
00000100
00000010
00000000
00000001
00000010
,
00000100
00000010
00000001
00001000
00000000
00000001
00000100
00000010
,
00001000
00000010
00001000
00000000
00000100
00010000
00001000
00010000
,
00001000
00100000
00010000
10000000
00100000
01000000
01100000
00000000
,
10000000
01000000
00100000
00010000
00100000
00010000
00100000
00001000
,
00000000
00010000
00001000
00010000
00001000
00000100
00001000
00000000
,
00000100
00000010
00000100
00000010
00000000
00000001
00000010
00000000
,
00000200
00000000
00000000
00000000
00000310
00000001
00000100
00001000
,
00010000
00000000
00000000
00000000
00100000
00000000
00000000
00000000
10000000
00000000
00000000
00000000
01000000
00000000
00000000
00000000
00010000
00001000
00010000
00000000
00001000
00000000
00000000
00000000
00000000
00000000
00000000
00000000
00100000
00000000
00000000
00000000
,
00001000
00000000
01000000
00001000
00000000
00100000
00001000
00000000
,
01000000
00001000
00000000
00100000
00000000
00010000
00000000
10000000
,
00000000
00200000
00000000
10300000
01000000
00010000
00001000
00000010
,
00000001
00000100
00001000
00010000
00000000
00000010
00010000
00000000
,
00000100
00010000
00000000
00000010
00010000
00000000
00000100
00010000
,
00000000
00011000
00000000
00000000
00000000
00100000
00000000
00010000
,
00000000
10000000
01000000
10000000
00000000
00000000
02000000
00000000
,
00000000
03200000
00302000
00003200
,
00000302
00000000
00000000
00000013
00000000
00000100
00000000
00001000
00000000
00000010
00000000
00010000
00000000
00001000
00000000
01000000
,
00000000
00100000
00000000
00010000
00000000
00001000
00000000
00000100
00000000
00000010
00000000
00000200
00000000
00000000
00000000
00000300
,
00000000
00000000
00000000
00000020
00000000
00000000
00000000
00002030
00000000
00000000
00000000
02003000
00000000
00000000
00000000
23000000
,
00000000
00000000
00000000
30100000
00000000
10010000
00000000
00000000
00000000
00011000
00000000
00000000
00000000
00001001
00000000
00000000
,
00000000
00000001
00000000
00000100
00000000
00001000
00000000
00000000
00000000
00001000
00000000
00000100
00000000
00000001
00000000
00000000
,
00000000
00000001
00000000
00000010
00000000
00001000
00000000
00000000
00000000
00010000
00000000
01000000
00000000
10000000
00000000
10000000
,
00000000
00100000
00000000
01000000
00000000
00001000
00000000
00010000
00000000
01000000
00000000
00010000
00000000
00001000
00000000
00010000
,
00000000
00100000
00000000
10000000
00000000
00100000
00000000
00001000
00000000
00000000
00000000
00000001
00000000
00000001
00000000
00000100
,
00000000
00000100
00000000
00000010
00000000
00000000
00000000
00001001
00000000
00000100
00000000
00000100
00000000
00010000
00000000
00010000
,
00000000
00001000
00000000
00000000
00000000
01010000
00000000
00100000
00000000
00100000
00000000
01000000
00000000
01000000
00000000
00010000
,
10000000
00010000
10000000
00010000
10000000
00010000
10000000
00010000
00000000
00000000
00000000
00000000
00000000
00000000
00000000
00000000
,
00000000
00001000
00000100
00000000
00000010
00000000
00000000
00000010
00000000
00000001
00000100
00000000
00001000
00000000
00000000
00001000
,
00000000
00010000
01000000
00000000
00100000
00000000
00000000
00100000
00000000
00010000
10000000
00000000
00010000
01000000
00000000
10000000
,
01000000
00000000
00100000
00000000
00000000
00100000
00000000
10000000
01000000
00000000
00100000
00000000
00000000
00100000
00000000
00010000
,
00001000
00000000
00000100
00000000
00000000
00000100
00000000
00000010
00000001
00000000
00001000
00000001
00000000
00000010
00000000
00000001
,
00000000
00000100
00000000
00000001
00000000
00000010
00000000
00001000
00000000
00010000
00000000
01000000
00000000
10000000
00000000
00100000
,
00000000
10000000
00000000
01000000
00000000
10000000
00000000
00100000
00000000
00010000
00000000
00001000
00000000
00000100
00000000
00000001
,
00000000
00000010
00000000
00000001
00000000
00000100
00000000
00001000
00000000
00010000
00000000
00000000
00000000
00011000
00000000
00000000
,
00000000
00001000
00000000
01000000
00000000
00010000
00000000
00100000
00000000
01000000
00000000
00001000
00000000
01000000
00000000
10000000
,
00000000
00100000
00000000
01000000
00000000
00001000
00000000
00010000
00000000
00001000
00000000
00000010
00000000
00001000
00000000
00010000
,
00000000
00000100
00000000
00001000
00000000
00000010
00000000
00000100
00000000
00010000
00000000
00000100
00000000
00000010
00000000
00001000
,
00000000
00000001
00000000
00000010
00000000
00001000
00000000
00000001
00000000
00000100
00000000
00010000
00000000
00001000
00000000
00010000
,
00000000
00000010
00000000
00001000
00000000
00000100
00000000
00000010
00000000
00010000
00000000
00000010
00000000
00000001
00000000
00000100
,
00000000
00000010
00000000
00010000
00000000
00001000
00000000
00010000
00000000
01000000
00000000
00010000
00000000
00001000
00000000
00100000
,
00010000
01000000
00100000
00001000
00100000
01000000
00010000
10000000
01000000
00010000
10000000
00100000
00001000
00010000
00000000
00001000
,
00000000
00000010
00000000
00000100
00000000
00001000
00000000
00000010
00000100
00000010
00000000
00000100
00000001
00000100
00000000
00000001
,
00000000
00000010
00000000
00001000
00000000
00000010
00000000
00000100
00001000
00000100
00000000
00001000
00000010
00001000
00000000
00000010
,
00000000
00000100
00000000
00001000
00000000
00010000
00000000
00100000
01000000
00100000
00000000
10000000
00100000
10000000
00000000
01000000
,
00000000
00010000
00000000
01000000
00000000
00100000
00000000
00001000
00010000
00001000
00010000
00001000
00000000
00010000
00000000
01000000
,
00000000
00100000
00000000
00010000
00000000
01000000
00100000
01000000
00000000
00100000
10000000
00100000
00000000
10000000
00000000
01000000
,
00000000
00010000
00000000
01000000
00000000
00100000
00010000
00100000
00000000
00010000
01000000
00010000
00000000
01000000
00000000
00100000
,
00000000
00010000
00000000
00001000
00000000
00000100
00000010
00000100
00000000
00000001
00000100
00000001
00000000
00000010
00000000
00000010
,
00000000
00000010
00000000
00000010
00000000
00000010
00000000
00000001
00000000
00000100
00000000
00000010
00001000
00000010
00000000
00000100
,
00000001
00000100
00000000
00000010
00000000
00001000
00000000
00000100
00000000
00010000
00001000
00010000
00000000
00001000
00010000
00001000
,
00000000
00100000
00000000
00010000
00000000
01000000
00000000
00100000
10000000
00100000
00000000
01000000
00010000
01000000
00000000
00010000
,
00000000
10000000
01000000
00010000
00000000
00010000
00001000
00000000
00001000
00000010
00000000
00000002
00000000
00000000
00001003
00000000
,
00000000
00000001
00000010
00001000
00010000
00001000
00000100
00000100
,
00001000
00000000
00010000
00000000
00100000
00000000
10000000
00000000
01000000
00000000
10000000
00000000
01000000
00010000
00000000
00010000
,
00000000
00001000
00000000
00001000
00000000
00000001
00000000
00001001
00000000
00000000
00000000
00001000
00000000
00010000
00000000
00000000
,
00000000
01000000
00000000
00000000
00100000
00000000
00000000
01000000
00000000
02200000
00000000
00000000
00000000
00000000
00000000
00000000
,
00000000
00000000
00000000
00000000
00000000
03300000
00000000
00000000
00000000
10010000
00000000
00000000
00000000
00000000
00000000
00000000
,
00000000
00000000
00000000
00000000
00000000
00001000
00000000
00000000
00000000
00011000
00000000
00000000
00000000
00000000
00000000
00000000
,
00000000
00000000
00000000
00000000
;
#NOTES:
     dance-double:
     :
     Hard:
     17:
     :
00000000
00000000
00000000
00000000
,
00000000
00000000
00000000
00000000
,
00000000
00000000
00000000
00000000
,
00000000
00000000
00000000
00000000
,
00000000
00000000
00000000
00000000
,
00000011
00000000
00000001
00000010
00000000
00000010
00000001
00000000
00000101
00000000
00000100
00000010
00000000
00000010
00000100
00000000
,
00001100
00000000
00001000
00010000
00000000
00010000
00001000
00000000
00101000
00000000
00100000
01000000
00000000
01000000
00100000
00000000
,
00010000
00100000
00010000
00100000
01000000
10000000
01000000
10000000
00100000
01000000
00100000
01000000
00001000
00010000
00001000
00010000
,
00001000
00000000
00000000
00000000
00010000
00000000
00001000
00000000
00000010
00000100
00000010
00000000
00000001
00000100
00000001
00000000
,
00000010
00000000
00000110
00000000
00001000
00000100
00000010
00000100
00001000
00000000
00000010
00010000
00001000
00010000
00001000
00000000
,
00011000
00000000
00001000
00100000
00001000
00000000
01000000
00010000
01000000
00000000
00010000
10000000
00010000
00000000
10010000
00000000
,
10000000
01000000
00100000
00000000
00010000
01000000
00100000
00000000
01000000
00001000
00010000
00000000
00011000
00000000
01000000
00000000
,
00100000
01000000
00010000
00000000
10000000
00100000
10000000
00100000
10000000
00000000
11000000
00000000
00100000
00010000
01000000
00000000
,
00001000
00000000
00010000
00000100
00010000
00001000
00010000
00000000
00010010
00001000
00000100
00000000
00000010
00000001
00000010
00000100
,
00010000
00001000
00010000
00000100
00001000
00000000
00000200
00000000
00000000
00000000
00000010
00000000
00000310
00000000
00000000
00000000
,
00000001
00000000
00000000
00000000
00000100
00000000
00001000
00000000
00000000
00000000
00001000
00000000
00010000
00000000
00000000
00000000
01100000
00000000
00000000
00000000
10000000
01000000
00100000
01000000
10000000
01000000
00100000
01000000
10000000
00000000
00100000
00000000
,
00010000
00000000
00001000
00000000
00000010
00000001
00000010
00000100
00000010
00000001
00000010
00000100
00000010
00000001
00000010
00000000
00000001
00000001
00001000
00001000
00000001
00000000
00000000
00000000
00000000
00000000
00000000
00000000
00000010
00000000
00000000
00000000
,
00000001
00000000
00000010
00000100
00000000
00010000
00000100
00000000
,
00010000
00001000
00000000
00100000
00010000
10000000
01000000
10000000
,
00010000
00000000
00000000
10000000
00000000
00000000
00000000
00000000
00000000
10010000
00000000
00000000
00100000
10000000
00100000
01000000
00001000
01000000
00001000
01000000
00001000
00010000
00000010
00010000
,
00000010
00010000
00000010
00001000
00000100
00001000
00000100
00001000
00000100
00000010
00000000
00000000
00000000
00000000
00000000
00000001
00000000
00000000
00000010
00000000
00000000
00000000
00000000
00000000
,
00000100
00001000
00000000
00000010
00010000
00000000
00001000
00010000
,
00000000
00011000
00000000
00000000
00000000
00010000
00100000
00010000
,
01000000
00100000
01000000
00100000
00000000
10000000
01000000
00000000
,
00100000
00000000
00000000
00000000
01000000
00000000
00000000
00000000
10000000
00000000
00100000
01000000
00000000
00010000
01000000
00000000
00010000
00100000
00000000
00001000
00000000
00010000
00001000
00000000
00010000
00001000
00000000
00000010
00000000
00000100
00000010
00000000
,
00000001
00001000
00000001
00001000
00000002
00000000
00001003
00000000
00000010
00000000
00000100
00000000
00000010
00000000
00001000
00000000
00000100
00000000
00001000
00000000
00000000
00000000
00000100
00000000
00010000
00000000
00001000
00000000
00010000
00000000
00000010
00000000
,
00010000
00001000
00000000
00000010
00000100
00000010
00000100
00001000
00000001
00001000
00000001
00000100
00000010
00000000
00001000
00000000
,
00000010
00000000
00000100
00000000
00000000
00000000
00000001
00000000
00000100
00000010
00000000
00001000
00000010
00000000
00001000
00000100
00000000
00010000
00000000
00001000
00010000
00000000
00001000
00010000
00000000
01000000
00000000
00100000
01000000
00000000
10000000
00010000
,
10000000
00000000
00000000
00010000
00000000
00000000
10000000
00000000
00000000
01000000
00000000
00000000
10000000
00000000
00000000
01000000
00000000
00000000
20000000
00000000
00000000
00000000
00000000
00000000
00010000
00000000
00010000
00000000
00010000
00000000
30010000
00000000
00000000
00000000
00000000
00000000
10000000
00000000
00000000
01000000
00000000
00000000
00000000
00000000
00000000
10000000
00000000
00000000
00100000
00000000
00000000
00000000
00000000
00000000
01000000
00000000
00000000
00000000
00000000
00000000
00010000
00000000
00000000
01000000
00000000
00000000
00000000
00000000
00000000
01000000
00000000
00000000
00001000
00000000
00000000
00000000
00000000
00000000
00010000
00000000
00000000
00001000
00000000
00000000
00010000
00000000
00000000
00000000
00000000
00000000
00001000
00000000
00000000
00010000
00000000
00000000
,
00001000
00010000
00000000
00000000
00010000
00001000
00000000
00001000
00000010
00001000
00000000
00000000
00000010
00000001
00000000
00000001
,
00000100
00000000
00000001
00000000
00000000
00000000
00000000
00000000
00001000
00000000
00000100
00000000
00000000
00000000
00000100
00000000
00010000
00000000
00000100
00000000
00000000
00000000
00000000
00000000
00010000
00000000
00001000
00010000
00000000
00010000
00001000
00000000
,
00000000
00100000
00010000
10000000
00100000
10000000
00000000
00010000
01000000
00010000
10000000
01000000
10000000
01000000
00000000
10000000
,
00100000
00000000
00000000
10000000
00000000
00000000
00100000
00000000
00000000
01000000
00000000
00000000
00001000
00000000
00000000
00010000
00000000
00000000
00000000
00000000
00000000
00001000
00000000
00000000
00000000
00001000
00000000
00000000
00000000
00001000
00000000
00000000
00000000
00010000
00000000
00000000
00001000
00000000
00000000
00010000
00000000
00000000
00000000
00000000
00000000
00000100
00000000
00000000
,
00001000
00000100
00000000
00000010
00000100
00000010
00000000
00000110
00000000
00000001
00000100
00000001
00000000
00000100
00000010
00000100
,
00000000
00000010
00010000
00000010
00000000
00010010
00000000
00010000
00001000
00010000
00001000
01000000
00010000
01000000
00010000
10000000
,
01000000
00100000
00010000
00100000
01000000
10000000
00010000
00200000
00000000
00001000
00000000
00000000
00000000
00301000
00000000
00000000
,
00000000
00010000
00001000
00010000
00001000
00010000
00000000
00000000
00000000
00000100
00001000
00000100
00001000
00000100
00000000
00000000
,
00000000
00000010
00000001
00000010
00000001
00000010
00000000
00000000
00000000
00000011
00000000
00000000
00000000
00000101
00000000
00000100
,
00001000
00000100
00001000
00000100
00000000
00000000
00000000
00010000
00001000
00010000
00001000
00010000
00000000
00000000
00000000
00001000
,
00100000
00001000
00100000
00001000
00000000
00000000
00000000
00110000
00000000
00100000
00000000
01000000
01000000
10000000
00100000
01000000
,
00000000
00010000
00100000
01000000
00000000
10000000
01000000
00100000
00000000
00001000
00010000
00001000
00000000
00000100
00000001
00000010
,
00000000
00000100
00001000
00000010
00000000
00001000
00000100
00000010
00000000
00000001
00001000
00000001
00000000
00000001
00000100
00000010
,
00001000
00000100
00010000
00001000
00100000
00010000
01000000
00100000
10000000
00010000
00100000
01000000
10000000
00010000
00000000
00000000
,
00000000
10000000
00000000
01000000
00010000
00000000
01000000
10000000
00000000
00100000
01000000
00000000
01100000
00000000
01000000
00001000
,
00000000
00010000
00000000
00000100
00001000
00000000
00000100
00000010
00000000
00000001
00000010
00000000
00000011
00000000
00000001
00001000
,
00000000
00000001
00000000
00000100
00001000
00000000
00000100
00000001
00000000
00000010
00000100
00000000
00000110
00000000
00000100
00010000
,
00000000
00011000
00000000
00001000
00100000
00000000
00010000
00100000
00000000
00010000
00000000
10000000
01000000
10000000
00000000
00010000
,
00000000
00100000
10000000
00000000
00100000
00010000
00000000
01000000
00010000
00000000
01010000
00000000
00001000
00010000
00000000
00000100
,
00000000
00001000
00000010
00000000
00000001
00000010
00000000
00000100
00000001
00000000
00000101
00000000
00001000
00000100
00000000
00010000
,
00001000
00100000
00000000
00001000
01000000
00000000
00010000
01000000
00000000
00100000
00000000
10000000
01000000
00000000
00010000
00000000
00001000
00000000
00000010
00000000
00000001
00000000
00000100
00000010
00000100
00000000
00000010
00000100
00000010
00000000
00000100
00000000
,
00000000
00000001
00000000
00000010
00000000
00001000
00000000
00010000
00000000
00001000
00000000
00000100
00001000
00000100
00000000
00001000
,
00000000
00010000
00000000
00100000
00000000
10000000
00000000
01000000
00000000
00010000
00000000
00001000
00010000
00001000
00000000
00010000
,
00000000
00100000
00000000
00010000
00000000
00001000
00000000
00010000
00000000
01000000
00000000
10000000
01000000
10000000
00000000
00100000
,
00000000
00010000
00001000
00000000
00001000
00000010
00000000
00000001
00000000
00000001
00001000
00001001
00000000
00000010
00000000
00000001
,
00000000
00000100
00000000
00001000
00000000
00010000
00000000
00001000
00000000
00000010
00001000
00000010
00000000
00001000
00000000
00010000
,
00000000
01000000
00000000
10000000
00000000
00100000
00000000
00010000
00000000
00001000
00010000
00001000
00000000
00010000
00000000
01000000
,
00000000
00010000
00000000
00001000
00000000
00010000
00000000
00100000
00000000
10000000
00100000
10000000
00000000
01000000
00000000
01010000
,
00000000
00001000
00000000
00011000
00000000
00011000
00000000
00001000
00000000
00000010
00000000
00000001
00000100
00001000
00000000
00010000
,
00100000
10000000
00000000
01100000
00000000
10010000
00000000
00010000
00000000
10000000
01000000
00010000
00000000
00001000
00000010
00000001
,
00000000
00000110
00000000
00001001
00000000
00001000
00000000
00000001
00000100
00001000
00000000
00010000
01000000
10000000
00000000
01100000
,
00000000
10010000
10000000
00010000
00000000
00010000
00001000
00000000
00001000
00000001
00000000
00000200
00000000
00000000
00000301
00000000
,
00001000
00000000
00000001
00000010
00000100
00001000
00010000
00100000
01000000
10000000
00010000
00000000
10010000
00000000
01000000
00000000
,
10000000
00000000
00000000
00100000
00000000
00000000
01000000
00000000
00000000
00010000
00000000
00000000
00001000
00000000
00000000
00000010
00000000
00000000
00000100
00000000
00000000
00000001
00000000
00000000
00001000
00000000
00000000
00000000
00000000
00000000
00001001
00000000
00000000
00000000
00000000
00000000
00000001
00000000
00000000
00000001
00000000
00000000
00000000
00000100
00000000
00000000
00000000
00000100
,
00000000
00000000
00000000
00001000
00000000
00000000
00000000
00010000
00000000
00000000
00000000
00010000
00000000
00000000
00000000
00100000
00000000
00000000
00000000
00000000
00000000
10010000
00000000
00000000
00000000
00000000
00000000
00000000
00000000
00000000
00000000
00000000
00000000
10000000
00000000
00000000
00100000
00000000
00000000
00010000
00000000
00000000
00000000
00000000
00000000
00001000
00000000
00000000
,
00000010
00000001
00000000
00000100
00001000
00000000
00001000
00010000
00000000
00022000
00000000
00000000
00000000
00000000
00000000
00000000
,
00000000
00000000
00000000
00000000
00000000
00033000
00000000
00000000
00000000
00011000
00000000
00000000
00000000
00000000
00000000
00000000
,
00000000
00000000
00000000
00000000
00000000
01000000
00000000
00000000
00000000
10010000
00000000
00000000
00000000
00000000
00000000
00000000
,
00000000
00000000
00000000
00000000
;
