
//----- song ID: nofn2 -----//
#TITLE:ナイト・オブ・ナイツ (Ryu☆Remix);
#ARTIST:Ryu☆;
#TITLETRANSLIT:Night of knights (Ryu☆Remix);
#BANNER:Night of knights (Ryu Remix).png;
#BACKGROUND:Night of knights (Ryu Remix)-bg.png;
#CDTITLE:./CDTitles/DDR A20.png;
#MUSIC:Night of knights (Ryu Remix).ogg;
#SAMPLESTART:19.766;
#SAMPLELENGTH:15;
#DISPLAYBPM:182;
#BPMS:0=183.8,4=182;
#NOTES:
     dance-single:
     :
     Beginner:
     5:
     :
0000
0000
0000
0000
,
0000
0000
0000
0000
,
0000
0000
0000
0000
,
0001
0000
0001
0000
,
1000
0000
1000
0000
,
0010
0000
0010
0000
,
1001
0000
0000
0000
,
0001
0000
0001
0000
,
0001
0000
0000
0000
,
1000
0000
1000
0000
,
1000
0000
0000
0000
,
0010
0000
0000
0000
,
0100
0000
0000
0000
,
0010
0000
0010
0000
,
0100
0100
0100
0000
,
0001
0000
1000
0000
,
0001
0001
1000
0000
,
1000
0000
0001
0000
,
1000
1000
0001
0000
,
0010
0000
0100
0000
,
0010
0010
0100
0000
,
0100
0000
0010
0000
,
0100
0100
0010
0000
,
0001
0000
0100
0000
,
0001
0001
0100
0000
,
0010
0000
1000
0000
,
0010
0010
1000
0000
,
0100
0000
1000
0000
,
0100
0100
1000
0000
,
0001
0000
1000
0000
,
1001
0000
0000
0000
,
0010
0000
0010
0000
,
0100
0000
0100
0000
,
0001
0000
0001
0000
,
1000
0000
1000
0000
,
0001
0000
0001
0000
,
0010
0000
0010
0000
,
0100
0000
0100
0000
,
1000
0000
1000
0000
,
0001
0000
0001
0000
,
0100
0100
0100
0000
,
0010
0000
0010
0000
,
1000
1000
1000
0000
,
0001
0000
0010
0000
,
0100
0100
0100
0000
,
0010
0000
0100
0000
,
0001
0001
1000
1000
,
0001
0000
0100
0000
,
0001
0000
0100
0000
,
1000
0000
0010
0000
,
1000
0000
0010
0000
,
0100
0000
0010
0000
,
0100
0000
0010
0000
,
1000
0000
0001
0000
,
1000
0000
0001
0000
,
2000
0000
3000
0000
,
0002
0000
0003
0000
,
0020
0000
0030
0000
,
0200
0000
0300
0000
,
0010
0000
0000
0000
,
0100
0000
0000
0000
,
0010
0000
0010
0000
,
0100
0100
0100
0000
,
1000
0000
0001
0000
,
1000
1000
0001
0000
,
0001
0000
1000
0000
,
0001
0001
1000
0000
,
0100
0000
0010
0000
,
0100
0100
0010
0000
,
0010
0000
0100
0000
,
0010
0010
0100
0000
,
1000
0000
0010
0000
,
1000
1000
0010
0000
,
0100
0000
0001
0000
,
0100
0100
0001
0000
,
0010
0000
0001
0000
,
0010
0010
0001
0000
,
1000
0000
0001
0000
,
1001
0000
0000
0000
,
0001
0001
0001
0000
,
0010
0010
0010
0000
,
1000
1000
1000
0000
,
0010
0010
0010
0000
,
0001
0001
0001
0000
,
0100
0100
0100
0000
,
1000
0000
0001
0000
,
0100
0100
0100
0000
,
0001
0000
0010
0000
,
0100
0100
0010
0000
,
0001
0000
1000
0000
,
0001
0001
0100
0000
,
0010
0000
0100
0000
,
0010
0010
0100
0000
,
0001
0000
1000
0000
,
0001
1000
0001
0000
,
1001
0000
0000
0000
,
0000
0000
0000
0000
;
#NOTES:
     dance-single:
     :
     Easy:
     8:
     :
0000
0000
0000
0000
,
0000
0000
0000
0000
,
0000
0000
0000
0000
,
0010
1000
0001
0100
,
0001
0010
0100
1000
,
0010
0100
0001
1000
,
1001
0000
0000
0110
,
1000
1000
0001
0001
,
0100
0100
0010
0010
,
1000
1000
0001
0001
,
0010
0010
0100
0100
,
0110
0001
1000
0001
,
1001
0100
0010
0100
,
1001
0000
0110
0000
,
1000
0100
0010
0110
,
0001
0100
0001
1000
,
0100
1000
0010
0010
,
1000
0100
1000
0001
,
0100
0001
0010
0010
,
0001
1000
0100
0010
,
0001
1000
0001
0001
,
1001
0000
0110
0000
,
1001
0110
1001
0000
,
1000
0010
1000
0001
,
0010
0001
0100
0100
,
0001
0010
0001
1000
,
0010
1000
0100
0100
,
1000
0001
0010
0100
,
1000
0001
1000
1000
,
0001
0001
1000
1000
,
1000
0100
0010
0001
,
2000
0001
0000
3001
,
0002
1000
0000
1003
,
0020
0100
0000
0130
,
0200
0010
0000
0310
,
2000
0010
0000
3001
,
0002
0010
0000
1003
,
0200
0010
0000
0301
,
0020
1000
0000
0130
,
0001
0100
0001
0100
,
0010
1000
0010
1000
,
0100
0010
0100
0010
,
0001
1000
0001
1000
,
0001
0100
0010
1000
,
0001
0100
0010
1000
,
0010
0010
0100
0100
,
0001
1000
0001
1000
,
0010
0100
0010
0110
,
0000
0001
0100
0010
,
1000
0100
0010
0110
,
0000
0001
1000
0100
,
1000
0001
0100
0110
,
0000
0001
1000
0100
,
1000
0001
0100
0110
,
0000
0010
0100
0001
,
2000
0000
0000
0000
,
3002
0000
0000
0000
,
2003
0000
0000
0000
,
3002
0000
0000
0003
,
1001
0000
0000
0000
,
0110
0000
0000
0000
,
1001
0000
0110
0000
,
1001
0110
1001
0000
,
0001
0100
0010
1000
,
0100
0010
0001
0001
,
1000
0100
0010
0001
,
0100
0010
1000
1000
,
0010
0100
0010
1000
,
0001
0010
0100
0100
,
1000
1000
0001
0001
,
0010
0100
0220
0330
,
1000
0010
0100
0001
,
0010
0100
1000
1000
,
0001
0010
0100
1000
,
0010
0100
0001
0001
,
0100
0010
0100
0001
,
1000
0100
0010
0010
,
0001
0001
1000
1000
,
0100
0010
0220
0330
,
0001
0001
1000
1000
,
0010
0000
0100
0000
0010
0100
0010
0000
,
1000
1000
0001
0001
,
0100
0000
0010
0000
0100
0010
0100
0000
,
0001
0010
0100
1000
,
0010
0000
0100
0000
0001
1000
0001
0000
,
1001
0000
0110
0000
,
1001
0110
1001
0000
,
1000
1000
0001
0001
,
0100
0000
0010
0000
0100
0010
0100
0000
,
0001
0001
1000
1000
,
0010
0000
0100
0000
0010
0100
0010
0000
,
2000
0000
3010
0100
,
1000
0000
0001
0000
1000
0001
1000
0000
,
1001
0000
0110
0000
,
1001
0110
1001
0110
,
2002
0000
0000
0000
,
3003
0000
0000
0000
,
0000
0000
0000
0000
;
#NOTES:
     dance-single:
     :
     Medium:
     13:
     :
0000
0000
0000
0000
,
0000
0000
0000
0000
,
0000
0000
0000
0000
,
1000
0100
1000
0000
0001
0100
0001
0000
,
1000
0100
0010
0000
0001
0100
0010
0000
,
0100
0001
0010
0000
0100
1000
0010
0000
,
1001
0000
0000
0110
,
1000
0100
0010
0001
0100
0010
1000
0000
,
0001
0100
0010
1000
0100
0010
0001
0000
,
1000
0010
0100
0001
0100
0010
1000
0000
,
0001
0010
0100
1000
0100
0010
0001
0000
,
0001
0100
1000
0100
0001
0100
1000
0100
,
0001
0010
1000
0010
0001
0010
1000
0010
,
0001
0100
0001
0100
0010
1000
0010
1000
,
0100
0010
0001
1000
0010
0000
0110
0000
,
0001
0100
0010
0000
1000
0100
0010
0000
,
0001
1000
0001
0000
1000
0010
0100
0001
,
1000
0100
0010
0000
0001
0100
0010
0000
,
1000
0001
1000
0000
0001
0010
0100
1000
,
0001
0010
0100
0000
1000
0010
0100
0000
,
0001
1000
0001
0000
1000
0100
0010
0001
,
1000
0010
1000
0000
0001
0010
0001
0000
,
1000
0010
0100
0001
1000
0000
0110
0000
,
0001
0100
0010
0000
1000
0100
0010
0000
,
0001
0010
1000
0000
0001
0100
1000
0010
,
1000
0010
0100
0000
0001
0010
0100
0000
,
1000
0100
0001
0000
1000
0010
0001
0100
,
0001
0010
0100
0000
1000
0010
0100
0000
,
0001
0100
1000
0000
0001
0010
1000
0100
,
1000
0010
0100
0001
0010
0100
1000
0001
,
1000
0010
0100
0001
,
0010
0000
0001
0000
0000
0100
0000
0000
0010
0000
0000
0010
0000
0000
0010
0000
,
0000
0000
1000
0000
0000
0100
0000
0000
0010
0000
0000
0010
0000
0000
0010
0000
,
0000
0000
0001
0000
0000
0100
0000
0000
0010
0000
0000
0010
0000
0000
0010
0000
,
0000
0000
1000
0000
0000
0001
0000
0000
0100
0000
0000
0010
0000
0000
0110
0000
,
0000
0000
1000
0000
0000
0100
0000
0000
0010
0000
0000
0001
0000
0000
1000
0000
,
0000
0000
0001
0000
0000
0100
0000
0000
0010
0000
0000
1000
0000
0000
0001
0000
,
0000
0000
1000
0000
0000
0001
0000
0000
0100
0000
0000
0010
0000
0000
1000
0000
,
0001
0010
0100
0110
,
0001
0100
0001
0010
1000
0010
0100
0000
,
1000
0100
1000
0010
0001
0010
0100
0000
,
0001
0100
0010
1000
0010
0001
0010
0000
,
1000
0100
0010
0001
0010
1000
0010
0000
,
0001
0100
1000
0100
0010
1000
0100
0000
,
1000
0100
0001
0100
1000
0010
0100
0000
,
0010
1000
0100
0000
0010
0001
0100
0000
,
1010
1100
0011
0101
,
0001
0000
0100
0000
0010
0000
1000
0100
,
1000
0010
0001
0010
1000
0100
1000
0000
,
1000
0000
0100
0000
0010
0000
0001
0100
,
0001
0010
1000
0010
0001
0100
0001
0000
,
0100
0000
0010
0000
0100
0000
0010
1000
,
0010
0001
0010
1000
0100
1000
0001
0000
,
0010
0000
0100
0000
0010
0000
0100
1000
,
0100
0001
0100
1000
0010
1000
0001
0000
,
1000
0000
0010
0000
0100
0000
0001
0020
,
0000
0000
0001
0000
0100
0000
0031
0100
,
0010
0000
1000
0000
0001
0100
0000
0010
,
0000
1000
0100
0000
0010
0000
0001
0000
,
0001
0100
0010
1000
0001
0100
0010
0000
,
1000
0100
0010
0001
1000
0100
0010
0000
,
0001
0100
0010
0000
1000
0100
0010
0000
,
0001
1000
0010
0110
,
0100
0010
0100
0000
0010
1000
0100
0000
,
1000
0100
0001
0000
0100
1000
0010
0001
,
0010
0100
0010
0000
0100
0001
0010
0000
,
0001
0010
1000
0000
0010
0001
0100
1000
,
0100
0001
0010
0000
0001
1000
0100
0000
,
1000
0001
0010
0000
0100
1000
0001
0100
,
0010
0010
1000
0100
0010
0010
0001
0100
,
0110
1100
0202
0303
,
0001
1000
0100
0000
1000
0001
0010
0000
,
0100
0010
0001
0000
1000
1000
0100
0010
,
0001
1000
0010
0000
1000
0001
0100
0000
,
0010
0100
0001
0000
1000
1000
0010
0100
,
0001
0100
0001
0000
1000
0010
1000
0000
,
0010
0100
0001
1000
0010
0010
0100
0100
,
0020
0000
0230
0000
,
0302
2003
3100
1001
,
0001
0100
0010
1000
0100
0001
0100
1000
,
0001
0100
1000
0001
0010
1000
0100
0010
,
0001
0010
0100
1000
0010
0001
0010
1000
,
0001
0010
1000
0001
0100
1000
0010
0100
,
0010
0010
1000
0001
0010
1000
0010
0001
,
1000
1000
0010
0100
0001
0001
0010
0100
,
0010
0001
0010
0001
1000
0100
1000
0100
,
0001
1000
0010
0100
0010
0000
1001
0000
,
0001
0010
0001
0001
1000
0010
1000
1000
,
0001
0010
0100
0100
1000
1000
0001
0001
,
1000
0010
1000
1000
0001
0010
0001
0001
,
1000
0010
0100
0100
0001
0001
1000
1000
,
2002
0000
3003
0001
0010
0100
1000
0002
,
0000
0013
0100
1000
0001
0100
0010
1000
,
0010
1000
0010
0100
0001
0010
0001
0100
,
0110
1010
0011
1001
,
0220
0000
0000
0000
,
0330
0000
0000
0000
,
0000
0000
0000
0000
;
#NOTES:
     dance-single:
     :
     Hard:
     16:
     :
0000
0000
0000
0000
,
0000
0000
0000
0000
,
0000
0000
0000
0000
,
1000
0100
1000
0010
1000
0100
1000
0000
,
0001
0010
0001
0100
0001
0010
0001
0001
,
1000
0000
0000
0010
0100
0000
0001
0000
0010
0000
0000
0100
1000
0000
0100
0000
,
1001
0000
0000
0110
,
1000
0100
0010
0001
0010
1000
0010
0001
,
0100
0010
1000
0001
0100
1000
0100
0001
,
0001
0100
0010
1000
0010
0001
0010
1000
,
0100
0010
0001
1000
0100
0001
0100
0100
,
1000
0100
1000
0000
0100
0000
0001
0000
0100
0000
1000
0000
0001
0000
0100
0000
,
0001
0100
0001
0000
0100
0000
1000
0000
0100
0000
0001
0000
1000
0000
0100
0000
,
1000
0010
0100
0000
0001
0000
1000
0000
0001
0010
0100
0000
0010
0000
0001
0000
,
0011
1010
0110
0020
,
1030
0000
0100
0000
1000
0100
1000
0000
0001
0000
0100
0000
0001
0100
0001
0100
,
0010
0000
0100
0000
0010
0100
0010
0100
0001
0000
0010
0000
0100
0000
1000
0000
,
0001
0000
0100
0000
0001
0100
0001
0000
1000
0000
0100
0000
1000
0100
1000
0100
,
0010
0000
0100
0000
0010
0100
0010
0100
1000
0000
0010
0000
0100
0000
0001
0000
,
1000
0000
0001
0000
1000
0010
0100
0000
0001
0000
1000
0000
0010
0100
0010
0100
,
0001
0000
0010
0000
0100
0010
0100
0010
0001
0000
1000
0000
0010
0000
0100
0000
,
0001
0000
0010
0001
0010
0000
0100
0000
0010
0000
0100
0010
0100
0000
1000
0000
,
0001
0000
0100
0001
0100
0000
0010
0000
1000
0000
0000
0000
1001
0000
0000
0000
,
0001
0000
0010
0000
0001
0010
0001
0000
1000
0000
0010
0000
1000
0010
1000
0010
,
0100
0000
0010
0000
0100
0010
0100
0010
1000
0000
0100
0000
0010
0000
0001
0000
,
1000
0000
0010
0000
1000
0010
1000
0000
0001
0000
0010
0000
0001
0010
0001
0010
,
0100
0000
0010
0000
0100
0010
0100
0010
0001
0000
0100
0000
0010
0000
1000
0000
,
0001
0000
1000
0000
0001
0100
0010
0000
1000
0000
0001
0000
0100
0010
0100
0010
,
1000
0000
0100
0000
0010
0100
0010
0100
1000
0000
0001
0000
0100
0000
0010
0000
,
1000
0000
0100
1000
0100
0000
0010
0000
0100
0000
0010
0100
0010
0000
0001
0000
,
1000
0001
0100
0010
,
1000
0000
0001
0000
0000
0100
0000
0000
0010
0000
0000
1010
0000
0000
1001
0000
,
0000
0000
0001
0000
0000
0100
0000
0000
0101
0000
0000
1001
0000
0000
1100
0000
,
0000
0000
1000
0000
0000
0100
0000
0000
0010
0000
0000
0011
0000
0000
1001
0000
,
0000
0000
1000
0000
0000
0100
0000
0000
1100
0000
0000
1001
0000
0000
0101
0000
,
0000
0000
0001
0000
0000
0010
0000
0000
0100
0000
0000
1100
0000
0000
1001
0000
,
0000
0000
1000
0000
0000
0100
0000
0000
0110
0000
0000
0011
0000
0000
1001
0000
,
0001
0100
0010
0000
1000
0100
0010
0000
,
0001
0100
0010
1000
0100
0010
0100
0000
,
0010
0000
0001
0000
0010
0001
0000
0010
0001
0000
0100
0001
0000
0100
0001
0000
,
1000
0000
0100
0000
1000
0100
0000
1000
0100
0000
1000
0010
0000
1000
0010
0000
,
0100
0000
0001
0000
0100
0010
0000
0100
0001
0000
0100
0010
0000
0100
0001
0000
,
0010
0000
0001
0000
0010
0100
0000
0010
0001
0000
0010
0100
0000
0010
0001
0000
,
0100
0000
0010
0000
0100
0010
0000
1000
0010
0000
0100
0010
0000
1000
0010
0000
,
0100
0000
0001
0000
1000
0010
0000
0100
0001
0000
0010
0001
0000
1000
0100
0000
,
0010
0001
0100
0010
1000
0100
0010
0001
,
1000
1000
0010
0010
0100
0100
0001
0001
,
1001
0000
0110
0000
1001
0001
0100
1000
,
0100
0001
0010
0100
1100
0000
0101
0000
,
0110
0000
1010
0000
0110
0100
1000
0100
,
0001
0010
1000
0010
0100
0000
0100
1000
,
1100
0000
0101
0000
1001
0001
0010
1000
,
0010
1000
0001
0100
1100
0000
0101
0000
,
1000
0001
0010
0000
0001
1000
0010
0000
,
1010
1100
0011
1001
,
0010
0000
0001
0000
0010
0000
0001
0020
,
0000
0000
1000
0000
0100
0000
0031
0100
,
0010
0000
1000
0000
0001
0100
0000
0010
,
0000
1000
0100
0000
0010
0000
0001
0000
,
1000
0100
0010
0100
1000
0100
0010
0100
1000
0100
0010
0100
1000
0000
0000
0000
,
0001
0100
0010
0100
0001
0100
0010
0100
0001
0100
0010
0100
0001
0000
0000
0000
,
1000
0001
0010
0001
1000
0001
0010
0001
1000
0001
0010
0001
1000
0001
0010
0001
,
1000
0101
1100
0110
,
1000
0000
0100
0000
1000
0001
1000
0000
0001
0000
0100
0000
0001
1000
0001
0100
,
0010
0000
0100
0000
0010
1000
0010
0100
0001
0000
0010
0000
0100
0000
1000
0000
,
0001
0000
0100
0000
0001
1000
0001
0000
1000
0000
0100
0000
1000
0001
1000
0100
,
0010
0000
0100
0000
0010
0001
0010
0100
1000
0000
0010
0000
0100
0000
0001
0000
,
1000
0000
0001
0000
1000
0100
0010
0000
0001
0000
0100
0000
0010
0100
0010
1000
,
0001
0000
0100
0000
0001
0100
0010
0100
0001
0000
1000
0000
0010
0000
0100
0000
,
0001
0000
0010
0001
0010
0000
0100
0000
0010
0000
0100
0010
0100
0000
1000
0000
,
0010
0000
0100
0010
0100
0000
0010
0000
0100
0000
0000
0000
1001
0000
0000
0000
,
0001
0000
1000
0000
0010
0100
0001
0000
1000
0000
0001
0000
0010
0100
0010
0001
,
1000
0000
0001
0000
0100
0010
0100
0001
1000
0000
0001
0000
0100
0000
0010
0000
,
1000
0000
0001
0000
0010
0100
1000
0000
0001
0000
1000
0000
0010
0100
0010
1000
,
0001
0000
1000
0000
0100
0010
0100
1000
0001
0000
1000
0000
0100
0000
0010
0000
,
0001
0000
1000
0000
0001
1000
0010
0000
1000
0000
0001
0000
1000
0001
0010
0100
,
0010
0000
0100
0000
0010
0100
0010
0001
1000
0000
0001
0000
0100
0000
0010
0000
,
2000
0000
3002
0000
,
2003
3002
0103
1001
,
1000
0000
0100
0000
1000
0100
0010
0000
0001
0000
0010
0000
0001
0100
0010
1000
,
0100
0000
1000
0000
0100
0010
0001
1000
0100
0000
0010
0000
0001
0000
0100
0000
,
0001
0000
1000
0000
0001
0100
0010
0000
1000
0000
0010
0000
1000
0100
0010
0001
,
0100
0000
0001
0000
0100
0010
1000
0001
0100
0000
0010
0000
1000
0000
0100
0000
,
1000
0000
0001
0000
1000
0010
0100
0000
0001
0000
0100
0000
0001
0010
0100
0010
,
0001
0000
1000
0000
0010
0100
0001
0100
0010
0000
1000
0000
0010
0000
0100
0000
,
0001
0000
0100
0010
1000
0000
0100
0000
0010
0000
0100
0010
0001
0000
0100
0000
,
0010
0000
0100
0001
0010
0000
0001
0000
1000
0000
0000
0000
1001
0000
0000
0000
,
1000
0000
0010
0000
0100
0001
0010
0000
0100
0000
1000
0000
0100
1000
0010
0100
,
0001
0000
0010
0000
0100
1000
0010
0100
0010
0000
0100
0000
0001
0100
0010
0000
,
1000
0000
0001
0000
0100
0001
0010
0000
0100
0000
0010
0000
0001
0100
0010
1000
,
0100
0000
0010
0000
0100
0010
0001
0100
0010
0000
0100
0000
0010
1000
0100
0010
,
0002
0000
0003
0001
1000
0001
0010
0011
,
0000
0000
0010
0000
0100
0000
1000
0000
0100
1000
0100
1000
0010
0100
0001
0000
,
1000
0000
0100
1000
0010
0000
0100
0000
0010
0000
0100
0001
0010
0000
0001
0000
,
1001
0011
1100
0110
,
2002
0000
0000
0000
,
3003
0000
0000
0000
,
0000
0000
0000
0000
;
#NOTES:
     dance-double:
     :
     Easy:
     8:
     :
00000000
00000000
00000000
00000000
,
00000000
00000000
00000000
00000000
,
00000000
00000000
00000000
00000000
,
10000000
00100000
01000000
00010000
,
00100000
00001000
00010000
00000100
,
00000010
00000001
00001000
00000010
,
00001001
00000000
00000000
00000110
,
00000001
00000001
00000100
00000100
,
00001000
00001000
00010000
00010000
,
01000000
01000000
10000000
10000000
,
00100000
00100000
00010000
00010000
,
00011000
00001000
00000100
00001000
,
00011000
00010000
01000000
00010000
,
00011000
00000000
10010000
00000000
,
00010000
00100000
01000000
01100000
,
10000000
01000000
00010000
00001000
,
00100000
00001000
00010000
00010000
,
00001000
00000100
00000001
00000010
,
00000100
00001000
00000001
00000001
,
00000100
00000010
00001000
00000100
,
00010000
00001000
01000000
00100000
,
01000000
00100000
00010000
00001000
,
00000100
00000010
00001000
00001001
,
00000001
00000100
00001000
00010000
,
00000010
00010000
00001000
00001000
,
00010000
01000000
10000000
00100000
,
01000000
00010000
10000000
10000000
,
01000000
00100000
00010000
01000000
,
00001000
00010000
00000100
00000010
,
00000100
00000010
00001000
00010000
,
01000000
01000000
00100000
00100000
,
00020000
00100000
00000000
00130000
,
00002000
00010000
00000000
00013000
,
00020000
00000100
00000000
00030100
,
00000200
00000010
00000000
00000310
,
00000002
00000010
00000000
00001003
,
00000200
00001000
00000000
00010300
,
00002000
00010000
00000000
00103000
,
00020000
10000000
00000000
01030000
,
00100000
10000000
00100000
01000000
,
00001000
00100000
00001000
01000000
,
00001000
00010000
00001000
00000100
,
00000010
00001000
00000010
00000100
,
00000001
00000010
00000001
00000100
,
00000010
00001000
00000100
00010000
,
00001000
00001000
00010000
00010000
,
00001000
00010000
00001000
00011000
,
00100000
00010000
01000000
01100000
,
00000000
10000000
01000000
00010000
,
00001000
00010000
00001000
00011000
,
00000000
00001000
00000100
00000001
,
00000010
00000100
00000010
00000110
,
00000000
00000001
00001000
00000100
,
00010000
00010000
00001000
00001000
,
01000000
00100000
10000000
00010000
,
20000000
00000000
00000000
00000000
,
32000000
00000000
00000000
00000000
,
03020000
00000000
00000000
00000000
,
00032000
00000000
00000000
00003000
,
00010000
00010000
00010000
00010000
,
00001000
00001000
00001000
00001000
,
00010000
00010000
00001000
00001000
,
00011000
00011000
00011000
00000000
,
00001000
00010000
00100000
10000000
,
01000000
00100000
00001000
00001000
,
00010000
00001000
00000010
00000001
,
00000100
00001000
00010000
00010000
,
00001000
00010000
01000000
00010000
,
00001000
00000100
00001000
00010000
,
00001000
00001000
00010000
00010000
,
01000000
00100000
02200000
03300000
,
00010000
00001000
00000100
00000001
,
00000010
00000100
00010000
00010000
,
00001000
00010000
01000000
10000000
,
00100000
00010000
00001000
00001000
,
00010000
00001000
00000010
00001000
,
00010000
00100000
00010000
00001000
,
00010000
00010000
00001000
00001000
,
00000010
00000100
00000220
00000330
,
00000001
00000100
00000010
00001000
,
00000100
00000000
00010000
00000000
00001000
00010000
00001000
00000000
,
00100000
00010000
01000000
00100000
,
10000000
00000000
01000000
00000000
00100000
01000000
00100000
00000000
,
00001000
00010000
00000100
00001000
,
00000010
00000000
00000100
00000000
00000010
00000100
00000010
00000000
,
00000110
00000000
00001001
00000000
,
00000110
00001001
00000110
00000000
,
00000001
00000010
00000100
00001000
,
00000100
00000000
00010000
00000000
00001000
00001000
00001000
00000000
,
00010000
00001000
00100000
00010000
,
01000000
00000000
00100000
00000000
10000000
10000000
10000000
00000000
,
00020000
00000000
00130000
01000000
,
00010000
00000000
00001000
00000000
00010000
00001000
00010000
00000000
,
00011000
00000000
00001001
00000000
,
00000110
00001001
00000110
00001001
,
00000220
00000000
00000000
00000000
,
00000330
00000000
00000000
00000000
,
00000000
00000000
00000000
00000000
;
#NOTES:
     dance-double:
     :
     Medium:
     13:
     :
00000000
00000000
00000000
00000000
,
00000000
00000000
00000000
00000000
,
00000000
00000000
00000000
00000000
,
10000000
01000000
00100000
00000000
00001000
00010000
00001000
00000000
,
00010000
00001000
00010000
00000000
00001000
00000100
00000010
00000000
,
00001000
00000100
00010000
00000000
00001000
00100000
00010000
00000000
,
00011000
00000000
00000000
10010000
,
10000000
01000000
00100000
01000000
10000000
00100000
01000000
00000000
,
00010000
01000000
00100000
00010000
00001000
00010000
00001000
00000000
,
00010000
00001000
00000100
00000010
00001000
00000100
00000010
00000000
,
00000001
00000100
00000010
00001000
00000100
00000010
00000001
00000000
,
00000001
00000100
00001000
00000100
00000001
00000100
00001000
00010000
,
00001000
00000100
00001000
00010000
00001000
00000100
00001000
00010000
,
01000000
00010000
00001000
00010000
01000000
00010000
00001000
00010000
,
01000000
00100000
00010000
10000000
01000000
00000000
01100000
00000000
,
10000000
00100000
01000000
00000000
00100000
01000000
00010000
00000000
,
00100000
00001000
00010000
00000000
00001000
00000100
00000001
00000010
,
00001000
00000010
00000100
00000000
00000010
00000100
00001000
00000000
,
00000010
00000100
00000001
00000000
00001000
00000010
00000100
00001000
,
00010000
00100000
01000000
00000000
00100000
01000000
00010000
00000000
,
10000000
01000000
00100000
00000000
00001000
00010000
00001000
00000100
,
00000010
00000100
00000010
00000000
00001000
00000001
00001000
00000000
,
00000011
00001100
00022000
00033000
,
00000001
00000100
00000010
00000000
00000100
00000010
00001000
00000000
,
00000100
00010000
00001000
00000000
00010000
00100000
10000000
01000000
,
00010000
01000000
00100000
00000000
01000000
00100000
00010000
00000000
,
01000000
00100000
10000000
00000000
00010000
01000000
00100000
00010000
,
00001000
00000100
00000010
00000000
00000100
00000010
00001000
00000000
,
00000001
00000010
00000100
00000000
00010000
00001000
00010000
00100000
,
01000000
00100000
01000000
00000000
00010000
10000000
00010000
00000000
,
11000000
00110000
00011000
00001100
,
00000001
00000000
00000100
00000000
00000000
00000010
00000000
00000000
00001000
00000000
00000000
00001000
00000000
00000000
00001000
00000000
,
00000000
00000000
00000100
00000000
00000000
00010000
00000000
00000000
00001000
00000000
00000000
00001000
00000000
00000000
00001000
00000000
,
00000000
00000000
00010000
00000000
00000000
00001000
00000000
00000000
00100000
00000000
00000000
00100000
00000000
00000000
00100000
00000000
,
00000000
00000000
01000000
00000000
00000000
10000000
00000000
00000000
00010000
00000000
00000000
00010000
00000000
00000000
00010000
00000000
,
00000000
00000000
10000000
00000000
00000000
01000000
00000000
00000000
00010000
00000000
00000000
01000000
00000000
00000000
10000000
00000000
,
00000000
00000000
00010000
00000000
00000000
01000000
00000000
00000000
10000000
00000000
00000000
01000000
00000000
00000000
00001000
00000000
,
00000000
00000000
00010000
00000000
00000000
00001000
00000000
00000000
00000100
00000000
00000000
00000001
00000000
00000000
00000100
00000000
,
00000010
00000100
00000001
00001001
,
00000001
00000100
00000010
00001000
00000100
00010000
00001000
00000000
,
00010000
00001000
00100000
00010000
01000000
00100000
10000000
00000000
,
01000000
10000000
01000000
00100000
00010000
01000000
00001000
00000000
,
00010000
00001000
00010000
00000010
00000100
00000001
00001000
00000000
,
00000001
00000100
00001000
00000100
00001000
00010000
00001000
00000000
,
00001000
00010000
01000000
10000000
01000000
00010000
01000000
00000000
,
00100000
00010000
01000000
00000000
00001000
00100000
00010000
00000000
,
00011000
00001100
00000110
00000011
,
00000001
00000000
00000100
00000000
00000010
00000000
00001000
00000100
,
00010000
00001000
00100000
00010000
01000000
00000000
01100000
00000000
,
10000000
00000000
01000000
00000000
00100000
00000000
00010000
01000000
,
00001000
00010000
00000010
00001000
00000100
00000000
00001001
00000000
,
00000010
00000000
00001000
00000000
00000100
00000000
00001000
00000100
,
00010000
00001000
01000000
00010000
01000000
00000000
01100000
00000000
,
00100000
10000000
00100000
00000000
01000000
00010000
01000000
00000000
,
00001000
00100000
00010000
01000000
00001000
00010000
00000010
00000100
,
00000010
00000000
00001000
00000000
00000100
00000000
00010000
00002000
,
00000000
00000000
00010000
00000000
01000000
00000000
00013000
00001000
,
00100000
00000000
00010000
00000000
01000000
00100000
00000000
10000000
,
00000000
01000000
00100000
00000000
00001000
00000000
00010000
00000000
,
00001000
00000100
00000010
00000100
00001000
00000000
00011000
00000000
,
00010000
01000000
00100000
01000000
00010000
00000000
00011000
00000000
,
00001000
00010000
00100000
00000000
00010000
00001000
00000010
00000000
,
00000001
00001000
00000010
00000110
,
00000001
00000100
00001000
00000000
00000100
00001000
00010000
00000000
,
00001000
00010000
00100000
10000000
01000000
00100000
00010000
00000000
,
10000000
01000000
00010000
00000000
01000000
00010000
00001000
00000000
,
00010000
00001000
00000010
00000001
00000100
00000010
00001000
00000000
,
00000001
00000100
00000010
00000000
00010000
00000100
00001000
00000000
,
00000100
00010000
00001000
00100000
01000000
10000000
00100000
01000000
,
00010000
00010000
00100000
00001000
00010000
00010000
00001000
00010000
,
01000000
10000000
00100000
01000000
00100000
00000000
01100000
00000000
,
10000000
01000000
00010000
00000000
01000000
00010000
00001000
00000000
,
00010000
00001000
00000010
00000001
00000100
00000010
00001000
00000000
,
00000001
00000100
00001000
00000000
00000100
00001000
00010000
00000000
,
00001000
00010000
00100000
10000000
01000000
00100000
00010000
00000000
,
10000000
01000000
00100000
00000000
00001000
01000000
00010000
00000000
,
01000000
00001000
00010000
00000010
00000100
00000001
00000010
00000100
,
00001000
00001000
00000010
00010000
00001000
00001000
00010000
00000100
,
00000010
00000010
00000001
00000001
00000010
00000000
00001001
00000000
,
00000001
00000100
00000010
00001000
00000100
00010000
00001000
00010000
,
01000000
00010000
01000000
10000000
00100000
01000000
00010000
00000000
,
10000000
01000000
00100000
00010000
01000000
00001000
00010000
00001000
,
00000100
00001000
00000100
00000001
00000010
00000100
00001000
00000000
,
00000001
00000010
00000100
00001000
00000010
00010000
00001000
00010000
,
00100000
00010000
00100000
10000000
01000000
00100000
00010000
00000000
,
10000000
01000000
00010000
01000000
00010000
00001000
00000010
00001000
,
00000010
00000001
00000100
00000010
00001000
00000000
00001001
00000000
,
00000001
00000100
00000010
00000010
00001000
00000100
00010000
00010000
,
00001000
00100000
00010000
00010000
01000000
10000000
01000000
00010000
,
10000000
01000000
00100000
00100000
00010000
01000000
00001000
00001000
,
00010000
00000010
00001000
00001000
00000100
00000001
00000100
00001000
,
00002002
00000000
00003003
00000001
00000100
00001000
00010000
00002000
,
00000000
00013000
00001000
00100000
01000000
10000000
00100000
01000000
,
00001000
00001000
00010000
00000100
00000010
00000010
00000001
00001000
,
00001001
00000011
00001100
00000110
,
00002002
00000000
00000000
00000000
,
00003003
00000000
00000000
00000000
,
00000000
00000000
00000000
00000000
;
#NOTES:
     dance-double:
     :
     Hard:
     16:
     :
00000000
00000000
00000000
00000000
,
00000000
00000000
00000000
00000000
,
00000000
00000000
00000000
00000000
,
10000000
01000000
00100000
00010000
01000000
00100000
00010000
00000000
,
00001000
00000100
00000010
00001000
00000100
00000010
00000001
00000001
,
00001000
00000000
00000000
00000001
00000010
00000000
00000100
00000000
00010000
00000000
00000000
00001000
00010000
00000000
00001000
00000000
,
00011000
00000000
00000000
10010000
,
10000000
01000000
00010000
01000000
00100000
00010000
00001000
00010000
,
00100000
00001000
00010000
00001000
00000100
00001000
00010000
00001000
,
00000010
00000001
00000100
00001000
00000100
00000001
00000010
00001000
,
00010000
00001000
00000010
00001000
00010000
00100000
00010000
00001000
,
00010000
00010000
00100000
10000000
01000000
00010000
01000000
10000000
,
00100000
00100000
00010000
00001000
00010000
00100000
00010000
00001000
,
00000100
00000100
00001000
00010000
00001000
00001000
00000010
00000001
,
00000010
00000100
00001000
00011000
,
00001000
00000000
00010000
00000000
00001000
00010000
00001000
00000000
00100000
00000000
00010000
00000000
00100000
01000000
00100000
00000000
,
00010000
00000000
01000000
00000000
00100000
01000000
00100000
00000000
10000000
00000000
01000000
00000000
00010000
00000000
00001000
00000000
,
00010000
00000000
00001000
00000000
00010000
00001000
00010000
00000000
00000010
00000000
00001000
00000000
00000010
00000100
00000010
00000000
,
00001000
00000000
00000100
00000000
00000010
00000100
00000010
00000000
00000001
00000000
00000100
00000000
00001000
00000000
00010000
00000000
,
00001000
00000000
00010000
00000000
00001000
00010000
00001000
00000000
01000000
00000000
00010000
00000000
01000000
00100000
01000000
00000000
,
00010000
00000000
00100000
00000000
01000000
00100000
01000000
00000000
10000000
00000000
00100000
00000000
00010000
00000000
00001000
00000000
,
00010000
00000000
00001000
00010000
00001000
00000000
00010000
00000000
00000100
00000000
00001000
00000100
00001000
00000000
00000100
00000000
,
00000010
00000010
00000100
00000100
00001000
00000000
00011000
00000000
,
00010000
00000000
00001000
00000000
00010000
00000100
00001000
00000000
00000100
00000000
00001000
00000000
00000100
00000010
00000001
00000000
,
00001000
00000000
00000010
00000000
00000100
00000010
00001000
00000000
00000100
00000000
00000010
00000000
00001000
00000000
00010000
00000000
,
00001000
00000000
00010000
00000000
00001000
00100000
00010000
00000000
01000000
00000000
00010000
00000000
01000000
00100000
10000000
00000000
,
00010000
00000000
00100000
00000000
01000000
00100000
00010000
00000000
01000000
00000000
00100000
00000000
00010000
00000000
00001000
00000000
,
00010000
00000000
00001000
00000000
00010000
00000100
00001000
00000000
00000010
00000000
00001000
00000000
00000010
00000100
00001000
00000000
,
00010000
00000000
00001000
00000000
00010000
00001000
00000100
00000000
00001000
00000000
00010000
00000000
00001000
00000000
00100000
00000000
,
00010000
00000000
00100000
01000000
10000000
00000000
00010000
00000000
10000000
00000000
01000000
00100000
00010000
00000000
00100000
00000000
,
00001000
00010000
00000100
00001001
,
00001000
00000000
00000010
00000000
00000000
00000100
00000000
00000000
00000001
00000000
00000000
00000011
00000000
00000000
00001001
00000000
,
00000000
00000000
00000001
00000000
00000000
00000100
00000000
00000000
00001100
00000000
00000000
00010100
00000000
00000000
00011000
00000000
,
00000000
00000000
00001000
00000000
00000000
00010000
00000000
00000000
01000000
00000000
00000000
01100000
00000000
00000000
00110000
00000000
,
00000000
00000000
00010000
00000000
00000000
01000000
00000000
00000000
01100000
00000000
00000000
10100000
00000000
00000000
10010000
00000000
,
00000000
00000000
00100000
00000000
00000000
01000000
00000000
00000000
10000000
00000000
00000000
10100000
00000000
00000000
10010000
00000000
,
00000000
00000000
10000000
00000000
00000000
01000000
00000000
00000000
01010000
00000000
00000000
01001000
00000000
00000000
00011000
00000000
,
00000000
00000000
00010000
00000000
00000000
00001000
00000000
00000000
00000100
00000000
00000000
00000110
00000000
00000000
00001010
00000000
,
00000000
00000000
00001000
00000000
00000000
00000100
00000000
00000000
00000110
00000000
00000000
00000011
00000000
00000000
00001001
00000000
,
00000001
00000000
00000100
00000000
00000001
00000010
00000000
00000001
00000010
00000000
00000001
00000100
00000000
00000001
00000100
00000000
,
00000010
00000000
00001000
00000000
00000010
00001000
00000000
00000010
00001000
00000000
00000100
00001000
00000000
00000100
00001000
00000000
,
00000100
00000000
00010000
00000000
00000100
00010000
00000000
00000100
00010000
00000000
00001000
01000000
00000000
00001000
01000000
00000000
,
00010000
00000000
01000000
00000000
00010000
01000000
00000000
00010000
01000000
00000000
00100000
10000000
00000000
00100000
10000000
00000000
,
01000000
00000000
00100000
00000000
00010000
00100000
00000000
00010000
01000000
00000000
00001000
00010000
00000000
00001000
00000100
00000000
,
00000010
00000000
00000100
00000000
00000001
00000010
00000000
00000001
00000100
00000000
00000010
00001000
00000000
00000100
00010000
00000000
,
00001000
00010000
01000000
10000000
01000000
00010000
00001000
00000100
,
00000001
00000001
00000010
00000010
00000100
00000100
00001000
00001000
,
00001100
00000000
00011000
00000000
00110000
00010000
00100000
10000000
,
00100000
00010000
01000000
00100000
10100000
00000000
01010000
00000000
,
00110000
00000000
00011000
00000000
00001100
00000100
00001000
00000010
,
00000001
00000010
00001000
00000100
00010000
00000000
00001000
00010000
,
00101000
00000000
00011000
00000000
01010000
01000000
00100000
10000000
,
01000000
00010000
00001000
00000100
00001100
00000000
00000101
00000000
,
00000001
00000010
00000100
00000000
00001000
00000010
00000100
00000000
,
00000001
00000100
00001000
00010000
00001000
00010000
00100000
00000000
,
10000000
00000000
00100000
00000000
01000000
00000000
00010000
00200000
,
00000000
00000000
01000000
00000000
00010000
00000000
00301000
00010000
,
00000100
00000000
00001000
00000000
00000100
00000010
00000000
00000001
,
00000000
00000100
00000010
00000000
00001000
00000000
00000100
00000000
,
00010000
00000010
00001000
00000010
00010000
00000010
00001000
00000010
00010000
00000010
00001000
00000010
00010000
00000000
00000000
00000000
,
00001000
00100000
00010000
00100000
00001000
00100000
00010000
00100000
00001000
00100000
00010000
00100000
00001000
00000000
00000000
00000000
,
00010000
00000100
00001000
00000100
00010000
00000100
00001000
00000100
00010000
00000100
00001000
00000100
00010000
00000100
00001000
00000100
,
00010000
00101000
01010000
01100000
,
00010000
00000000
01000000
00000000
00100000
01000000
00100000
00000000
10000000
00000000
01000000
00000000
00100000
01000000
00100000
01000000
,
10000000
00000000
01000000
00000000
00100000
00001000
00100000
00001000
00010000
00000000
00001000
00000000
00000100
00000000
00000001
00000000
,
00001000
00000000
00000100
00000000
00000010
00000100
00000010
00000000
00000001
00000000
00000100
00000000
00000010
00000100
00000010
00000100
,
00000001
00000000
00000100
00000000
00000010
00010000
00000010
00010000
00001000
00000000
00010000
00000000
01000000
00000000
10000000
00000000
,
00010000
00000000
00100000
00000000
01000000
00100000
01000000
00000000
10000000
00000000
00100000
00000000
01000000
00100000
01000000
00100000
,
10000000
00000000
00100000
00000000
01000000
00001000
01000000
00001000
00010000
00000000
00001000
00000000
00000010
00000000
00000001
00000000
,
00001000
00000000
00000010
00000100
00000010
00000000
00000100
00000000
00000001
00000000
00000010
00000100
00000010
00000000
00000001
00000000
,
00000100
00000100
00001000
00001000
00010000
00000000
00011000
00000000
,
00001000
00000000
00010000
00000000
00001000
00100000
00010000
00000000
01000000
00000000
00100000
00000000
01000000
00100000
10000000
00100000
,
01000000
00000000
00010000
00000000
00100000
00001000
00010000
00000100
00001000
00000000
00000100
00000000
00000010
00000000
00000100
00000000
,
00010000
00000000
00001000
00000000
00010000
00000010
00001000
00000000
00000100
00000000
00000010
00000000
00000100
00000010
00000001
00000010
,
00000100
00000000
00001000
00000000
00000010
00010000
00001000
01000000
00010000
00000000
01000000
00000000
00100000
00000000
01000000
00000000
,
00010000
00000000
00100000
00000000
00010000
00100000
01000000
00000000
00100000
00000000
00010000
00000000
00100000
00001000
00010000
00001000
,
00100000
00000000
00010000
00000000
00001000
00000100
00000010
00000100
00001000
00000000
00000001
00000000
00000100
00000000
00000010
00000000
,
00000200
00000000
00000320
00000000
,
00002030
00003200
00020300
00130000
,
00100000
00000000
00010000
00000000
00001000
01000000
00100000
00000000
01000000
00000000
10000000
00000000
01000000
00100000
10000000
01000000
,
00100000
00000000
00010000
00000000
00100000
00001000
00010000
00001000
00010000
00000000
00001000
00000000
00000100
00000000
00000001
00000000
,
00001000
00000000
00000100
00000000
00000010
00000001
00000100
00000000
00000010
00000000
00001000
00000000
00000100
00010000
00001000
00000100
,
00000010
00000000
00001000
00000000
00000100
00010000
00001000
00010000
00001000
00000000
01000000
00000000
00100000
00000000
10000000
00000000
,
00010000
00000000
00100000
00000000
00010000
00100000
00001000
00000000
00010000
00000000
00001000
00000000
00010000
00001000
00010000
00000100
,
00000010
00000000
00000001
00000000
00000100
00000010
00001000
00000010
00000100
00000000
00000001
00000000
00000100
00000000
00001000
00000000
,
00010000
00000000
00001000
00010000
00001000
00000000
00100000
00000000
00010000
00000000
10000000
00010000
10000000
00000000
00010000
00000000
,
10010000
01100000
10010000
01100000
,
10000000
00000000
01000000
00000000
00010000
00001000
00010000
00000000
00001000
00000000
00000100
00000000
00000001
00001000
00000001
00001000
,
00000010
00000000
00000100
00000000
00000010
00000100
00000010
00001000
00000100
00000000
00010000
00000000
00001000
00000000
00100000
00000000
,
01000000
00000000
00100000
00000000
00001000
00010000
00001000
00000000
00010000
00000000
00000100
00000000
00001000
00000001
00001000
00000001
,
00000010
00000000
00000100
00000000
00000010
00000100
00000010
00000001
00000100
00000000
00001000
00000000
00010000
00000000
01000000
00000000
,
02200000
00000000
03300000
00010000
00100000
00001000
00010000
00011000
,
00000000
00000000
00001000
00000000
00000100
00000000
00000001
00000000
00000100
00000010
00001000
00000100
00010000
00001000
00010000
00000000
,
00011000
00000000
00001000
00010000
00001000
00000000
00100000
00000000
00010000
00000000
01000000
00010000
00100000
00000000
01000000
00000000
,
01100000
00110000
00011000
00001100
,
00000220
00000000
00000000
00000000
,
00000330
00000000
00000000
00000000
,
00000000
00000000
00000000
00000000
;
