
//----- song ID: newr -----//
#TITLE:New Rules;
#ARTIST:Dua Lipa;
#BANNER:New Rules.png;
#BACKGROUND:New Rules-bg.png;
#CDTITLE:./CDTitles/DDR A20.png;
#MUSIC:New Rules.ogg;
#SAMPLESTART:62.021;
#SAMPLELENGTH:15;
#BPMS:0=116;
#NOTES:
     dance-single:
     :
     Beginner:
     2:
     :
0000
0000
0000
0000
,
0000
0000
0000
0000
,
0000
0000
0000
0000
,
0000
0000
0000
0000
,
0000
0000
0000
0000
,
0010
0000
1000
0000
,
0001
0000
0100
0000
,
0010
0000
0000
0000
,
1000
0000
0000
0000
,
0001
0000
0100
0000
,
1000
0000
0100
0000
,
0001
0000
0000
0000
,
0100
0000
0000
0000
,
2000
0000
3000
0000
,
0100
0000
0010
0000
,
0001
0000
0100
0000
,
1000
0000
0100
0000
,
0020
0000
0030
0000
,
0001
0000
1000
0000
,
0010
0000
0100
0000
,
0010
0000
0000
0000
,
1001
0000
0000
0000
,
0001
0000
1000
0000
,
1001
0000
0000
0000
,
0100
0000
0010
0000
,
1001
0000
0000
0000
,
0001
0000
1000
0000
,
1001
0000
0000
0000
,
1000
0000
0100
0000
,
0020
0000
0030
0000
,
0100
0000
1000
0000
,
0001
0000
0010
0000
,
0001
0000
1000
0000
,
0001
0000
1000
0000
,
0100
0000
0001
0000
,
0100
0000
1000
0000
,
0010
0000
0001
0000
,
0010
0000
1000
0000
,
0100
0000
0010
0000
,
1000
1000
0000
0000
,
0010
0000
0100
0000
,
0001
0001
0000
0000
,
1000
0000
0001
0000
,
0010
0010
0000
0000
,
0001
0000
0100
0000
,
0001
0000
1000
0000
,
2002
0000
0000
0000
,
3003
0000
0000
0000
,
0000
0000
0000
0000
;
#NOTES:
     dance-single:
     :
     Easy:
     5:
     :
0000
0000
0000
0000
,
0000
0000
0000
0000
,
0000
0000
0000
0000
,
0000
0000
0000
0000
,
0000
0000
0000
0000
,
0001
0000
0100
0010
,
0100
0000
0001
1001
,
0000
0000
0010
0100
,
0000
1000
0001
0000
,
1000
0000
0010
0100
,
0001
0000
0010
0110
,
0000
0000
1000
0001
,
0000
0100
0010
0000
,
2000
0000
3000
0000
,
0100
0100
0010
0010
,
0200
0000
0300
0000
,
0002
0000
0003
0000
,
2000
0000
3000
0000
,
0001
0001
0010
0010
,
0002
0000
0003
0000
,
2000
0000
3000
0000
,
1001
0000
1000
0100
,
0001
0100
1000
0010
,
0110
0000
0001
0010
,
1000
0010
0001
1000
,
1001
0000
0010
1000
,
0100
1000
0010
0100
,
0110
0000
0010
1000
,
0001
0010
0001
0000
,
2002
0000
0000
3003
,
0100
0001
0100
1000
,
0100
0001
0100
0010
,
1000
0010
0001
0010
,
1000
0010
0001
0010
,
0100
0001
0010
0001
,
0100
0010
1000
0100
,
1000
0100
1000
0100
,
0010
0001
0010
0001
,
0100
0000
0010
0000
,
1000
0001
0010
1001
,
0100
0000
0010
0000
,
0001
1000
0100
1001
,
0010
0000
0001
0000
,
0100
0010
1000
1001
,
0001
0000
0100
0000
,
0001
0010
1000
0100
,
0020
0000
0000
0000
,
0030
0000
0000
0000
,
0000
0000
0000
0000
;
#NOTES:
     dance-single:
     :
     Medium:
     7:
     :
0000
0000
0000
0000
,
0000
0000
0000
0000
,
0000
0000
0000
0000
,
0000
0000
0000
0000
,
0000
0000
0000
0000
,
1000
0001
0010
0100
,
0010
0001
1000
1001
,
0000
0000
0000
0100
1000
0100
1000
0000
,
0000
0001
0100
0001
0100
0000
0000
0000
,
0001
1000
0100
0010
,
0001
0010
0100
1001
,
0000
0000
0000
0001
1000
0001
1000
0000
,
0000
0010
0100
0010
0100
0000
0000
0000
,
0002
0000
0000
0003
,
0100
0000
0001
0000
0010
0000
0100
0200
,
0000
0000
0000
0000
0300
0000
0010
0020
,
0000
0000
0030
0001
,
2000
0000
0000
3000
,
0010
0000
1000
0000
0100
0000
0010
0020
,
0000
0000
0000
0000
0030
0000
0001
0002
,
0000
0000
0000
0003
,
0110
0000
1000
0000
0001
0010
0001
0000
,
0100
0000
0001
0000
1000
0100
1000
0000
,
1001
0000
0010
0000
1000
0100
1000
0000
,
0001
0010
0001
0000
1000
0001
0100
0000
,
0110
0000
0001
0000
1000
0010
1000
0000
,
0100
0000
0010
0001
0010
0001
0010
0000
,
1001
0000
0010
0000
0100
0001
0100
0000
,
0002
0000
0000
0000
2003
0000
0000
0000
3010
0000
0000
0010
0000
0000
0010
0000
,
0000
2002
0000
0000
0000
0000
3003
0000
,
0010
1000
0001
1000
,
0001
0000
0100
0000
1000
0001
0100
0000
,
0001
0100
0010
1000
,
0001
0000
1000
0000
0001
0100
1000
0000
,
0001
0001
1000
1000
,
0010
0000
0010
0000
1000
0100
0001
0000
,
0010
0010
0001
0001
,
0100
0000
0100
0000
0010
1000
0001
0000
,
0100
0000
0000
0010
0001
0000
0000
1000
,
0001
0100
0010
1010
,
0100
0000
0000
0001
0100
0000
0000
0010
,
1000
0001
0010
0110
,
0001
0000
0000
0100
0001
0000
0000
0010
,
1000
0001
0100
1001
,
0010
0000
0000
1000
0100
0000
0000
0001
,
0010
0000
0100
0000
1000
0001
1000
0001
,
0020
0000
0000
0000
,
0030
0000
0000
0000
,
0000
0000
0000
0000
;
#NOTES:
     dance-single:
     :
     Hard:
     10:
     :
0000
0000
0000
0000
,
0000
0000
0000
0000
,
0000
0000
0000
0000
,
0000
0000
0000
0000
,
0000
0000
0000
0000
,
0001
0100
0001
0100
0010
1000
0001
0000
,
1000
0100
0010
0001
1000
0000
0110
0000
,
0000
0000
0000
1000
0001
0010
0100
0000
,
0000
0001
1000
0100
0010
0000
0000
0000
,
1000
0010
1000
0010
0100
0001
1000
0000
,
0001
0010
0100
1000
0001
0000
0110
0000
,
0000
0000
0000
1000
0100
0001
0010
0000
,
0000
1000
0010
0001
0100
0000
0000
0000
,
0200
0000
0000
0001
0000
0000
0001
0000
0300
0000
0010
0000
1000
0000
0000
0000
,
0100
1000
0001
0010
0100
0000
0010
0002
,
0010
0000
0000
0010
0000
0000
0013
0000
0100
0000
0000
0000
1000
0000
0200
0000
,
1000
0000
0000
1000
0000
0000
1300
0000
0001
0000
0000
0000
0001
0000
1000
0000
,
0200
0000
0000
1000
0000
0000
1000
0000
0300
0000
0010
0000
0001
0000
0000
0000
,
0100
0001
1000
0100
0010
0000
0001
2000
,
0001
0000
0000
0001
0000
0000
3001
0000
0010
0000
0000
0000
0100
0000
0020
0000
,
0100
0000
0000
0100
0000
0000
0130
0000
1000
0000
0000
0000
0001
0000
0000
0000
,
1001
0000
0000
0000
0000
0001
1000
0000
0010
0000
0100
0000
0010
0000
0000
0000
,
1000
0000
0001
0000
0100
0001
0000
1000
0001
0000
0100
0000
1000
0000
0000
0000
,
0110
0000
0000
0001
0010
0100
1000
0000
,
0001
0000
1000
0000
0001
0000
0100
0000
0010
0000
1000
0100
0000
0000
0000
0000
,
1100
0000
0000
1000
0100
0010
0001
0000
,
1000
0000
1000
0000
0001
0100
0000
0100
0001
0000
0010
0000
0010
0000
0000
0000
,
0101
0000
0000
1000
0010
0100
0001
0000
,
0010
0000
0100
0000
1000
0000
0001
0000
0100
0000
0000
0001
0000
0000
1000
0000
,
0001
2002
0000
0000
0000
0000
3003
0000
,
1000
0010
0100
0010
1000
0100
0010
0100
,
1000
0000
0000
1000
0000
0000
1000
0000
0001
0000
0100
0000
1000
0000
0100
0000
,
0010
1000
0001
1000
0100
1000
0001
1000
,
0010
0000
0000
0010
0000
0000
0010
0000
0001
0000
0010
0000
1000
0000
0100
0000
,
0010
0001
0100
0001
0010
0001
0100
0001
,
1000
0000
0000
1000
0000
0000
1000
0000
0010
0000
1000
0000
0100
0000
1000
0000
,
0001
0010
0100
0010
0001
0100
0010
0100
,
0001
0000
0000
0001
0000
0000
0001
0000
1000
0000
0010
0000
0100
0000
0001
0000
,
1000
0000
0000
0010
0000
0000
0010
0000
0100
0000
0000
0010
0000
0000
0010
0000
,
1000
0001
0100
0001
1000
0001
0100
0001
,
1000
0000
0000
0001
0000
0000
0001
0000
0010
0000
0000
0001
0000
0000
0001
0000
,
1000
0100
0010
0100
1000
0100
0010
0100
,
1000
0000
0000
0100
0000
0000
0100
0000
0001
0000
0000
0100
0000
0000
0100
0000
,
0001
0100
1000
0100
0001
0100
1000
0100
,
0001
0000
0000
0010
0000
0000
0010
0000
1000
0000
0000
0010
0000
0000
0010
0000
,
1000
0010
0001
0010
0100
1000
0100
0001
,
0010
0220
0000
0000
0000
0000
0000
0000
,
0330
0000
0000
0000
,
0000
0000
0000
0000
;
#NOTES:
     dance-double:
     :
     Easy:
     5:
     :
00000000
00000000
00000000
00000000
,
00000000
00000000
00000000
00000000
,
00000000
00000000
00000000
00000000
,
00000000
00000000
00000000
00000000
,
00000000
00000000
00000000
00000000
,
00000001
00000000
00000100
00000010
,
00001000
00000000
00000100
00010000
,
00000000
00000000
01000000
00100000
,
00000000
10000000
00010000
00000000
,
10000000
00000000
01000000
00100000
,
00010000
00000000
00100000
00001000
,
00000000
00000000
00000100
00000010
,
00000000
00001000
00000001
00000000
,
00000200
00000000
00000300
00000000
,
00001000
00001000
00010000
00010000
,
02000000
00000000
03000000
00000000
,
20000000
00000000
30000000
00000000
,
00200000
00000000
00300000
00000000
,
01000000
00010000
00100000
00001000
,
00020000
00000000
00030000
00000000
,
00002000
00000000
00003000
00000000
,
00011000
00000000
00001000
00000100
,
00000001
00000010
00000001
00001000
,
00001001
00000000
00000100
00010000
,
00001000
00100000
00010000
01000000
,
10010000
00000000
00010000
10000000
,
01000000
00010000
00001000
00000100
,
00001001
00000000
00000010
00000100
,
00000001
00000010
00001000
00010000
,
00022000
00000000
00000000
00033000
,
00001000
00010000
00000010
00001000
,
00000100
00001000
00000001
00000010
,
00000001
00000100
00001000
00010000
,
01000000
10000000
00010000
10000000
,
10000000
01000000
00010000
00001000
,
00000100
00000001
00000010
00000001
,
00000100
00000010
00001000
00000100
,
00010000
00001000
00100000
00010000
,
10000000
00000000
00010000
00000000
,
01000000
00100000
10000000
10010000
,
01000000
00000000
00001000
00000000
,
00010000
00001000
00000100
00000110
,
00000001
00000000
00001000
00000000
,
00000010
00000100
00001000
00011000
,
00010000
00000000
00001000
00000000
,
00010000
01000000
10000000
01000000
,
00200000
00000000
00000000
00000000
,
00300000
00000000
00000000
00000000
,
00000000
00000000
00000000
00000000
;
#NOTES:
     dance-double:
     :
     Medium:
     7:
     :
00000000
00000000
00000000
00000000
,
00000000
00000000
00000000
00000000
,
00000000
00000000
00000000
00000000
,
00000000
00000000
00000000
00000000
,
00000000
00000000
00000000
00000000
,
10000000
00100000
01000000
00010000
,
00100000
00001000
00010000
00011000
,
00000000
00000000
00000000
00001000
00010000
00001000
00010000
00000000
,
00000000
00000010
00001000
00000010
00001000
00000000
00000000
00000000
,
00000001
00000100
00000010
00001000
,
00000001
00000010
00001000
00011000
,
00000000
00000000
00000000
00010000
00001000
00010000
00001000
00000000
,
00000000
01000000
00010000
01000000
00010000
00000000
00000000
00000000
,
00200000
00000000
00000000
00300000
,
00010000
00000000
01000000
00000000
00100000
00000000
10000000
20000000
,
00000000
00000000
00000000
00000000
30000000
00000000
00010000
00020000
,
00000000
00000000
00030000
00100000
,
00002000
00000000
00000000
00003000
,
00010000
00000000
00001000
00000000
00000100
00000000
00000001
00000002
,
00000000
00000000
00000000
00000000
00000003
00000000
00000010
00000020
,
00000000
00000000
00000000
00000030
,
00011000
00000000
00001000
00000000
00010000
00001000
00010000
00000000
,
01000000
00000000
00100000
00000000
00010000
01000000
00010000
00000000
,
10010000
00000000
10000000
00000000
00100000
01000000
00100000
00000000
,
10000000
01000000
00010000
00000000
00001000
00000100
00000001
00000000
,
00000110
00000000
00000001
00000000
00001000
00000100
00001000
00000000
,
00000010
00000000
00001000
00000100
00010000
00001000
00100000
00000000
,
00011000
00000000
00001000
00000000
00100000
00010000
00100000
00000000
,
02000000
00000000
00000000
00000000
23000000
00000000
00000000
00000000
30010000
00000000
00000000
00010000
00000000
00000000
00010000
00000000
,
00000000
02200000
00000000
00000000
00000000
00000000
03300000
00000000
,
00010000
01000000
00001000
00010000
,
00000010
00000000
00001000
00000000
00000001
00000100
00001000
00000000
,
00010000
00001000
00100000
00010000
,
01000000
00000000
00100000
00000000
10000000
01000000
00010000
00000000
,
00001000
00010000
00000100
00001000
,
00000010
00000000
00000100
00000000
00000001
00000010
00001000
00000000
,
00010000
01000000
10000000
00100000
,
01000000
00000000
00010000
00000000
10000000
01000000
00010000
00000000
,
00001000
00000000
00000000
00010000
00001000
00000000
00000000
00010000
,
00000100
00001000
00000010
00000101
,
00000100
00000000
00000000
00001000
00010000
00000000
00000000
00001000
,
00100000
00010000
01000000
11000000
,
00100000
00000000
00000000
10000000
01000000
00000000
00000000
00100000
,
00001000
00010000
00001000
00000110
,
00000001
00000000
00000000
00000100
00000010
00000000
00000000
00010000
,
00001000
00000000
00100000
00000000
00010000
01000000
00010000
01000000
,
00020000
00000000
00000000
00000000
,
00030000
00000000
00000000
00000000
,
00000000
00000000
00000000
00000000
;
#NOTES:
     dance-double:
     :
     Hard:
     10:
     :
00000000
00000000
00000000
00000000
,
00000000
00000000
00000000
00000000
,
00000000
00000000
00000000
00000000
,
00000000
00000000
00000000
00000000
,
00000000
00000000
00000000
00000000
,
00000001
00000100
00000001
00000100
00000010
00001000
00000010
00000000
,
00010000
00100000
00010000
00001000
00010000
00000000
00011000
00000000
,
00000000
00000000
00000000
00010000
01000000
10000000
00100000
00000000
,
00000000
10000000
01000000
00010000
00001000
00000000
00000000
00000000
,
00010000
00001000
00010000
00001000
00100000
01000000
00100000
00000000
,
00010000
01000000
00100000
10000000
00010000
00000000
10010000
00000000
,
00000000
00000000
00000000
00100000
10000000
01000000
00010000
00000000
,
00000000
00001000
00000100
00000001
00000010
00000000
00000000
00000000
,
00000002
00000000
00000000
00001000
00000000
00000000
00001000
00000000
00000003
00000000
00000010
00000000
00000100
00000000
00000000
00000000
,
00010000
00001000
00010000
01000000
10000000
00000000
00010000
20000000
,
00010000
00000000
00000000
00010000
00000000
00000000
30010000
00000000
00100000
00000000
00000000
00000000
00010000
00000000
20000000
00000000
,
01000000
00000000
00000000
01000000
00000000
00000000
01000000
00000000
31000000
00000000
00000000
00000000
10000000
00000000
00010000
00000000
,
20000000
00000000
00000000
00010000
00000000
00000000
00010000
00000000
30000000
00000000
01000000
00000000
00100000
00000000
00000000
00000000
,
00001000
00010000
00001000
00000100
00000001
00000000
00001000
00000002
,
00001000
00000000
00000000
00001000
00000000
00000000
00001003
00000000
00000010
00000000
00000000
00000000
00001000
00000000
00000002
00000000
,
00000100
00000000
00000000
00000100
00000000
00000000
00000100
00000000
00000103
00000000
00000000
00000000
00001000
00000000
00000000
00000000
,
00011000
00000000
00000000
00000000
00000000
00001000
00010000
00000000
00100000
00000000
01000000
00000000
00100000
00000000
00000000
00000000
,
10000000
00000000
01000000
00000000
00100000
00010000
00000000
01000000
00001000
00000000
00010000
00000000
00001000
00000000
00000000
00000000
,
00011000
00000000
00000000
00010000
00001000
00000010
00000001
00000000
,
00001000
00000000
00000001
00000000
00001000
00000000
00000100
00000000
00010000
00000000
00001000
00010000
00000000
00000000
00000000
00000000
,
00011000
00000000
00000000
00001000
00010000
01000000
10000000
00000000
,
10000000
00000000
00100000
00000000
00010000
00001000
00000000
00010000
00001000
00000000
00010000
00000000
00000100
00000000
00000000
00000000
,
00001100
00000000
00000000
00000001
00000010
00000100
00001000
00000000
,
00000020
00000000
00001000
00000000
00020030
00000000
00000100
00000000
00031000
00000000
00000000
00010000
00000000
00000000
01000000
00000000
,
00100000
20020000
00000000
00000000
00000000
00000000
30030000
00000000
,
00100000
01000000
00010000
01000000
00000000
00100000
10000000
00100000
,
01000000
00000000
00000000
01000000
00000000
00000000
01000000
00000000
00100000
00000000
10000000
00000000
01000000
00000000
00010000
00000000
,
00001000
00010000
00000010
00010000
00000000
00001000
00000100
00000001
,
00000010
00000000
00000000
00000010
00000000
00000000
00000010
00000000
00000001
00000000
00000100
00000000
00001000
00000000
00010000
00000000
,
00001000
00010000
00000100
00010000
00000000
00001000
00010000
00001000
,
00100000
00000000
00000000
00100000
00000000
00000000
00100000
00000000
01000000
00000000
10000000
00000000
01000000
00000000
00010000
00000000
,
00001000
00010000
00000010
00010000
00000000
00010000
00001000
00010000
,
00000100
00000000
00000000
00000100
00000000
00000000
00000100
00000000
00001000
00000000
00000100
00000000
00000010
00000000
00000001
00000000
,
00001000
00000000
00000000
00000100
00000000
00000000
00000100
00000000
00010000
00000000
00000000
00001000
00000000
00000000
00001000
00000000
,
00100000
00010000
01000000
00100000
10000000
01000000
00100000
00010000
,
00100000
00000000
00000000
00001000
00000000
00000000
00001000
00000000
00010000
00000000
00000000
00000010
00000000
00000000
00000010
00000000
,
00001000
00000100
00000010
00000001
00000100
00000010
00001000
00000100
,
00001000
00000000
00000000
00000100
00000000
00000000
00000100
00000000
00010000
00000000
00000000
00001000
00000000
00000000
00001000
00000000
,
01000000
00001000
00010000
00001000
00100000
01000000
10000000
00010000
,
10000000
00000000
00000000
00100000
00000000
00000000
00100000
00000000
00010000
00000000
00000000
00001000
00000000
00000000
00001000
00000000
,
00000010
00000001
00000010
00000100
00001000
00000001
00000100
00001000
,
00010000
00200000
00000000
00000000
00000000
00000000
00000000
00000000
,
00300000
00000000
00000000
00000000
,
00000000
00000000
00000000
00000000
;
