
//----- song ID: newe -----//
#TITLE:New Era;
#ARTIST:BEMANI Sound Team "Sota F.";
#BANNER:New Era.png;
#BACKGROUND:New Era-bg.png;
#CDTITLE:./CDTitles/DDR A20.png;
#MUSIC:New Era.ogg;
#SAMPLESTART:88.748;
#SAMPLELENGTH:15;
#BPMS:0=120,12=240,103=120,105=240,127=120,128=240,158.5=120,162.5=240,170.5=120,174.5=240,182.5=120,186.5=240,218=120,234=30,235=240,274=120,275.5=240,296.5=60,297.5=240,321.5=120,325.5=240,344=120,348=60,349=240;
#STOPS:42.5=0.25,135=0.125,157.5=0.25,201.5=0.125,241=0.125,256.5=0.125,329.5=0.25,330=0.5,334.5=0.25,335=0.25,335.5=0.125,364=0.125;
#NOTES:
     dance-single:
     :
     Beginner:
     8:
     :
0000
0000
0000
0000
,
0000
0000
0000
0000
,
0000
0000
0000
0000
,
0001
0000
0100
0000
,
0001
0000
0000
0000
,
0001
0000
0100
0000
,
0001
0000
0000
0000
,
0001
0000
0010
0000
,
0001
0000
0000
0000
,
0001
0000
0010
0000
,
0001
0000
0000
1000
,
0000
0010
0000
1000
,
0000
0010
0000
1000
,
0000
0100
0000
1000
,
0000
0000
0000
1000
,
0000
0100
0000
1000
,
0000
0100
0000
1000
,
0000
0010
0000
1000
,
0000
0000
0000
0001
,
0001
0001
0000
0010
,
0000
0000
0000
0001
,
0001
0001
0000
0100
,
0000
0000
0000
0001
,
0001
0001
0000
0001
,
0000
0000
0000
0100
,
0000
0001
0000
0010
,
0000
1000
0000
0010
,
0000
1000
0000
1000
,
0000
0010
0000
0010
,
0000
1000
0000
1000
,
0000
0100
0000
0100
,
0000
0100
0000
1000
,
1000
0000
1000
0000
,
0100
0000
0100
0000
0100
0000
0000
0001
,
0000
0000
0000
0001
0000
0000
0000
0100
,
0000
0000
0000
0001
0000
0000
0000
0010
,
0000
0000
0000
0010
0000
0000
0000
0001
,
0000
0000
0000
0001
0000
0000
0000
0100
,
0000
0000
0000
0001
0000
0000
0000
0100
,
0000
0100
0000
0100
0000
0001
0000
0000
,
0000
0000
0000
0000
0000
1000
0000
1000
,
0000
1000
0000
0000
0000
0100
0000
0000
,
0000
1000
0000
0000
0000
2000
0000
0000
,
0000
3000
0000
0000
0000
0001
0000
0001
,
0000
0001
0000
0000
0000
0001
0000
0000
,
0000
0100
0000
0000
0000
0002
0000
0000
,
0000
0003
0000
0000
0000
1001
0000
0000
,
0000
0000
0000
0000
0000
1001
0000
0000
,
0000
0000
0000
0000
0000
1001
0000
0000
,
0000
1001
0000
0000
0000
1001
0000
0000
,
0000
0000
1001
0000
,
0000
0000
1001
0000
,
0000
0000
1001
0000
,
1001
0000
1001
0000
,
0000
0000
0002
0000
,
0000
0000
0003
0000
,
0000
0000
2000
0000
,
0000
0000
3000
0000
,
0000
0000
1001
0001
,
0000
0010
0000
0001
,
0000
0000
0001
0000
0000
0100
0000
0000
,
0000
0100
0000
0000
0000
0001
0000
0000
,
0000
0000
0000
0000
0000
1000
0000
0000
,
0000
0010
0000
0000
0000
1000
0000
0000
,
0000
1000
0000
0000
0100
0000
0000
0000
,
0100
0000
1000
0000
,
0000
0000
0001
0000
,
0010
0000
0001
0000
,
0100
0000
0001
0000
,
0000
1001
0000
0000
0000
0000
0000
0000
,
0000
0001
0000
0000
0000
0100
0000
0000
,
0000
0001
0000
0000
0000
0010
0000
0000
,
0000
0001
0000
0001
0000
0001
0000
0000
,
0000
0001
0000
0000
0000
0000
0000
0000
,
0000
1001
0000
1000
0000
0000
0000
0100
,
0000
0000
0000
1000
0000
0100
0000
1000
,
0000
0000
0000
0100
0000
0000
0000
1000
,
0000
0000
0000
0010
0000
0010
0000
0010
,
0000
0000
0000
1000
0000
0000
0000
0010
,
0000
0000
0000
1000
0000
0100
0000
1000
,
0000
0000
0000
1000
0000
1000
0000
1000
,
0000
0000
0000
0001
0000
0000
0000
0010
,
0000
0000
0000
0001
0000
0100
0000
0000
,
0000
0001
0000
0000
0000
0100
0000
0000
,
0001
0100
0001
0000
,
0010
0000
0010
0000
,
0002
0000
0000
0000
,
0003
0001
0001
0001
,
0000
0001
0000
0010
,
0000
0001
0000
0100
,
0000
0100
0100
0001
,
0000
1000
0000
1000
0000
1000
0000
0000
,
0000
1000
0000
0000
0000
0010
0000
0000
,
0000
1000
0000
0000
0000
0100
0000
0000
,
0000
0100
0000
0100
0000
1000
0000
0000
,
0000
1000
0000
0000
0000
0010
0000
0000
,
0000
1000
0000
0000
0000
0000
0000
0000
,
0000
1000
0000
0000
0000
0001
0000
0000
,
0000
1000
0000
0000
0000
1001
0000
0000
,
0000
0000
0000
0000
;
#NOTES:
     dance-single:
     :
     Easy:
     11:
     :
0000
0000
0000
0000
,
0000
0000
0000
0000
,
0000
0000
0000
0000
,
0001
0001
0020
0000
,
0031
0100
0010
0000
,
1000
1000
0020
0000
,
1030
0100
0010
0000
,
0001
0100
0002
0000
,
1003
0100
1000
0000
,
0001
0010
0002
0000
,
1003
0010
0100
0001
,
0001
0100
0000
0010
,
0010
1000
0000
1000
,
1000
0100
0000
0010
,
0010
0001
0000
0010
,
0100
0010
0000
0100
,
0010
0100
0000
0001
,
1000
0001
0000
1000
,
0001
1000
0000
1001
,
0000
1000
0100
0010
,
0001
0100
0000
1001
,
0000
0001
0100
0010
,
1000
0100
0000
1001
,
0000
0010
0100
1000
,
0001
0100
0000
0010
,
0100
0010
0100
0020
,
0000
0031
0001
1000
,
1000
0001
1000
0001
,
0000
0100
0100
0010
,
0010
0100
0010
0100
,
0000
0001
1000
0001
,
1000
0001
0000
1001
,
0001
0100
1000
0000
,
1000
0000
0100
0000
0001
0000
0000
0001
,
0000
0001
0000
0100
0000
0100
0000
0010
,
0000
0010
0000
1000
0000
1000
0000
0100
,
0000
0100
0000
0010
0000
0010
0000
0001
,
0000
0001
0000
0010
0000
0010
0000
0100
,
0000
1000
0000
0001
0000
1000
0000
0100
,
0000
1000
0000
0001
0000
0100
0010
0110
,
0000
0100
0001
1001
0000
0002
0000
0000
,
0000
0103
0000
0010
0000
1000
0000
1000
,
0000
0100
0000
0000
0000
0020
0000
0031
,
0001
0100
0010
1000
0000
0002
0000
0000
,
0000
0013
0000
0100
0000
1000
0000
1000
,
0000
0010
0000
0000
0000
0200
0000
0301
,
0001
0010
0100
1000
0000
0001
0000
0100
,
0000
0001
0000
0100
0000
1000
0000
0100
,
0000
1000
0000
0100
0000
0001
0000
0100
,
0000
1000
0000
0100
0000
0001
0000
0000
,
0000
1001
0000
0000
1000
0000
0100
0000
,
1000
0100
0001
0100
,
0001
0100
1000
0100
,
0001
0100
1000
0000
,
1001
0000
0000
0000
1000
0001
0100
0000
,
0001
1000
0100
0000
1000
0001
0010
0000
,
0001
1000
0010
0000
1000
1000
0100
0100
,
0010
0010
0001
0001
1000
0000
0001
0000
,
1001
0000
0200
0301
,
0100
0001
0100
0010
,
0000
0000
0110
0000
0000
1000
0000
0100
,
0000
1000
0000
0100
0000
0010
0000
0010
,
0000
0001
0000
0000
0000
1000
0000
0010
,
0000
1000
0000
0010
0000
0100
0000
0000
,
0000
0110
0000
0000
0001
0000
1000
0000
,
0001
1000
0100
0010
,
0001
1000
0001
0010
,
0100
1000
0010
0010
,
0100
0100
0220
0330
,
0000
0001
0000
0100
0000
0001
0000
0000
,
0000
1000
0000
0010
0000
0100
0000
0001
,
0000
1000
0000
1000
0000
0001
0000
0001
,
0000
1000
0000
0001
0000
0100
0000
0010
,
0000
0010
0000
0100
0000
0000
0000
0000
,
0000
0220
0330
0001
0000
0100
0000
0001
,
0000
0100
0000
0010
0000
0010
0000
0010
,
0000
0000
0000
1000
0000
0100
0000
0010
,
0000
0000
0000
1001
0000
0000
1001
0000
,
0000
1001
0000
1000
0000
0100
0000
1000
,
0000
0100
0000
0010
0000
0010
0000
0010
,
0000
0000
0000
0001
0100
1000
0000
1000
,
0100
0001
0000
0010
0000
0010
0000
0010
,
0000
0000
0000
2002
3003
0010
0000
0010
,
0000
0010
0000
0000
0000
2002
0000
3003
,
0001
0100
0001
0000
,
1000
0100
1000
0000
,
0020
0000
0000
0000
,
0030
1000
0100
0010
,
0001
1000
0100
0010
,
0001
1000
0100
0010
,
0001
1000
0000
1001
,
0000
0001
0000
0100
0000
0010
0000
1000
,
0000
0001
0000
0100
0000
0010
0000
1000
,
0000
0001
0000
0100
0000
0010
0000
1000
,
0000
0001
0000
0000
0000
1001
0000
0000
,
0000
0001
0000
0001
0000
0001
0000
0000
,
0000
1000
0000
1000
0000
1000
0000
0000
,
0000
0001
0000
1000
0000
0001
0000
1000
,
0000
0001
0000
1000
0000
0001
0000
2000
,
0000
0000
0000
0000
,
0000
0000
0000
0000
,
0000
0000
0000
0000
,
0000
3000
0000
0000
0000
0000
0000
0000
,
0000
0000
0000
0000
;
#NOTES:
     dance-single:
     :
     Medium:
     15:
     :
0000
0000
0000
0000
,
0000
0000
0000
0000
,
0000
0000
0000
0000
,
0001
1000
0001
1000
0001
0000
0100
0010
,
0100
0010
0100
0000
1001
0000
0000
0000
,
0010
0100
0010
0100
0010
0000
1000
0001
,
1000
0001
1000
0000
0110
0000
0000
0000
,
0001
0010
0001
0010
0001
0000
1000
0100
,
1000
0100
1000
0000
1001
0000
0000
0000
,
0001
0100
0001
0100
0001
0000
1000
0010
,
1000
0010
1000
0000
0000
0110
0010
1000
,
0010
0000
1000
0100
1000
0000
0100
0010
,
0100
0000
0110
0000
0000
0000
0001
0100
,
0001
0000
0100
0010
0100
0000
0010
1000
,
0010
0000
1001
0000
0000
0000
0001
0100
,
0001
0000
0100
1000
0100
0000
1000
0100
,
0001
0000
1001
0000
0000
0000
1000
0010
,
1000
0000
0010
0001
0010
0000
0001
0010
,
1000
1001
0000
1001
,
0001
0100
1000
0100
,
0000
0100
0010
0100
0000
0100
0010
0000
,
1000
0100
0001
0100
,
0000
0100
0010
0100
0000
0100
0010
0000
,
0001
0100
0000
0110
,
0110
0000
0000
1001
0000
0000
0001
1000
,
0001
0000
0010
0100
0010
0000
0200
0000
,
0000
0000
0310
0000
0000
0010
0100
0000
,
0110
1001
1001
1001
,
0000
0000
0001
0100
0001
0000
1000
0100
,
1000
1001
1001
1001
,
0000
0000
0001
0010
0100
0000
1000
0010
,
0100
0000
0001
0010
0100
0000
1001
0000
,
0001
1000
0100
0000
1000
0001
0100
0000
,
0001
1000
0100
0000
0010
0000
1001
0001
,
0000
0010
0000
1000
0000
0010
0000
0001
,
0000
0100
0000
1000
0000
0100
0000
0001
,
0000
0010
0000
0100
0000
1000
0001
1000
,
0000
0010
0000
0100
0000
1001
0000
0001
,
0000
0110
0000
1000
0000
0110
0000
0010
,
0000
0000
0010
0000
0000
0000
1001
0000
0000
0000
0010
1000
0010
0000
0100
0001
,
0100
0100
0100
0001
0000
1000
0001
1000
,
0000
1001
0000
0110
0000
0001
0010
0000
,
0100
0000
0000
0000
1000
0000
0000
0000
0000
0000
1000
0001
1000
0000
1001
0000
,
0110
0000
0001
0010
0000
0100
0000
1000
0000
0000
0010
0000
0100
0000
0001
0000
,
0000
0101
0000
1001
0000
1000
0100
0000
,
0010
0000
0000
0000
0001
0000
0000
0000
0000
0000
0010
0100
1000
0000
0101
0000
,
1001
0000
1000
0100
0000
0010
0000
0001
0000
0000
1001
0000
0000
0000
0001
0000
,
0100
0001
0000
0001
0000
1001
0000
1000
,
0100
1000
0000
1000
0000
0001
0100
0001
,
0000
1000
0100
1000
0000
0001
1000
0001
,
1000
0001
0000
1001
1001
0000
0001
0010
,
0001
0000
0001
0000
1001
0000
1000
0010
,
1000
0000
1000
0000
0001
0010
0001
0000
,
1000
0010
1000
0000
0001
1000
0000
0001
,
0000
0000
1001
0000
0000
0000
0000
0000
1000
0000
0001
0100
0000
0100
0010
0000
,
1000
0000
0100
0010
0100
0000
0000
0000
1000
0000
0001
0100
0000
0100
0010
0000
,
1000
0000
0100
0010
0100
0000
0000
0000
0001
0000
0010
0000
0100
0000
0000
0000
,
1000
0010
0100
0000
0100
0000
0100
0000
,
0001
0000
0000
0000
0020
0000
0031
0010
,
0001
0000
1000
0001
1000
0001
1000
0001
,
1000
0000
0110
1000
0100
1000
0100
1000
,
0000
0001
0100
0001
0100
0001
0100
0001
,
0000
1000
0010
1000
0010
1000
0010
1000
,
0000
0100
0010
0100
0010
0100
0010
0100
,
0000
0110
0001
1000
0001
1000
0001
0000
,
1000
0010
1000
0010
1000
0010
1000
0000
,
0100
0010
0100
0010
0100
0010
0100
0000
,
0010
0001
0010
0001
0010
0001
0010
0000
,
0001
1000
0001
0000
0002
0000
0000
0000
,
1003
0000
1000
0001
1000
0001
1000
0001
,
0000
1000
0010
1000
0010
0100
0001
0100
,
0001
1000
0001
1000
0000
0100
0010
0100
,
0000
1000
0100
0010
0100
0010
0001
0010
,
0100
0000
0010
0100
0000
0000
0000
0000
,
0000
0020
0000
0031
0000
0100
0000
0001
,
1000
0000
0001
0100
0000
0001
1000
0000
,
0001
0100
0000
0001
0000
0010
0000
0100
,
1000
0000
0100
0010
0000
0100
1000
0000
,
0100
0010
0000
0001
0000
0100
0000
0001
,
1000
0000
0001
0100
0000
0001
1000
0000
,
0001
0000
0100
0000
0000
0000
0001
0000
1000
0000
0100
0010
0000
0000
0011
0000
,
0000
1010
0000
0000
1100
0000
0001
0000
0010
0000
0001
0000
0000
0000
1000
0000
,
0100
0010
0000
0110
1001
1000
0010
1000
,
0000
0001
0100
0010
0000
0110
1001
0110
,
1000
0001
0100
0010
,
1000
0001
0010
0100
,
2000
0000
0001
0000
0000
0001
0000
0000
0100
0000
0000
0100
0000
0000
3100
0000
,
0020
0000
0031
0010
0001
0010
1000
0010
,
1000
0010
0001
0010
1000
0010
0100
0001
,
1000
0010
0001
0010
0100
0001
1000
0010
,
0001
1000
0100
0001
0100
1000
0001
0000
,
1001
1000
0010
1000
0010
0001
0010
0001
,
0010
1000
0010
0001
0010
0100
1000
0001
,
0010
1000
0010
0100
1000
0001
0010
1000
,
0001
0100
1000
0100
0001
1000
0000
1001
,
0000
0001
1000
0001
0000
1000
0001
1000
,
0000
0001
1000
0001
0000
1001
0000
0000
,
0000
0010
0100
0010
0000
0100
0010
0100
,
0000
0010
0100
0010
0100
0010
0000
0220
,
0000
0000
0000
0000
,
0000
0000
0000
0000
,
0000
0000
0000
0000
,
0000
0330
0000
0000
0000
0000
0000
0000
,
0000
0000
0000
0000
;
#NOTES:
     dance-single:
     :
     Hard:
     17:
     :
0000
0000
0000
0000
,
0000
0000
0000
0000
,
0000
0000
0000
0000
,
0001
1000
0001
1000
0010
0000
0100
0010
,
1000
0100
0010
0001
0100
0010
1000
0000
,
0010
0100
0010
0100
0001
0000
1000
0010
,
0100
0001
1000
0100
0010
0001
1000
0000
,
1000
0001
1000
0001
0100
0000
0010
0100
,
0001
0010
0100
1000
0010
0100
0001
0000
,
0100
0010
0100
0010
1000
0000
0001
0100
,
0010
1000
0001
0010
0000
0110
0001
0010
,
0100
0010
0001
1000
0100
0010
0100
0001
,
1000
0010
0100
0010
0000
0010
0001
0010
,
0100
1000
0001
0010
1000
0001
0100
1000
,
0001
1000
0100
0010
0000
0010
0001
0100
,
0010
1000
0010
0100
0001
1000
0010
0100
,
1000
0001
0010
0100
0000
0100
0010
1000
,
0010
1000
0001
0100
0001
1000
0001
0100
,
1000
0001
0010
1000
0000
1000
0001
0100
,
0001
1000
0100
0010
0001
1000
0010
0100
,
0010
0100
0001
0010
0000
0010
0100
1000
,
0100
1000
0010
0100
0001
1000
0001
0010
,
0100
1000
0100
0010
0000
0010
0001
0100
,
0010
0100
0010
1000
0010
0100
0010
1000
,
0100
1000
0100
0010
0000
0010
0001
0010
,
0001
0000
0010
0000
0100
0000
1000
0000
0100
0000
1000
0000
0001
1000
0001
1000
,
0100
0010
0000
0010
0100
0000
0000
0000
1000
0000
0001
0000
1000
0000
0000
0000
,
1001
0110
1001
0110
,
0000
0000
0000
0000
0110
0000
0000
0000
0110
0000
0000
0000
0010
0000
0001
1000
,
0001
0000
0000
0000
0010
0000
0001
1000
0001
0000
0000
0000
1001
0000
0000
0000
,
0000
0011
0011
1100
,
1100
0000
0000
0000
0001
1000
0001
1000
0001
0000
0000
0000
1001
0000
0000
0000
,
0001
0100
1000
0000
1000
0100
0001
0000
,
1000
0100
0001
0100
1000
0000
1001
1000
,
0100
0010
0001
1000
0010
0100
0001
1000
,
0100
0010
0100
1000
0100
1000
0010
0100
,
0001
0000
1000
0000
0000
0000
0001
1000
0001
1000
0001
0000
0000
0000
0101
0000
,
0000
1100
0000
0101
0000
0010
0000
0100
,
0000
1010
0000
0100
0000
0011
0000
0100
,
0000
0000
0010
0000
0000
0000
1001
0000
0000
0000
0001
0010
0100
1000
0100
0100
,
0000
0100
0100
0001
0000
0001
0100
0010
,
0000
1010
0000
1100
0000
0001
0100
0000
,
1100
0000
0000
0000
1010
0000
0000
0000
0010
0000
1000
0100
0010
0000
0011
0000
,
0101
0000
1000
0100
0000
0101
0000
0011
0000
0010
0001
0000
0010
0000
0100
0000
,
0000
1100
0000
1010
0000
0001
0010
0000
,
1010
0000
0000
0000
1100
0000
0000
0000
0100
0000
1000
0010
0100
0000
0101
0000
,
0011
0000
1000
0010
0000
0011
0000
1001
0000
0000
0002
0000
0000
0000
1003
0000
,
0001
0100
0000
0110
0000
0020
0000
1030
,
0010
0100
0000
0110
0000
0101
0000
0001
,
0000
1100
0000
1000
0000
0101
0000
1100
,
0000
0001
1000
0100
2000
0000
3001
1000
,
0100
0000
0110
0000
0020
0000
0031
0010
,
0100
0110
1100
1000
,
0101
0000
0001
0000
1000
0100
0000
0101
,
0000
0000
0011
0000
0000
0000
0000
0000
1010
0000
0010
1000
0000
1000
0100
0000
,
0010
0000
0001
0100
0010
1000
0010
0000
1010
0000
0010
0001
0000
0001
0100
0000
,
0010
0000
1000
0100
0010
0001
0010
0000
0002
0000
0023
0000
0230
0000
2300
0000
,
3002
0000
0023
0000
0230
0000
2300
0000
3001
0100
1000
0100
0001
0010
1000
0010
,
0002
0000
0000
0000
0203
1000
0301
1000
,
0100
0010
0001
0100
0001
1000
0100
1000
,
0010
0000
0110
1000
0100
0001
0100
1000
,
0001
0010
0100
0010
0100
1000
0010
0100
,
0001
0100
1000
0100
0010
1000
0001
1000
,
0100
0010
1000
0010
0001
1000
0100
0010
,
0000
0110
0001
1000
0100
0010
0100
1000
,
0001
0100
0010
1000
0010
0100
0001
1000
,
0010
1000
0100
0001
1000
0010
0001
1000
,
0100
0010
0001
0010
0100
1000
0001
0100
,
0001
0000
1000
0000
0001
0000
1000
0000
0001
0010
0001
0010
0100
1000
0100
0000
,
1000
0000
1000
0001
0100
0010
1000
0001
,
0100
0001
0010
0001
1000
0010
1000
0001
,
0010
0001
1000
0100
1000
0001
0100
0010
,
1000
0001
0010
0100
0010
0100
1000
0001
,
0100
0000
0010
0100
0000
0000
0000
0000
,
0000
0210
0000
0301
0000
0101
0000
1000
,
0100
0010
0000
0011
0000
0010
0100
0000
,
1000
0100
0000
1000
0000
1100
0000
0001
,
0100
0010
0000
1010
0000
0010
0100
0000
,
0001
0100
0000
0010
0000
0110
0000
1000
,
0001
0100
0000
1001
0000
0100
0010
0000
,
0010
0000
0100
0000
0000
0000
0110
0000
0010
0100
0001
1000
0100
0000
0010
0100
,
0100
0010
0100
0100
0010
0000
0001
0000
1000
0000
0100
0000
0000
0000
1000
0000
,
0001
0100
0000
0110
1001
0001
1000
0010
,
0000
1000
0001
0010
0000
0110
1001
0110
,
0001
0100
1000
0100
0001
0010
1000
0000
,
0001
0100
1000
0010
0001
0010
1000
0000
,
0001
0000
1000
0100
0000
0001
0100
0000
1100
0000
0000
1010
0000
0000
0011
0000
,
0200
0000
0301
0010
0100
1000
0010
0100
,
0001
0000
0010
0000
0100
0000
1000
0100
1000
0000
0001
0100
0001
0000
1000
0100
,
1000
0000
0001
0000
0100
0000
0010
0100
0010
0000
0100
0000
0010
0000
1000
0001
,
1000
0000
0001
0000
1000
0100
1000
0100
0010
0000
0001
0000
0100
0000
0000
0000
,
1001
1000
0010
0100
0001
0010
0100
1000
,
0010
0000
0100
0000
0001
0010
0001
0000
1000
0010
1000
0000
0001
0010
0001
0000
,
1000
0000
0100
0000
0010
0100
0010
0000
0100
0000
0010
0000
0001
0100
0010
0000
,
1000
0000
0001
0100
0001
0100
0010
0000
1000
0000
0100
0000
0000
0000
1001
0000
,
0000
0001
0100
0001
0000
1000
0100
1000
,
0000
0001
0100
0001
0000
1001
0000
0000
,
0000
0001
0010
0001
0000
1000
0010
1000
,
0000
0001
1000
0001
1000
0001
2000
0002
,
0000
0000
0000
0000
,
0000
0000
0000
0000
,
0000
0000
0000
0000
,
0000
3003
0000
0000
0000
0000
0000
0000
,
0000
0000
0000
0000
;
#NOTES:
     dance-single:
     :
     Challenge:
     18:
     :
0000
0000
0000
0000
,
0000
0000
0000
0000
,
0000
0000
0000
0000
,
2001
0000
0000
0000
0100
0000
3010
0100
,
0001
0000
1000
0100
0000
0100
0010
0000
,
1000
0010
0000
0010
0100
0000
0010
0100
,
1000
0001
0100
0010
0000
0010
0000
0000
,
0100
0010
0000
0010
1000
0000
0100
0001
,
0010
0100
1000
0100
0000
0100
0010
0000
,
0001
0100
0000
0001
0100
0000
0010
0100
,
0001
0000
1000
0000
0001
0000
1000
0000
0000
0000
1001
0000
0001
0010
0001
0000
,
1000
0010
0100
0001
0010
0100
1000
0001
,
0100
0000
0001
0000
0010
0000
0100
0000
0000
0000
0100
0000
1000
0010
1000
0000
,
0100
0000
0010
0000
0001
1000
0001
0000
0100
0000
0001
0000
0010
0000
0100
0000
,
1000
0000
0010
0000
1000
0000
0001
0000
0000
0000
0001
0000
1000
0100
1000
0000
,
0010
0100
0010
1000
0001
0010
0100
1000
,
0001
0000
0010
0000
0100
0000
1000
0000
0000
0000
1000
0000
0010
1000
0010
0000
,
0100
0001
0010
0001
1000
0100
0010
0001
,
0100
0001
0010
0100
0000
0100
1000
0010
,
0100
0010
0001
0010
0100
0010
1000
0100
,
0010
0001
1000
0100
0010
0001
1000
0100
,
0010
0100
0001
0100
0010
0100
1000
0010
,
0100
0001
1000
0010
0100
0001
1000
0100
,
1000
0100
0010
0001
1000
0100
0010
0001
,
0100
0001
1000
0010
0100
0001
0010
0100
,
1000
0000
0010
0100
0001
0000
2002
0000
,
0000
3003
0010
0000
0000
0010
0100
0000
,
0110
0000
0000
0000
0001
0010
0100
1000
0001
0000
0000
0000
2002
0000
0000
0000
,
3003
0000
0000
0000
1000
0000
0000
0000
0110
0000
0000
0000
0001
0000
1000
0010
,
1000
0000
0000
0000
0001
0000
0000
0000
0010
0100
0010
0100
2000
0000
0000
0000
,
3000
0101
1100
1010
,
0110
0000
0000
0000
0001
0100
0010
1000
0001
0000
0000
0000
1001
0000
0000
0000
,
1000
0000
0010
0000
0100
0001
1000
0000
0001
0000
0010
0000
0100
1000
0001
0000
,
1000
1000
1000
0000
1000
0000
1001
0001
,
0100
0000
0010
1000
0010
0000
0100
0000
0001
0000
0010
0100
0010
0000
0001
0000
,
1000
0000
0001
0100
0001
0000
1000
0000
0100
0000
0010
0001
0010
0000
0001
0000
,
0100
0000
0001
1000
0001
0000
0100
0001
0100
0000
0001
0000
0010
0000
0100
0000
,
1000
0000
0010
0000
0100
0000
0001
0000
1000
0000
0001
0000
0000
0000
1000
0100
,
0010
0000
0001
0000
0100
0000
0010
1000
0001
0000
0010
0000
0100
0000
1000
0010
,
1000
0000
0001
0010
0001
0000
1001
0000
0000
0000
0001
0010
0001
0010
0100
1000
,
0000
0000
0100
0000
0100
0000
0001
0000
0000
0000
1000
0010
1000
0000
0001
0000
,
0010
0000
0100
1000
0100
0000
0010
0000
0001
0000
0100
0010
1000
0010
0100
0000
,
0001
0000
0000
0000
0100
0000
0000
0000
0001
0000
0000
0000
1000
0000
0000
0000
0100
0000
0000
0000
0010
0001
0010
0000
0001
0000
0100
0000
0010
1000
0010
0000
,
0100
0000
0001
0000
1000
0100
0010
0100
1000
0000
0010
0000
0100
0000
0001
0000
1000
0000
0000
0000
0001
0000
0100
0000
0001
0000
0000
0000
1000
0000
0000
0000
,
0100
0000
0010
0001
0010
0000
0100
0000
1000
0000
0010
0100
0001
0100
0010
0000
,
1000
0000
0000
0000
0010
0000
0000
0000
1000
0000
0000
0000
0001
0000
0000
0000
0010
0000
0000
0000
0100
1000
0100
0000
1000
0000
0010
0000
0100
0001
0100
0000
,
0010
0000
1000
0000
0001
0010
0100
0010
0001
0000
0100
0000
0000
0000
0110
0000
0000
0000
0000
0000
0001
0000
0000
0000
0010
0000
0000
0000
0100
0000
0000
0000
,
0010
0001
0001
1000
1000
0100
0010
0001
,
0010
0100
0100
0010
0010
0011
0000
1010
,
0000
0101
0000
1100
0000
1001
0000
0100
,
0000
0000
0001
1000
0001
1000
0001
0000
1000
0000
0010
0000
0100
0000
0010
0000
,
1000
1000
0001
0001
0100
0010
1000
0010
,
0100
0000
0100
0000
0010
0000
0010
0000
1000
0100
0010
0000
0001
0000
0010
0000
,
0001
0010
0100
0000
1000
0000
0100
0000
1000
0000
0001
0000
0000
0000
0110
0000
,
0000
1001
0000
0000
0200
0000
0000
0000
,
0000
0000
0000
0000
,
0000
0000
0300
0000
0010
1000
0110
0000
,
0010
0000
0000
0000
0001
0000
0000
0000
0110
0000
0000
0000
0000
0000
0000
0000
0001
0010
0100
0000
1000
0000
0001
0000
1000
0100
0010
0000
0001
0000
1000
0000
,
0001
0000
0000
0000
0000
0000
0000
0000
0200
0000
0000
0300
1000
0001
1000
0000
,
0010
0000
0100
0000
0001
1000
0001
0000
0010
0000
0100
0000
1000
0010
1000
0010
,
0100
0000
0000
0000
0110
0000
1000
0000
0001
0000
0010
0001
0010
0000
0100
0000
,
1000
0000
0010
1000
0010
0000
1000
0000
0001
0000
0010
0001
0010
0001
1000
0000
,
0010
0000
0100
0000
0001
0000
1000
0000
1000
0000
0010
0100
0010
0000
1000
0000
,
0100
0000
1000
0010
1000
0000
0001
0000
0010
0000
0100
1000
0100
1000
0001
0000
,
0000
0000
1001
0000
0010
0000
0100
0000
0010
1000
0010
0000
1000
0000
0001
0000
,
0010
0100
0010
0000
0001
0000
1000
0000
0010
1000
0010
0000
0100
0000
0001
0000
,
0010
0000
0001
0000
1000
0000
1000
0000
0010
0100
0001
0000
1000
0000
0100
0000
,
0010
0001
1000
0000
0010
0000
0100
0000
0010
1000
0100
0000
0010
0000
0001
0000
,
0100
0001
0010
0000
0100
0000
1000
0000
0001
0010
0100
0010
0001
1000
0100
0000
,
0010
0000
0000
0000
0010
0000
0001
0000
0100
0000
0010
1000
0010
1000
0010
0000
,
0100
0000
0001
1000
0010
0000
0100
0000
0001
0000
0010
0001
1000
0000
0100
0000
,
0010
0000
0001
1000
0010
0000
0100
0000
0001
0000
0100
0010
1000
0000
0100
0000
,
1000
0001
0010
0100
0010
0001
1000
0001
,
1000
0000
0000
0000
0010
0100
0010
0000
0000
0000
0000
0000
0000
0000
0000
0000
,
0000
0000
0000
0000
1001
0000
1000
0100
0010
0000
1001
0000
1001
0000
0000
0000
0000
0000
0000
0000
0110
0000
0000
0000
0000
0000
0000
0000
0001
0000
0000
0000
,
0010
0100
0010
0000
0001
0000
0100
0010
0100
0000
0001
0000
0010
0100
0010
0000
,
0001
0000
0100
0010
0100
0000
0001
0000
0000
0000
1001
0000
0000
0000
1000
0000
,
0010
0100
0010
0000
1000
0000
0100
0010
0100
0000
1000
0000
0010
0100
0010
0000
,
1000
0000
0100
0010
0100
0000
1000
0000
0000
0000
1001
0000
0000
0000
0010
0000
,
1000
0100
0010
0000
0100
0000
1000
0010
0100
0000
0010
0000
1000
0100
0010
0000
,
0100
0000
0000
0000
1000
0000
0010
0000
0100
0000
0000
0000
0001
0000
0000
0000
0010
0000
0100
0000
0100
0000
1000
0000
0001
0000
0000
0000
1000
0001
1000
0001
,
1000
0000
0001
1000
0001
1000
0001
0000
1001
0000
0000
0000
1000
0000
0010
0000
0100
0000
0000
0000
0001
0000
0000
0000
1000
0000
0000
0000
0100
0000
0010
0000
,
0001
0000
0100
0000
0010
0000
0110
0000
1001
0000
0001
0010
0100
0000
1000
0000
,
0010
0000
1000
0100
0010
0000
0001
0000
0010
0000
0110
0000
1001
0000
0110
0000
,
0001
0010
0100
1000
0001
0100
0001
0010
,
0100
1000
0010
1000
0100
0010
0001
1000
,
0020
0000
0100
0000
0000
0100
0000
0000
0100
0000
0000
0100
0000
0000
0130
0000
,
2002
0000
0000
3003
0001
0010
0100
0000
1000
0000
0001
0000
0100
0001
1000
0000
,
0100
0000
0010
0000
0001
0000
0100
0000
0010
0000
1000
0000
0001
1000
0001
1000
,
0001
0000
1000
0000
0010
1000
0010
0000
0100
0000
0001
0000
1000
0100
1000
0000
,
0001
0000
0100
0000
0010
1000
0010
0000
0100
0001
0100
0000
0010
0000
0000
0000
,
1001
0000
1000
0100
1000
0001
0100
0000
0010
0000
1000
0000
0001
0000
0010
0000
,
0100
0000
1000
0100
0010
0001
0010
0000
0100
0000
1000
0000
0010
0000
0100
0000
,
0001
0000
1000
0010
1000
0001
0100
0000
0010
0000
1000
0001
0010
0100
0010
0000
,
0100
0000
0010
0001
0010
0001
1000
0100
1000
0100
0010
0000
0000
0000
1001
0000
,
0000
0000
0001
0100
0001
0100
0001
0000
0000
0000
1000
0100
1000
0100
1000
0000
,
0000
0000
0001
0100
0001
0100
0001
0000
0000
0000
1001
0000
0000
0000
0000
0000
,
0000
0000
0001
0010
0001
0010
0001
0000
0000
0000
1000
0010
1000
0010
1000
0000
,
0000
0000
0001
0010
0100
1000
0001
0010
0100
1000
0001
0000
1000
0000
2002
0000
,
0000
0000
0000
0000
,
0000
0000
0000
0000
,
0000
0000
0000
0000
,
0000
0000
0000
0000
0000
0000
0000
3003
,
0000
0000
0000
0000
;
#NOTES:
     dance-double:
     :
     Easy:
     11:
     :
00000000
00000000
00000000
00000000
,
00000000
00000000
00000000
00000000
,
00000000
00000000
00000000
00000000
,
10000000
01000000
00200000
00000000
,
00310000
01000000
00100000
00000000
,
00010000
00001000
00000200
00000000
,
00000310
00001000
00000100
00000000
,
00000001
00000010
00000200
00000000
,
00001300
00000010
00000100
00000000
,
00001000
00010000
00200000
00000000
,
01300000
00100000
10010000
10000000
,
10000000
01000000
00000000
00100000
,
00001000
00010000
00000000
00000100
,
00000100
00001000
00000000
00000001
,
00000010
00000100
00000000
00000010
,
00000010
00000001
00000000
00000010
,
00001000
00010000
00000000
00001000
,
00001000
00010000
00000000
01000000
,
00100000
00010000
00000000
10010000
,
00000000
10000000
01000000
10000000
,
00100000
10000000
00000000
01100000
,
00000000
00001000
00010000
00001000
,
01000000
00001000
00000000
00011000
,
00000000
00000010
00000100
00000010
,
00000001
00000010
00000000
00000001
,
00001000
00000100
00010000
00002000
,
00000000
00013000
00000000
00010000
,
00100000
10000000
10000000
10000000
,
00000000
10000000
01000000
00010000
,
00001000
00010000
00010000
00010000
,
00000000
00001000
00000010
00000001
,
00000000
00000100
00000010
00000110
,
00001000
00010000
00001000
00010000
,
00001000
00000000
00001000
00000000
00001000
00000000
00000000
01000000
,
00000000
00100000
00000000
01000000
00000000
00100000
00000000
10000000
,
00000000
00010000
00000000
10000000
00000000
00010000
00000000
10000000
,
00000000
01000000
00000000
00010000
00000000
01000000
00000000
00010000
,
00000000
00001000
00000000
00010000
00000000
00010000
00000000
00000100
,
00000000
00000010
00000000
00000100
00000000
00000010
00000000
00000001
,
00000000
00001000
00000000
00001001
00000000
00000001
00000100
00001000
,
00000000
01000000
01000000
00010000
00000000
20000000
00000000
00000000
,
00000000
31000000
00000000
00100000
00000000
01000000
00000000
00100000
,
00000000
00010000
00000000
00000000
00000000
02000000
00000000
03001000
,
00010000
00001000
00010000
00000100
00000000
00000020
00000000
00000000
,
00000000
00000031
00000000
00000100
00000000
00000001
00000000
00000100
,
00000000
00000010
00000000
00000000
00000000
00000200
00000000
00001300
,
00010000
00001000
00010000
00100000
00000000
10000000
00000000
01000000
,
00000000
00010000
00000000
00000000
00000000
10000000
00000000
01000000
,
00000000
00010000
00000000
00000000
00000000
10000000
00000000
01000000
,
00000000
00010000
00000000
00001000
00000000
00000010
00000000
00000000
,
00000000
00001001
00000000
00000000
00000001
00000000
00000100
00000000
,
00001000
00000000
00000001
00000100
,
00001000
00000000
00000001
00000100
,
00001000
00010000
00100000
00000000
,
10010000
00000000
00000000
00000000
10000000
00100000
10000000
00000000
,
10000000
00100000
00010000
00000000
00001000
00010000
00001000
00000000
,
00001000
00000100
00000001
00000000
00000001
00000001
00000010
00000010
,
00000100
00000100
00001000
00001000
00000010
00000000
00000100
00000000
,
00001000
00000000
00011000
00001000
,
00010000
00100000
01000000
00001000
,
00000000
00000000
00011000
00000000
00000000
00010000
00000000
00001000
,
00000000
00000010
00000000
00000100
00000000
00010000
00000000
00000000
,
00000000
00011000
00000000
00000000
00000000
00001000
00000000
01000000
,
00000000
00100000
00000000
00010000
00000000
00001000
00000000
00000000
,
00000000
00011000
00000000
00000000
00010000
00000000
00000100
00000000
,
00000010
00001000
00010000
00000000
,
00011000
00000000
00010000
00100000
,
10000000
00000000
10000000
01000000
,
00010000
00000000
00002000
00000000
,
00000000
00003010
00000000
00000001
00000000
00000010
00000000
00000000
,
00000000
00000001
00000000
00000100
00000000
00000001
00000000
00000000
,
00000000
00001000
00000000
00000100
00000000
00001000
00000000
00000000
,
00000000
00000100
00000000
00010000
00000000
00001000
00000000
00010000
,
00000000
00001000
00000000
00000000
00000000
00000000
00000000
00000000
,
00000000
00011000
00000000
00100000
00000000
00000000
00000000
00100000
,
00000000
00000000
00000000
01000000
00000000
01000000
00000000
01000000
,
00000000
00000000
00000000
00010000
00000000
00000000
00000000
00001000
,
00000000
00000000
00000000
00010000
00000000
00010000
00000000
00010000
,
00000000
00000000
00000000
00001000
00000000
00000000
00000000
00000010
,
00000000
00000000
00000000
00000001
00000000
00000001
00000000
00000001
,
00000000
00000000
00000000
00000001
00000000
00000100
00000000
00000010
,
00000010
00000010
00000000
00001000
00000000
00000100
00000000
00001000
,
00000000
00000000
00000000
00011000
00000000
00100000
00000000
00010000
,
00000000
00100000
00000000
00000000
00000000
01100000
00000000
00000000
,
10000000
01000000
10000000
00000000
,
00100000
01000000
00100000
00000000
,
00020000
00000000
00002000
00000000
,
00033000
00000010
00000001
00000010
,
00000001
00001000
00000100
00001000
,
00000100
00010000
00001000
00010000
,
00001000
00010000
00000000
00011000
,
00000000
00100000
00000000
10000000
00000000
00100000
00000000
10000000
,
00000000
00010000
00000000
01000000
00000000
00010000
00000000
01000000
,
00000000
00001000
00000000
00010000
00000000
00001000
00000000
00010000
,
00000000
00001000
00000000
00000000
00000000
00011000
00000000
00000000
,
00000000
00000010
00000000
00000000
00000000
00000001
00000000
00000000
,
00000000
00000100
00000000
00000000
00000000
00000110
00000000
00000000
,
00000000
00001000
00000000
00000000
00000000
00010000
00000000
00000000
,
00000000
00100000
00000000
00000000
00000000
01000000
00000000
02200000
,
00000000
00000000
00000000
00000000
,
00000000
00000000
00000000
00000000
,
00000000
00000000
00000000
00000000
,
00000000
03300000
00000000
00000000
00000000
00000000
00000000
00000000
,
00000000
00000000
00000000
00000000
;
#NOTES:
     dance-double:
     :
     Medium:
     15:
     :
00000000
00000000
00000000
00000000
,
00000000
00000000
00000000
00000000
,
00000000
00000000
00000000
00000000
,
00000001
00000010
00000001
00000010
00000001
00000000
00000100
00000001
,
00000100
00000001
00000100
00000000
00000110
00000000
00000000
00000000
,
00000010
00010000
00000010
00010000
00000010
00000000
00010000
00001000
,
00010000
00001000
00010000
00000000
00011000
00000000
00000000
00000000
,
00010000
00100000
00010000
00100000
00010000
00000000
00100000
10000000
,
00100000
10000000
00100000
00000000
10010000
00000000
00000000
00000000
,
01000000
10000000
01000000
10000000
01000000
00000000
00010000
00001000
,
00010000
00001000
00010000
00001000
00000000
00011000
00100000
10000000
,
00100000
00000000
10000000
01000000
10000000
00000000
01000000
00010000
,
01000000
00000000
00011000
00000000
00000000
00000000
00000010
00000001
,
00000010
00000000
00000001
00000100
00000001
00000000
00000100
00001000
,
00010000
00000000
00011000
00000000
00000000
00000000
01000000
10000000
,
01000000
00000000
10000000
00100000
10000000
00000000
00100000
00010000
,
00100000
00000000
00011000
00000000
00000000
00000000
00000100
00000001
,
00000100
00000000
00000001
00000010
00000001
00000000
00000010
00001000
,
00010000
00011000
00000000
00011000
,
00000000
01000000
00100000
00000000
00000000
01000000
10000000
00000000
,
00000000
00100000
01000000
00100000
00000000
00100000
00010000
00000000
,
00000000
00001000
00000100
00000000
00000000
00000001
00000100
00000000
,
00000000
00000010
00000100
00000010
00000000
00000010
00001000
00000000
,
00000000
00100000
01000000
00000000
00100000
00000000
01100000
00000000
,
01100000
00000000
00000000
10010000
00000000
00000000
10000000
00010000
,
00100000
00000000
00001000
00010000
00001000
00000000
00000200
00000000
,
00000000
00000000
00000310
00000000
00000000
00000001
00000010
00000000
,
00001000
00011000
00011000
00011000
,
00000000
00000000
00010000
01000000
00100000
00000000
00010000
01000000
,
00100000
00000000
10000000
01000000
00100000
00000000
10010000
00000000
,
00000000
00000000
01000000
00100000
00010000
00000000
00001000
00010000
,
00001000
00000000
00000100
00000010
00001000
00000000
00001001
00000000
,
00000001
00000100
00000010
00000000
00000100
00000010
00010000
00000000
,
00001000
01000000
00100000
00000000
10000000
00000000
10010000
01000000
,
00000000
00100000
00000000
01000000
00000000
00010000
00000000
00001000
,
00000000
00010000
00000000
00100000
00000000
00010000
00000000
00001000
,
00000000
00000100
00000000
00001000
00000000
00010000
00001000
00000010
,
00000000
00000001
00000000
00000100
00000000
00001001
00000000
00000100
,
00000000
00010100
00000000
00010000
00000000
00011000
00000000
01000000
,
00000000
00000000
01000000
00000000
00000000
00000000
10010000
00000000
00000000
00000000
10000000
01000000
00100000
00000000
00100000
00001000
,
00010000
00000100
00000100
00000001
00000000
00001000
00000010
00000100
,
00000000
00000110
00000000
00001001
00000000
00000010
00001000
00000000
,
00010000
00000000
00000000
00000000
01000000
00000000
00000000
00000000
00000000
00000000
00010000
01000000
00100000
00000000
01100000
00000000
,
10010000
00000000
01000000
00010000
00000000
00001000
00000000
00000010
00000000
00000000
00000001
00000000
00000100
00000000
00000010
00000000
,
00000000
00000110
00000000
00001001
00000000
00000100
00001000
00000000
,
00010000
00000000
00000000
00000000
00100000
00000000
00000000
00000000
00000000
00000000
10000000
00100000
01000000
00000000
01100000
00000000
,
10010000
00000000
00100000
00010000
00000000
00001000
00000000
00000100
00000000
00000000
00000001
00000000
00000100
00000000
00000001
00000000
,
00000100
00000001
00000000
00000110
00000000
00001000
00010000
00001000
,
00010000
00001000
00000000
01001000
00000000
00010000
01000000
00100000
,
00000000
10000000
01000000
00100000
00000000
10010000
00000000
10010000
,
00000000
10010000
00000000
00000000
10000000
00100000
10000000
00100000
,
10000000
00000000
01100000
00000000
00010000
00001000
00010000
00001000
,
00010000
00000000
00010010
00000000
00001000
00000010
00000100
00000000
,
00000001
00000010
00000100
00000000
00001000
00000001
00000000
00001001
,
00000000
00000000
00001001
00000000
00000000
00000000
00000000
00000000
00000001
00000000
00000010
00001000
00000000
00001000
00010000
00000000
,
00011000
00000000
00010000
01000000
00010000
00000000
01000000
00000000
10000000
00000000
00100000
00010000
00000000
00010000
00001000
00000000
,
00011000
00000000
00001000
00000100
00001000
00000000
00000100
00000000
00000001
00000000
00000100
00000000
00001000
00000000
00010000
00000000
,
00100000
10000000
01000000
00010000
00001000
00000010
00000001
00000100
,
00001000
00000000
00000000
00000000
00011000
00000000
10000000
00100000
,
10000000
00000000
00010000
01000000
00010000
01000000
00010000
01000000
,
00010000
00000000
00011000
00010000
00000100
00010000
00000100
00010000
,
00000000
00000100
00000010
00000100
00000010
00000100
00000010
00000100
,
00000000
00000001
00000010
00000001
00000010
00000001
00000010
00000001
,
00000000
00001000
00000100
00001000
00000100
00001000
00000100
00001000
,
00000000
00001100
00010000
00001000
00010000
00001000
00010000
00000000
,
00001000
00100000
00001000
00100000
00001000
00100000
00001000
00000000
,
01000000
00100000
01000000
00100000
01000000
00100000
01000000
00000000
,
00100000
10000000
00100000
10000000
00100000
10000000
00100000
00000000
,
01000000
00010000
01000000
00000000
00002000
00000000
00000000
00000000
,
00013000
00000000
00010000
00000100
00000010
00000100
00000010
00000100
,
00000000
00000010
00000001
00000010
00000001
00000100
00000001
00000100
,
00000001
00001000
00000010
00001000
00000000
00000100
00010000
00000100
,
00010000
00001000
00100000
00010000
00100000
01000000
10000000
00010000
,
01000000
00000000
00100000
01000000
00000000
00000000
00000000
00000000
,
00000000
00200000
00000000
00310000
00000000
00001000
00000000
00000010
,
00000001
00000000
00000010
00000100
00000000
00000010
00000001
00000000
,
00000010
00000100
00000000
00000010
00000000
00001000
00000000
00010000
,
00100000
00000000
10000000
00100000
00000000
01000000
00100000
00000000
,
10000000
00100000
00000000
00100000
00000000
10000000
00000000
01000000
,
00100000
00000000
01000000
00010000
00000000
01000000
00100000
00000000
,
01000000
00000000
00010000
00000000
00000000
00000000
00001000
00000000
00000010
00000000
00000001
00001000
00000000
00000000
00001001
00000000
,
00000000
00000110
00000000
00000000
00001001
00000000
00000001
00000000
00000010
00000000
00000001
00000000
00000000
00000000
00000100
00000000
,
00001000
00010000
00000000
00110000
01100000
10000000
00100000
10000000
,
00000000
01000000
00010000
00001000
00000000
00001010
00000110
00001001
,
00000001
00000010
00000100
00010000
,
00001000
01000000
00100000
10000000
,
02000000
00000000
00010000
00000000
00000000
03020000
00000000
00000000
00001000
00000000
00000000
00032000
00000000
00000000
00003010
00000000
,
00000001
00000000
00000001
00000100
00001000
00000100
00000010
00001000
,
00000001
00000100
00000010
00001000
00000010
00010000
00001000
01000000
,
00010000
01000000
00100000
00010000
00100000
01000000
00001000
01000000
,
00100000
01000000
10000000
01000000
00010000
01000000
00100000
00000000
,
10010000
10000000
01000000
00010000
01000000
00100000
00010000
10000000
,
01000000
00100000
00010000
00100000
00001000
00010000
00000100
00001000
,
00000100
00000010
00001000
00000010
00000100
00010000
00000100
00000010
,
00000100
00000001
00000100
00001000
00000100
00000010
00000000
00001001
,
00000000
00000001
00000100
00000001
00000000
00001000
00000100
00001000
,
00000000
00000001
00000100
00001000
00000000
00011000
00000000
00000000
,
00000000
00100000
10000000
00100000
00000000
01000000
00010000
01000000
,
00000000
00001000
00010000
00001000
00010000
00001000
00000000
00022000
,
00000000
00000000
00000000
00000000
,
00000000
00000000
00000000
00000000
,
00000000
00000000
00000000
00000000
,
00000000
00033000
00000000
00000000
00000000
00000000
00000000
00000000
,
00000000
00000000
00000000
00000000
;
#NOTES:
     dance-double:
     :
     Hard:
     17:
     :
00000000
00000000
00000000
00000000
,
00000000
00000000
00000000
00000000
,
00000000
00000000
00000000
00000000
,
00000001
00000100
00000001
00000100
00000010
00001000
00000010
00001000
,
00000100
00010000
00000100
00010000
00001000
00010000
00001000
00000000
,
00100000
00010000
00100000
00010000
10000000
01000000
10000000
01000000
,
00100000
00001000
00100000
00001000
00010000
00001000
00010000
00000000
,
00000100
00000010
00000100
00000010
00000001
00000100
00000001
00000100
,
00000010
00001000
00000010
00010000
00001000
00010000
00001000
00000000
,
01000000
00010000
01000000
00010000
10000000
00100000
10000000
00010000
,
00100000
00001000
00100000
00001000
00000000
00011000
00001000
00000100
,
00001000
00000000
00000010
00000100
00000001
00000000
00000010
00000100
,
00000010
00000100
00001000
00000100
00000000
00000100
00010000
00001000
,
00010000
00000000
00001000
00100000
00010000
00100000
01000000
10000000
,
01000000
00000000
10000000
00100000
00000000
00100000
01000000
00010000
,
01000000
00000000
00010000
00100000
00001000
00100000
00001000
00010000
,
00001000
00010000
00000100
00000010
00000000
00000010
00000001
00001000
,
00000001
00001000
00000100
00000010
00000001
00000000
00000100
00000010
,
00001000
00000010
00000100
00000001
00000000
00000001
00001000
00000000
,
00000001
00000010
00000100
00001000
00000010
00000100
00001000
00000000
,
00010000
00100000
01000000
00100000
00000000
00100000
10000000
00000000
,
10000000
01000000
00100000
00010000
01000000
00100000
00010000
00000000
,
00001000
00000100
00000010
00000100
00000000
00000100
00000001
00000000
,
00000001
00000010
00000100
00000010
00001000
00010000
00001000
00000000
,
00010000
01000000
00100000
01000000
00000000
01000000
10000000
00000000
,
10000000
00000000
00100000
00000000
01000000
00000000
00100000
00000000
00010000
00000000
00001000
00000000
00010000
00001000
00010000
00001000
,
00000100
00000010
00000000
00000010
00000100
00000000
00000000
00000000
00000001
00000000
00000010
00000000
00000100
00000000
00000000
00000000
,
00000110
00001001
00000110
00001001
,
00000000
00000101
00001000
00011000
,
00100000
10100000
01100000
10010000
,
00000000
00000000
10000000
01000000
00010000
00000000
00001000
00000010
,
00000001
00000000
00000000
00000000
00001000
00000001
00001000
00000001
00001000
00000000
00000000
00000000
00001001
00000000
00000000
00000000
,
00000001
00000100
00000010
00000000
00000010
00001000
00000100
00000000
,
00000100
00010000
00001000
00100000
00010000
00000000
00011000
00001000
,
00010000
00001000
00100000
01000000
00100000
00010000
00100000
00001000
,
00010000
00000100
00001000
00000100
00000010
00000100
00001000
00000010
,
00000100
00001000
00010000
00000100
00010000
00001000
00010000
00001000
,
01000000
00010000
01000000
00100000
01000000
00010000
00100000
01000000
,
00100000
01000000
00010000
00001000
00010000
00001000
00000010
00000100
,
00001000
00000000
00000010
00000000
00001000
00000000
00000100
00000000
00000000
00000000
00000010
00000001
00000100
00000000
00001000
00010000
,
00100000
01000000
01000000
00010000
00000000
10000000
01000000
00100000
,
00000000
00110000
00000000
00011000
00000000
00001000
00010000
00000000
,
00001100
00000000
00000000
00000000
00000110
00000000
00000000
00000000
00000010
00000000
00000001
00000010
00000100
00000000
00001100
00000000
,
00011000
00000000
00010000
00001000
00000000
00110000
00000000
01100000
00000000
01000000
10000000
00000000
00010000
00000000
01000000
00000000
,
00000000
01100000
00000000
00110000
00000000
00001000
00000100
00000000
,
00000101
00000000
00000000
00000000
00001001
00000000
00000000
00000000
00000010
00000000
00000001
00001000
00000010
00000000
00000110
00000000
,
00001100
00000000
00010000
00100000
00000000
10100000
00000000
10010000
00000000
00000000
00200000
00000000
00000000
00000000
10300000
00000000
,
01000000
00100000
00000000
00110000
00000000
00002000
00000000
00013000
,
00000100
00001000
00000000
00001100
00000000
00000010
00000000
00001000
,
00000000
00010000
00000000
01000000
00000000
00100000
00000000
00001000
,
00000000
00000010
00000000
00000001
00000020
00000000
00000031
00000100
,
00000010
00000000
00001010
00000000
00020000
00000000
00031000
01000000
,
00010000
01010000
00100000
00010000
,
00001000
00000000
00000100
00000000
00000010
00010000
00000000
00100000
,
00000000
00000000
10000000
00000000
00000000
00000000
00000000
00000000
00010000
00000000
10000000
01000000
00000000
01000000
00010000
00000000
,
00011000
00000000
00001000
00010000
00001000
00010000
00001000
00000000
00011000
00000000
00001000
00000010
00000000
00000010
00000001
00000000
,
00001001
00000000
00000001
00001000
00000001
00001000
00000001
00000000
00000001
00000000
00000100
00000000
00001000
00000000
00010000
00000000
,
00001000
00000000
00000010
00000000
00000001
00000000
00001000
00000000
00000001
00000100
00001000
00000000
00010000
00100000
10000000
00000000
,
10010000
00000000
00000000
00000000
00200000
10000000
01300000
00100000
,
01000000
00100000
10000000
01000000
00100000
00010000
00100000
00001000
,
00010000
00000000
00011000
00001000
00010000
00000100
00001000
00000100
,
00001000
00000010
00000100
00000010
00001000
00000001
00000010
00000100
,
00000000
00000010
00000001
00000010
00000001
00000100
00000010
00001000
,
00000010
00001000
00000100
00001000
00000100
00010000
00001000
00010000
,
00000000
00011000
00001000
00100000
00010000
01000000
00010000
01000000
,
00100000
10000000
00100000
01000000
00000000
01000000
00100000
00000000
,
10000000
01000000
00100000
00010000
01000000
00001000
00010000
00001000
,
00010000
00000100
00001000
00000010
00000100
00000010
00000100
00000001
,
00000100
00000000
00000001
00000000
00000010
00000000
00000001
00000000
00001000
00000010
00001000
00000010
00010000
00001000
00010000
00000000
,
00001000
00000000
00001000
01000000
00010000
01000000
00100000
01000000
,
00100000
10000000
01000000
10000000
01000000
00010000
01000000
00100000
,
00001000
00010000
00001000
00010000
00000100
00001000
00000100
00000001
,
00000100
00000010
00000001
00000010
00000001
00000100
00000010
00001000
,
00000010
00000000
00000010
00001000
00000000
00000000
00000000
00000000
,
00000000
00011000
00000000
10000000
00000000
00010000
00000000
10000000
,
01000000
00000000
00100000
00010000
00000000
00001000
00000100
00000000
,
00000010
00000001
00000000
00001000
00000000
00000001
00000000
00000001
,
00000100
00000000
00000010
00001000
00000000
00010000
01000000
00000000
,
00100000
10000000
00000000
10000000
00000000
00010000
00000000
10000000
,
00100000
00000000
01000000
00010000
00000000
00001000
00000010
00000000
,
00000100
00000000
00000001
00000000
00000000
00000000
00000001
00000000
00000010
00000000
00000100
00001000
00000000
00000000
00010000
00100000
,
00100000
01000000
10000000
10000000
01000000
00000000
10000000
00000000
01000000
00000000
00100000
00000000
00001000
00000000
00010000
00000000
,
00000100
00000010
00000001
00000011
00001001
00000001
00000100
00000010
,
00010000
00001000
01000000
00100000
10000000
10100000
10010000
11000000
,
10000000
00100000
01000000
00001000
00010000
00000100
00000010
00000001
,
00000100
00000010
00010000
00001000
00100000
01000000
10000000
00100000
,
01000000
00000000
00010000
00100000
00000000
00100000
00001000
00000000
00011000
00000000
00000000
00001100
00000000
00000000
00000110
00000000
,
00000021
00000000
00000031
00000010
00000001
00000010
00000100
00001000
,
00000010
00000000
00000100
00000000
00001000
00000000
00100000
00000000
00001000
00000000
00010000
00000000
00001000
00010000
00001000
00010000
,
00001000
00000000
00100000
00000000
00010000
00000000
01000000
00000000
00100000
00000000
00010000
00000000
00001000
00000000
00010000
00001000
,
00010000
00001000
00000010
00001000
00010000
01000000
10000000
00000000
,
10010000
10000000
01000000
10000000
01000000
00100000
00010000
01000000
,
00100000
00000000
00010000
00000000
00000100
00000000
00010000
00000000
00001000
00000000
00010000
00001000
00010000
00001000
00010000
00000000
,
00000100
00000000
00001000
00000000
00000010
00000000
00000100
00000000
00001000
00000000
00010000
00000000
00001000
00010000
00001000
00000000
,
00010000
01000000
00010000
00001000
00000010
00000001
00000000
00001001
,
00000000
00000001
00000010
00000100
00000000
00001000
00000010
00000100
,
00000000
00001000
00010000
00001000
00000000
00011000
00000000
00000000
,
00000000
00001000
00000010
00001000
00000000
00010000
01000000
00010000
,
00000000
01000000
00100000
00001000
00010000
00001000
00000000
00022000
,
00000000
00000000
00000000
00000000
,
00000000
00000000
00000000
00000000
,
00000000
00000000
00000000
00000000
,
00000000
00033000
00000000
00000000
00000000
00000000
00000000
00000000
,
00000000
00000000
00000000
00000000
;
#NOTES:
     dance-double:
     :
     Challenge:
     18:
     :
00000000
00000000
00000000
00000000
,
00000000
00000000
00000000
00000000
,
00000000
00000000
00000000
00000000
,
10000000
00000000
00100000
00000000
01000000
00000000
00010000
00100000
,
00010000
00000000
00100000
00001000
00000000
00001000
00010000
00000000
,
00000100
00001000
00000000
00001000
00000001
00000000
00000100
00000010
,
00000100
00000001
00001000
00000100
00000000
00000100
00000000
00000000
,
00010000
00001000
00000000
00001000
01000000
00000000
00010000
00100000
,
01000000
10000000
01000000
00100000
00000000
00100000
00001000
00000000
,
00010000
00001000
00000000
00010000
00001000
00000000
00010000
00000100
,
00001000
00000000
00000100
00000000
00000010
00000000
00000001
00000000
00000000
00000000
00001001
00000000
00000001
00001000
00000001
00000000
,
00000100
00000010
00001000
00000010
00010000
00001000
00100000
00001000
,
00010000
00000000
00001000
00000000
01000000
00000000
00010000
00000000
00100000
00000000
00000000
00000000
01000000
10000000
01000000
00000000
,
00100000
00000000
00001000
00000000
00010000
00001000
00010000
00000000
00001000
00000000
00010000
00000000
00000100
00000000
00001000
00000000
,
00000010
00000000
00000100
00000000
00000001
00000000
00001000
00000000
00000001
00000000
00000000
00000000
00001000
00000001
00001000
00000000
,
00000010
00000100
00000010
00001000
00000100
00010000
00001000
00100000
,
00010000
00000000
00100000
00000000
01000000
00000000
10000000
00000000
00010000
00000000
00000000
00000000
10000000
00100000
10000000
00000000
,
01000000
00100000
00010000
01000000
00100000
01000000
00001000
00010000
,
00001000
00010000
00000010
00001000
00000010
00000000
00000100
00000000
,
00000001
00000010
00000001
00000000
00001000
00000100
00001000
00000000
,
00000100
00010000
00001000
00010000
00000000
00001000
00100000
00000000
,
00010000
01000000
00010000
00000000
10000000
00100000
10000000
00000000
,
01000000
00100000
01000000
00100000
00000000
00001000
00010000
00000000
,
00000100
00001000
00000100
00000000
00000010
00000100
00000010
00000000
,
00000001
00001000
00000001
00001000
00000000
00000010
00010000
00000000
,
00100000
01000000
00010000
20020000
,
00000000
30030000
10000000
00000000
00000000
01000000
00010000
00000000
,
00001000
00000000
00000000
00000000
00010000
00001000
00010000
00001000
00010000
00000000
00000000
00000000
00022000
00000000
00000000
00000000
,
00033000
00000010
00000100
00000010
,
00000001
00000010
00001000
00002002
,
00003003
00001001
00000001
00000010
,
00001000
00000000
00010000
01000000
10000000
00000000
10010000
00000000
,
10000000
00000000
00100000
00000000
01000000
00010000
01000000
00000000
00010000
00000000
00100000
00000000
01000000
10000000
01000000
00000000
,
10000000
00010000
10000000
00000000
00010000
00000000
10010000
01000000
,
00100000
00000000
10000000
00100000
10000000
00000000
01000000
00000000
00100000
00000000
00001000
00000000
00010000
00000000
00000100
00000000
,
00001000
00000000
00000010
00001000
00000010
00000000
00001000
00000000
00000100
00000000
00000010
00000000
00000001
00000000
00000100
00000000
,
00000010
00000000
00001000
00000001
00001000
00000000
00000001
00001000
00000001
00000000
00000010
00000000
00000100
00000000
00001000
00000000
,
00010000
00100000
01000000
10000000
00000000
00010000
00000000
10000000
,
10000000
00000000
00100000
00000000
00000000
00000000
00010000
00000000
00010000
00000000
00001000
00000000
00000000
00000000
00000100
00000001
,
00000100
00000001
00000100
00000000
00000000
00000000
00001001
00000000
00000000
00000000
00000001
00000010
00001000
00010000
00001000
00000100
,
00000000
00000000
00000100
00000000
00000100
00000000
00000001
00000000
00000000
00000000
00001000
00000100
00000010
00000000
00000001
00000000
,
00000010
00000000
00000100
00000000
00010000
00000000
00001000
00000000
01000000
00000000
00010000
01000000
00100000
00000000
10000000
00000000
,
00100000
00000000
00000000
00000000
01000000
00000000
00000000
00000000
00001000
00000000
00000000
00000000
00010000
00000000
00000000
00000000
01000000
00000000
00000000
00000000
10000000
01000000
00100000
00000000
00010000
00000000
00100000
00000000
01000000
00000000
00010000
00000000
,
00001000
00000000
00000100
00000000
00000001
00000100
00000010
00000000
00001000
00000000
00000010
00000000
00000100
00000000
00000001
00000000
00001000
00000000
00000000
00000000
00000001
00000000
00000100
00000000
00000010
00000000
00000000
00000000
00001000
00000000
00000000
00000000
,
00000010
00000000
00000100
00000000
00001000
00000000
00100000
00000000
00001000
00000000
00010000
00001000
00010000
00000000
00000100
00000000
,
00010000
00000000
00000000
00000000
00001000
00000000
00000000
00000000
00100000
00000000
00000000
00000000
00010000
00000000
00000000
00000000
10000000
00000000
00000000
00000000
01000000
10000000
00010000
00000000
00100000
00000000
01000000
00000000
00010000
00000000
00001000
00000000
,
00010000
00000010
00001000
00000001
00000000
00001001
00000000
00000110
00000000
00000000
00000001
00000000
00000100
00000000
00001000
00000000
,
00000100
00000010
00000010
00010000
00010000
00001000
00100000
00010000
,
00100000
10000000
10000000
00100000
00100000
00010000
01000000
00100000
,
00000000
00010000
00001000
00000100
00000000
00000010
00001000
00000100
,
00000010
00001000
00000000
00011000
00010000
01000000
10000000
01000000
,
00010000
00010000
00001000
00001000
00000100
00000001
00000100
00001000
,
00010000
00000000
00010000
00000000
00001000
00000000
00001000
00000000
00000010
00000001
00000010
00000000
00000100
00000000
00001000
00000000
,
00000010
00010000
00000010
00000000
00010000
00000000
00001000
00000000
00100000
00000000
00010000
00000000
00000000
00000000
00110000
00000000
,
00000000
01100000
00000000
00000000
20020000
00000000
00000000
00000000
,
00000000
00000000
00000000
00000000
,
00000000
00000000
30030000
00000000
10000000
01000000
00100000
00010000
,
00001000
00000000
00000000
00000000
00000100
00000000
00000000
00000000
00000010
00000000
00000000
00000000
00000001
00000000
00000000
00000000
00001000
00000001
00001000
00000000
00000100
00000000
00000010
00000000
00000001
00001000
00000001
00000000
00000010
00000000
00000100
00000000
,
00001000
00000000
00000000
00000000
00000000
00000000
00000000
00000000
00022000
00000000
00000000
00033000
10000000
00000000
00100000
00000000
,
01000000
00000000
00010000
00000000
00100000
00000000
01000000
00000000
00010000
00000000
00001000
00000000
00010000
00001000
00010000
00001000
,
00010000
00000000
00011000
00001000
00000100
00000001
00000010
00000100
,
00000001
00000000
00000100
00000000
00001000
00000000
00000100
00000000
00010000
00000000
00001000
00010000
00001000
00010000
00001000
00000000
,
00000000
00010000
00001000
00010000
01000000
10000000
00010000
01000000
,
00100000
00000000
00010000
00000000
00001000
00000000
00010000
00000000
00000100
00000000
00010000
00001000
00010000
00001000
00010000
00000000
,
00000000
00011000
00001000
00000010
00000001
00000100
00001000
00010000
,
00000010
00000000
00010000
00000000
00000100
00000000
00010000
00000000
00001000
00010000
00001000
00010000
00001000
00000000
00000000
00000000
,
00100000
00010000
00100000
00010000
10000000
00100000
01000000
00010000
,
01000000
00000000
00001000
00000000
00010000
00001000
00010000
00000000
00000100
00000000
00001000
00000000
00000001
00000000
00000010
00000000
,
00000100
00000000
00001000
00000000
00000010
00000000
00000100
00000000
00000001
00000100
00000010
00001000
00010000
01000000
00100000
00000000
,
10000000
00000000
00000000
00000000
10000000
00000000
00100000
00000000
01000000
00000000
00010000
10000000
00010000
10000000
00010000
00000000
,
00000000
10000000
00100000
01000000
00010000
00100000
00010000
00001000
,
00000100
00001000
00000100
00000000
00000010
00000000
00000001
00000000
00000100
00000000
00000010
00000000
00001000
00000000
00010000
00000000
,
01000000
00010000
01000000
00000000
00100000
00000000
10000000
00000000
01000000
00000000
00010000
00000000
00001000
00000000
00000010
00000000
,
00000001
00000000
00000001
00001000
00000000
00000000
00000000
00000000
,
00000000
00000000
00000000
00000000
00011000
00000000
00010000
00100000
10000000
00000000
10010000
00000000
10000000
00000000
00000000
00000000
00000000
00000000
00000000
00000000
01000000
00000000
00000000
00000000
00000000
00000000
00000000
00000000
00100000
00000000
00000000
00000000
,
00001000
00010000
00001000
00000000
00100000
00000000
00001000
00010000
00001000
00000000
00100000
00000000
00001000
00010000
00001000
00000000
,
00010000
00000100
00000000
00001000
00000100
00010000
00000000
00000010
,
00010000
00001000
00010000
00000000
00000010
00000000
00010000
00001000
00010000
00000000
00000010
00000000
00010000
00001000
00010000
00000000
,
00001000
00100000
00000000
00010000
01000000
00100000
00000000
01000000
,
00001000
00010000
00001000
00000000
01000000
00000000
00001000
00010000
00001000
00000000
01000000
00000000
00001000
00010000
00001000
00000000
,
00010000
00000000
00000000
00000000
00000100
00000000
00000000
00000000
00000000
00000000
00000000
00000000
00000110
00000000
00000000
00000000
00000001
00000000
00000010
00000000
00000100
00000000
00010000
00000000
00001000
00000000
00000000
00000000
00010000
00001000
00010000
00001000
,
00010000
00000000
00001000
00010000
00001000
00010000
00001000
00000000
00011000
00000000
00000000
00000000
00100000
00000000
00010000
00000000
10000000
00000000
00000000
00000000
01000000
00000000
00000000
00000000
10000000
00000000
00000000
00000000
00100000
00000000
10000000
00000000
,
00010000
00000000
01000000
00000000
00001000
00000000
00011000
00000000
00011000
00000000
00001000
00000100
00000010
00000000
00000001
00000000
,
00000010
00000000
00000100
00001000
00000010
00000000
00010000
00000000
00001000
00000000
00011000
00000000
00011000
00000000
00011000
00000000
,
00100000
00010000
10000000
01000000
00100000
00100000
00001000
00001000
,
00010000
00001000
00000100
00000010
00001000
00001000
00000100
00000100
,
00000020
00000000
00001000
00000000
00000000
00002030
00000000
00000000
00010000
00000000
00000000
00023000
00000000
00000000
01030000
00000000
,
20020000
00000000
00000000
30030000
10000000
01000000
00100000
00000000
00010000
00000000
01000000
00000000
00001000
00010000
00000100
00000000
,
00001000
00000010
00000100
00000001
00000010
00001000
00010000
00000100
,
00001000
00000000
00000010
00000000
00000100
00000001
00001000
00000000
00000100
00000000
00000010
00000000
00001000
00010000
00001000
00000000
,
01000000
00010000
10000000
01000000
00010000
01000000
10000000
00000000
,
10010000
00000000
10000000
00100000
01000000
00010000
10000000
00000000
01000000
00000000
00010000
00000000
00001000
00000000
00000010
00000000
,
00000100
00001000
00000010
00000100
00000001
00000010
00000100
00001000
,
00000010
00000000
00000100
00000001
00000100
00000010
00001000
00000000
00000100
00000000
00010000
00000000
00001000
00000000
00100000
00000000
,
00010000
00000000
10000000
01000000
10000000
01000000
00100000
00001000
00100000
00001000
00010000
00000000
00000000
00000000
00011000
00000000
,
00000000
00000000
00000010
00000100
00000010
00000100
00000010
00000000
00000000
00000000
00001000
00000000
00010000
00000000
00001000
00000000
,
00000000
00000000
01000000
00100000
01000000
00100000
01000000
00000000
00000000
00000000
00011000
00000000
00000000
00000000
00000000
00000000
,
00000000
00000000
00000100
00000010
00000100
00000010
00000100
00000000
00000000
00000000
00001000
00000000
00010000
00000000
00001000
00000000
,
00000000
00000000
00100000
00010000
10000000
00000000
01000000
00100000
00001000
00000000
00010000
00000000
00001000
00000000
00022000
00000000
,
00000000
00000000
00000000
00000000
,
00000000
00000000
00000000
00000000
,
00000000
00000000
00000000
00000000
,
00000000
00000000
00000000
00000000
00000000
00000000
00000000
00033000
,
00000000
00000000
00000000
00000000
;
