
//----- song ID: nevl -----//
#TITLE:Neverland;
#ARTIST:ARM (IOSYS) feat. Nicole Curry;
#BANNER:Neverland.png;
#BACKGROUND:Neverland-bg.png;
#CDTITLE:./CDTitles/DDR A20.png;
#MUSIC:Neverland.ogg;
#SAMPLESTART:93.763;
#SAMPLELENGTH:15;
#BPMS:0=160;
#NOTES:
     dance-single:
     :
     Beginner:
     4:
     :
0000
0000
0000
0000
,
0000
0000
0000
0000
,
0000
0000
0000
0000
,
0000
0000
0000
0000
,
0000
0000
0000
0000
,
0000
0000
0000
0000
,
0000
0000
0000
0000
,
0001
0000
1000
0000
,
0001
0000
1000
0000
,
0020
0000
0030
0000
,
0200
0000
0300
0000
,
0001
0001
0001
0000
,
0010
0010
0010
0000
,
1000
1000
1000
0000
,
0010
0010
0010
0000
,
0001
0000
0010
0000
,
0100
0000
1000
0000
,
0001
0000
1000
0000
,
2002
0000
3003
0000
,
0010
0010
0010
0000
,
0100
0100
0100
0000
,
0010
0010
0010
0000
,
1000
0000
0001
0000
,
1000
1000
1000
0000
,
0001
0001
0001
0000
,
1000
0000
0100
0000
,
0010
0000
0001
0000
,
1000
1000
1000
0000
,
0001
0001
0001
0000
,
1000
1000
1000
0000
,
0010
0000
0100
0000
,
0010
0010
0010
0000
,
0100
0100
0100
0000
,
0001
0000
0010
0000
,
2002
0000
3003
0000
,
0020
0000
0030
0000
,
2000
0000
3000
0000
,
0002
0000
0003
0000
,
0200
0000
0300
0000
,
0002
0000
0003
0000
,
2000
0000
3000
0000
,
0200
0000
0300
0000
,
0020
0000
0030
0000
,
0001
0000
0010
0000
,
1000
0000
0010
0000
,
0001
0000
0100
0000
,
1000
0000
0100
0000
,
0020
0000
0030
0000
,
0001
0000
1000
0000
,
0001
0001
0001
0000
,
0200
0000
0300
0000
,
2000
0000
0000
0000
,
0000
0000
3000
0000
,
0002
0000
0000
0000
,
0000
0000
0003
0000
,
1000
0000
0001
0000
,
1000
0000
0100
0000
,
1000
0000
0000
0000
,
0001
0000
0000
0000
,
0010
0000
0001
0000
,
1000
0000
0001
0000
,
0100
0000
0000
0000
,
0010
0000
0000
0000
,
1000
1000
1000
0000
,
0100
0100
0100
0000
,
0010
0000
0001
0000
,
1000
0000
0001
0000
,
0100
0100
0100
0000
,
0010
0010
0010
0000
,
1000
0000
0001
0000
,
1001
0000
0000
0000
,
0010
0010
0010
0000
,
0100
0100
0100
0000
,
1000
0000
0100
0000
,
0010
0000
0001
0000
,
0020
0000
0030
0000
,
0200
0000
0300
0000
,
1000
0000
0001
0000
,
1001
0000
0000
0000
,
0000
0000
0000
0000
;
#NOTES:
     dance-single:
     :
     Easy:
     8:
     :
0000
0000
0000
0000
,
0000
0000
0000
0000
,
0000
0000
0000
0000
,
0000
0000
0000
0000
,
0000
0000
0000
0000
,
0000
0000
0000
0000
,
0000
0000
0000
0000
,
1000
0100
1000
0000
,
0001
0100
0001
0000
,
1001
0000
0110
0000
,
1001
0000
0010
0010
,
0001
0000
0100
0000
0010
1000
0100
0000
,
0010
0000
0001
0000
0010
0100
1000
0000
,
0001
0000
0100
0000
0010
1000
0001
0000
,
1000
0001
1000
0000
0001
0010
0100
0000
,
0010
0001
0100
1000
,
0110
1001
0110
0000
,
1000
0100
0010
0001
,
2002
0000
3003
0000
,
0001
0100
0020
0030
,
1000
0100
0020
0030
,
0001
0010
0200
0300
,
1000
0010
0001
0100
,
1000
0001
0020
0030
,
0001
1000
0020
0030
,
1000
0010
0001
0100
,
1000
0100
0001
0010
,
0001
1000
2200
3300
,
1000
0001
0202
0303
,
0001
1000
2020
3030
,
1000
0010
0001
0010
,
1000
0001
0220
0330
,
0001
1000
0220
0330
,
1000
0100
0001
0010
,
2000
0000
0000
3000
,
0200
0000
0000
0000
0320
0000
0000
0031
,
0000
1000
0001
1000
0001
0000
0000
0000
,
2000
0000
3010
0000
,
1000
0000
0001
0000
0010
0001
0100
0000
,
0020
0000
0000
0000
1030
0000
0000
0001
,
0000
0000
1000
0000
0000
0001
0000
0000
,
0010
0000
0001
0000
0100
0000
0000
1000
,
0000
0001
0100
1000
,
0001
0000
0010
0000
0100
1000
0000
0000
,
0010
0000
1000
0000
0001
1000
0100
0000
,
1000
0000
0010
0000
0100
0010
0100
0000
,
0001
0000
1000
0000
0010
1000
0001
0000
,
0020
0000
0000
0000
0130
0000
0000
1000
,
0000
0000
0001
0000
0000
1000
0000
0000
,
0001
0000
0001
0000
0100
0000
0000
0010
,
0000
1000
0001
1000
,
0200
0000
0000
0000
,
0000
0000
0000
0300
,
0020
0000
0000
0000
,
0000
0000
0000
0030
,
1000
0000
0001
0000
0010
0001
1000
0000
,
0001
0100
0010
0000
,
1000
0010
1000
0000
,
0001
0100
0001
0000
,
0001
0100
1000
0100
,
0001
0010
1000
1000
,
0220
0000
0330
0001
,
0220
0000
0330
0000
,
1000
0000
0010
0000
1000
0100
0010
0000
,
0001
0000
0010
0000
0001
0100
0010
0000
,
1000
0010
0001
0010
,
1000
0100
0001
0100
,
0001
0000
0100
0000
0001
0100
0010
0000
,
1000
0000
0010
0000
1000
0010
0100
0000
,
0001
0010
1000
0100
,
0001
0010
1001
0000
,
0001
0000
0100
0000
0010
1000
0100
0000
,
1000
0000
0100
0000
0010
0001
0100
0000
,
0001
0010
1000
0010
,
0001
0100
1000
0100
,
2000
0000
3001
0000
,
1000
0010
0001
0000
,
0010
1000
0100
0010
,
1001
0000
0000
0000
,
0000
0000
0000
0000
;
#NOTES:
     dance-single:
     :
     Medium:
     12:
     :
0000
0000
0000
0000
,
0000
0000
0000
0000
,
0000
0000
0000
0000
,
0000
0000
0000
0000
,
0000
0000
0000
0000
,
0000
0000
0000
0000
,
0000
0000
0000
0000
,
0010
0000
0000
1000
0000
0000
0100
0000
,
0000
0010
0000
0000
0001
0000
0001
0000
,
1000
0000
0000
0001
0000
0000
0100
0000
,
0000
0010
1000
0100
0010
0001
0100
0010
,
1000
0010
1000
0000
0001
0100
0010
1000
,
0100
1000
0100
0000
0010
0001
1000
0001
,
0100
0001
0100
0000
0010
0100
0010
1000
,
0001
1000
0001
0000
1000
0100
0001
0000
,
0100
1000
0010
0000
0001
0000
0010
1000
,
0000
0110
0000
1001
0000
0000
0000
1000
,
0001
0010
0001
0010
0100
1000
0100
1000
,
0001
0100
0010
1000
0001
0000
0000
0000
,
1000
0000
0000
0000
1200
0000
0000
0000
0010
0000
0000
1000
0000
0000
0310
0000
,
0001
0000
0000
0000
0201
0000
0000
0000
0010
0000
0000
0001
0000
0000
0310
0000
,
0100
0000
0000
0000
2001
0000
0000
0000
0010
0000
0000
0001
0000
0000
3010
0000
,
1000
0000
0010
0000
0100
0000
0010
0000
1000
0000
0000
1000
0000
0000
0001
0000
,
1000
0000
0000
0000
1020
0000
0000
0000
0100
0000
0000
1000
0000
0000
0130
0000
,
0001
0000
0000
0000
0021
0000
0000
0000
0100
0000
0000
0001
0000
0000
0130
0000
,
2000
3200
0320
0032
,
0203
0320
2030
3001
,
1000
0000
0000
0000
0210
0000
0000
0000
0001
0000
0000
0010
0000
0000
0301
0000
,
0001
0000
0000
0000
0210
0000
0000
0000
1000
0000
0000
0010
0000
0000
1300
0000
,
1000
0000
0000
0000
1002
0000
0000
0000
0010
0000
0000
1000
0000
0000
0013
0000
,
0001
0000
0010
0000
0100
0000
0010
0000
0001
0000
0000
0001
0000
0000
1000
0000
,
0001
0000
0000
0000
0021
0000
0000
0000
0100
0000
0000
0001
0000
0000
0130
0000
,
1000
0000
0000
0000
1020
0000
0000
0000
0100
0000
0000
1000
0000
0000
0130
0000
,
0002
0000
0000
0000
0000
0000
0000
0000
0000
0000
0000
0000
0000
0000
0000
0000
0000
0000
0000
0000
0000
0000
0000
0000
0000
0000
0000
0000
0000
0000
0000
0000
0000
0000
0000
0000
0000
0000
0000
0000
0000
0000
0000
0000
0000
0000
0000
0000
0203
0000
0000
0000
0000
0000
0000
0000
0000
0000
0000
0000
0000
0000
0000
0000
0000
0000
0000
0000
0000
0000
0000
0000
0000
0000
0000
0000
0000
0000
0000
0000
0000
0000
0000
0000
0000
0000
0000
0000
0000
0000
0000
0000
0000
0000
0000
0000
0320
0000
0000
0000
0000
0000
0000
0000
0000
0000
0000
0000
0000
0000
0000
0000
0000
0000
0000
0000
0000
0000
0000
0000
0000
0000
0000
0000
0000
0000
0000
0000
0000
0000
0000
0000
0000
0000
0000
0000
0000
0000
0000
0000
0000
0000
0000
0000
2030
0000
0000
0000
0000
0000
0000
0000
0000
0000
0000
0000
0000
0000
0000
0000
0000
0000
0000
0000
0000
0000
0000
0000
0000
0000
0000
0000
0000
0000
0000
0000
0000
0000
0000
0000
0000
0000
0000
0000
0000
0000
0000
0000
0000
0000
0000
3000
,
0002
0000
0000
0003
,
0020
0000
0000
0000
0230
0000
0000
0310
,
0000
0001
1000
0000
0010
0000
1000
0000
0001
0000
0000
0000
0000
0000
0000
0000
,
1000
0000
0100
0000
0010
0000
0001
0000
1000
0000
0000
0001
0000
0000
0100
0000
,
0000
1000
0100
0000
0001
0001
1000
1000
,
0020
0000
0000
0000
0130
0000
0010
0001
,
0000
0010
1000
0000
0001
1000
0000
0000
,
0100
0000
0001
0000
0100
0000
0010
0000
0001
0000
0000
0100
0000
0000
0001
0000
,
0000
1000
0010
0001
,
1000
0100
0010
0100
0010
0001
0000
0001
,
0100
0010
0100
0010
1000
0010
0010
0000
,
1000
0001
0100
0010
1000
0001
0100
0000
,
0001
1000
0010
0000
1000
0100
0001
0100
,
2000
0000
0000
0000
3001
0000
1000
0010
,
0000
0001
0010
0000
0100
0010
0000
0000
,
1000
0000
0100
0000
0010
0000
0001
0000
0010
0000
0000
0001
0000
0000
0010
0000
,
0000
0001
0010
1000
,
0010
0000
0000
0000
0100
0000
0000
0000
0010
0000
0000
0010
0000
0000
0010
0000
,
1000
0000
0000
0000
0001
0000
0000
0000
1000
0000
0000
1000
0000
0000
1000
0000
,
0100
0000
0000
0000
1000
0000
0000
0000
0100
0000
0000
0100
0000
0000
0100
0000
,
0010
0000
0000
0000
0001
0000
0000
0000
0010
0000
0000
0010
0000
0000
0010
0000
,
0001
0000
1000
0000
0100
0010
0001
1000
,
0000
0001
0100
0002
0000
0000
0000
1003
,
0010
0100
0020
0000
0000
0000
1030
0001
,
0010
0100
1000
0000
0010
0100
0001
0000
,
1000
0000
0010
1000
0001
0000
0010
0001
,
0000
1000
0100
1000
0001
0000
0001
0000
,
0010
0000
0000
0001
0000
0000
0100
0000
0000
0000
0010
0000
1000
0000
0010
0000
,
0100
0000
0000
0100
0000
0000
0100
0000
0000
0000
0000
0000
0000
0000
0000
0000
,
0001
0000
0000
1000
0001
0000
0100
0000
0000
0000
0010
0000
1000
0000
0100
0000
,
0010
0000
0000
0001
1000
0000
0001
0000
0000
0000
1000
0000
0010
0000
0001
0000
,
0000
1000
0100
0001
0000
1000
0010
0001
,
0000
0010
1000
0001
1000
0001
0100
0010
,
1000
0000
0000
0100
0010
0000
0001
0000
1000
0000
0000
0001
0000
0000
1001
0000
,
0000
0000
0010
0000
1000
0000
0001
0000
0100
0000
0000
0010
0000
0000
0110
0000
,
0000
0000
1000
0000
0100
0000
0010
0000
0001
0000
0000
1000
0000
0000
0001
0000
,
0100
0000
0000
0100
0000
0000
0010
0000
0100
0000
0010
0000
0010
0000
0000
0000
,
1000
0000
0000
0001
1000
0000
0100
0000
0000
0000
0010
0000
0001
0000
0100
0000
,
0010
0000
0000
1000
0001
0000
1000
0000
0000
0000
0001
0000
0010
0000
1000
0000
,
0000
0001
0100
1000
0000
0001
0010
1000
,
0000
0010
0001
1000
0001
1000
0100
0010
,
0002
0000
1003
0000
,
0001
0000
0000
0100
0000
0000
0010
0000
1000
0000
0000
0000
0000
0000
0000
0000
,
0010
1000
0100
0010
0001
0100
0010
1000
,
0001
0000
0000
0000
,
0000
0000
0000
0000
;
#NOTES:
     dance-single:
     :
     Hard:
     15:
     :
0000
0000
0000
0000
,
0000
0000
0000
0000
,
0000
0000
0000
0000
,
0000
0000
0000
0000
,
0000
0000
0000
0000
,
0000
0000
0000
0000
,
0000
0000
0000
0000
,
0012
0000
0000
2003
0000
0000
3020
0000
,
0000
0230
0000
0000
0302
0000
0013
0000
,
2010
0000
0000
3002
0000
0000
0023
0000
,
0000
0000
0130
0000
1000
0000
0001
0100
0001
0000
1000
0000
0001
0000
0010
0100
,
0010
0000
0001
0000
0010
0100
0000
0010
0000
1000
0010
0100
0010
0000
0001
0100
,
0010
0000
1000
0000
0010
0100
0000
0010
0000
0001
0010
0100
0010
0000
1000
0100
,
0010
0000
0001
0000
0010
0100
0000
0010
0000
1000
0010
0100
0010
0000
0001
0100
,
0010
0000
1000
0000
0001
0100
0000
0010
0000
1000
0100
1000
0001
0000
1000
0010
,
1000
0001
0100
0000
0010
1000
0010
1000
,
0000
0101
0000
1010
0000
0000
0000
0001
,
1000
0100
1000
0100
0001
0100
0001
0100
,
1000
0001
0100
0010
1000
0001
0100
0010
1000
0000
0000
0000
0000
0000
0000
0000
,
0110
0000
0000
0000
1001
0000
0000
0000
1010
0000
0000
1010
0000
0000
1010
0000
,
0101
0000
0000
0000
1010
0000
0000
1000
0001
0000
0000
0100
0000
0000
0010
0000
,
0110
0000
0000
0000
1001
0000
0000
0000
0011
0000
0000
0011
0000
0000
0011
0000
,
1000
0000
0010
0000
0001
0000
0010
0000
1000
0010
0000
0001
0000
0000
0010
0000
,
0110
0000
0000
0000
1001
0000
0000
0000
1100
0000
0000
1100
0000
0000
1100
0000
,
0011
0000
0000
0000
1100
0000
0100
0000
0010
0000
0000
0110
0000
0000
0110
0000
,
0001
0100
0001
0000
0100
0010
0100
0000
0010
1000
0010
0000
1000
0100
1000
0000
,
0100
0010
0100
0000
0010
0001
0010
0000
0001
0100
0001
0000
0100
0010
0100
0000
,
1001
0000
0000
0000
0110
0000
0000
0000
0011
0000
0000
0110
0000
0000
0011
0000
,
1001
0000
0000
0000
0110
0000
0010
0000
1000
0000
0000
0100
0000
0000
0010
0000
,
1001
0000
0000
0000
0110
0000
0000
0000
1010
0000
0000
0110
0000
0000
1010
0000
,
0001
0000
0010
0000
1000
0000
0010
0000
0001
0010
0000
1000
0000
0000
0010
0000
,
0001
0100
0000
0001
0000
1000
0000
0010
0100
0000
0000
0110
0000
0000
0101
0000
,
1001
0000
0000
0000
0110
0000
0010
0000
1000
0000
0000
0001
0000
0000
0100
0000
,
0010
0100
0010
0100
0010
1000
0010
1000
0001
1000
0001
1000
0100
1000
0100
1000
,
0002
0000
0000
0003
,
0120
0000
0000
0000
2030
0000
0000
3001
,
0000
1000
0100
0000
1000
0000
0001
0000
0011
0000
0000
0000
0000
0000
0000
0000
,
1000
0000
0010
0100
0000
0010
0000
1000
0001
0000
0000
1000
0000
0000
0100
0000
,
0000
0000
0001
0100
0001
0000
0000
0000
1000
0000
0010
0000
0001
0000
0100
0000
,
0010
0000
0000
0000
1000
0000
0000
0000
0001
0000
0000
0000
0010
0000
0000
0000
0001
0000
0000
0000
1000
0000
0000
0000
0020
0000
0000
0000
0000
0000
0000
0000
0000
0000
0000
0000
0130
0000
0000
0001
0000
0000
0100
0000
0000
0000
0000
0000
,
0000
1000
0100
1000
0100
0000
0001
0100
0001
0000
1000
0000
0000
0000
0000
0000
,
0100
0010
0001
0010
0000
0001
0000
1000
0001
0000
0000
1001
0000
0000
0210
0000
,
0000
0001
1000
0301
,
0100
0000
0010
0100
0010
0000
1000
0000
0010
0000
1010
0000
0000
0000
1000
0000
,
0001
0010
0001
0000
1000
0000
0010
0000
0001
0000
0010
0000
1000
0000
0000
0000
,
0001
0000
1000
0100
1000
0000
0100
0000
0010
0000
0001
0000
0010
0000
0000
0000
,
0100
0000
0010
0100
0010
0000
0000
0000
0011
0000
0100
0000
1000
0000
0001
0000
,
1000
0000
0000
0000
0100
0000
0000
0000
0001
0000
0000
0000
0100
0000
0000
0000
1000
0000
0000
0000
0001
0000
0000
0000
2000
0000
0000
0000
0000
0000
0000
0000
0000
0000
0000
0000
3001
0000
0000
0100
0000
0000
0001
0000
0000
0000
0000
0000
,
0000
1000
0100
1000
0100
0000
0010
0100
0010
0000
0001
0000
0000
0000
0000
0000
,
0100
0010
1000
0010
0000
1000
0000
0001
1000
0000
0000
1001
0000
0000
0210
0000
,
0000
1000
0001
1300
,
0002
0000
0000
0000
0010
0000
0000
0000
0010
0000
0000
0010
0000
0000
0010
0000
,
0010
0000
0000
0000
0010
0000
0000
0000
0010
0000
0000
0010
0000
0000
0010
0000
,
2003
0000
0000
0000
0010
0000
0000
0000
0010
0000
0000
0010
0000
0000
0010
0000
,
0010
0000
0000
0000
0010
0000
0000
0000
0010
0000
0000
0010
0000
0000
0010
0000
,
3001
0000
1000
0000
0001
0100
0010
1000
,
0000
0110
0001
2000
0000
0000
0000
3100
,
0010
0001
0020
0000
0000
0000
1030
0010
,
0001
1000
0100
0000
1000
0001
0100
0000
,
0001
0000
1010
0001
0001
0000
0100
0010
,
0000
0100
0100
0001
1000
0000
1000
0000
,
0011
0000
0000
1010
0000
0000
0011
0000
0000
0000
1000
0000
0010
0000
0200
0000
,
0010
0000
0000
0010
0000
0000
0310
0000
0000
0000
0000
0000
0000
0000
0000
0000
,
1000
0000
0001
0100
0001
0000
0100
0010
0000
1000
0001
1000
0100
0000
0010
0000
,
0001
0000
1000
0000
1001
0000
0000
0000
0000
0010
0001
0000
0010
0000
0100
0000
,
0010
0000
0001
1000
0001
0000
1000
0010
0000
1000
0001
1000
0100
0000
0010
0000
,
0000
1000
0010
0001
0100
0100
0010
0010
,
1000
0000
0100
1000
0100
0000
1000
0100
1000
0000
0000
1100
0000
0000
1001
0000
,
0000
0000
0100
0001
0100
0000
0001
0100
0001
0000
0000
0101
0000
0000
1001
0000
,
0010
0000
0100
0010
0100
0000
0010
0000
1000
0001
0000
1000
0001
0000
1000
0000
,
0100
0000
0000
0100
0000
0000
0100
0000
0010
0000
0100
0000
0100
0000
0000
0000
,
0001
0000
1000
0100
1000
0000
0100
0010
0000
0001
1000
0001
0100
0000
0010
0000
,
1000
0000
0001
0000
1001
0000
0000
0000
0000
0010
1000
0000
0010
0000
0100
0000
,
0010
0000
1000
0001
1000
0000
0001
0010
0000
0001
1000
0001
0100
0000
0010
0000
,
0000
0001
0010
1000
0100
0100
0010
0010
,
0002
0000
0103
0000
,
1000
0000
0000
0100
0000
0000
0010
0000
0011
0000
0000
0000
0000
0000
0000
0000
,
1000
0000
0010
0000
0100
0000
0001
0000
1000
0100
0010
0001
1000
0010
0100
0001
,
1000
0000
0000
0000
,
0000
0000
0000
0000
;
#NOTES:
     dance-double:
     :
     Easy:
     8:
     :
00000000
00000000
00000000
00000000
,
00000000
00000000
00000000
00000000
,
00000000
00000000
00000000
00000000
,
00000000
00000000
00000000
00000000
,
00000000
00000000
00000000
00000000
,
00000000
00000000
00000000
00000000
,
00000000
00000000
00000000
00000000
,
00100000
10000000
01000000
00000000
,
00100000
00010000
01000000
00000000
,
00001000
00000000
00010000
00000000
,
00011000
00000000
00000010
00000010
,
00001000
00000000
00000100
00000000
00000010
00000001
00000100
00000000
,
00000010
00000000
00000100
00000000
00000010
00001000
00000100
00000000
,
00010000
00000000
00001000
00000000
00010000
00001000
00010000
00000000
,
00001000
00010000
00100000
10000000
,
01000000
00010000
00100000
10000000
,
01100000
10010000
01100000
00000000
,
10000000
01000000
00010000
00001000
,
00022000
00000000
00033000
00000000
,
00010000
00001000
00000200
00000300
,
00000001
00000010
00000002
00000003
,
00001000
00000010
00000200
00000300
,
00001000
00010000
00100000
10000000
,
00010000
10000000
02000000
03000000
,
10000000
00010000
02000000
03000000
,
00010000
10000000
01000000
00010000
,
00001000
00000100
00000001
00000010
,
00000100
00001000
00001100
00000000
,
00010000
00001000
00011000
00000000
,
01000000
00010000
01010000
00000000
,
00001000
00010000
00100000
10000000
,
00010000
10000000
10010000
00000000
,
00100000
00010000
00110000
00000000
,
00001000
00010000
00000010
00001000
,
00000002
00000000
00000000
00000003
,
00002000
00000000
00000000
00000000
00003200
00000000
00000000
00000310
,
00000000
00000001
00000100
00000001
00000100
00000000
00000000
00000000
,
00002000
00000000
00013000
00000000
,
00100000
00000000
10000000
00000000
00100000
01000000
00100000
00000000
,
20000000
00000000
00000000
00000000
31000000
00000000
00000000
00010000
,
00000000
00000000
00001000
00000000
00000000
00000100
00000000
00000000
,
00000001
00000000
00000010
00000000
00000100
00000000
00000000
00000010
,
00000000
00000001
00000100
00000010
,
00001000
00000000
00000100
00000000
00010000
00001000
00000000
00000000
,
01000000
00000000
00010000
00000000
10000000
00100000
01000000
00000000
,
00100000
00000000
10000000
00000000
01000000
10000000
01000000
00000000
,
00010000
00000000
00001000
00000000
00010000
00001000
00010000
00000000
,
00000020
00000000
00000000
00000000
00000130
00000000
00000000
00000001
,
00000000
00000000
00001000
00000000
00000000
00000001
00000000
00000000
,
00000010
00000000
00000100
00000000
00001000
00000000
00000000
00000001
,
00000000
00000100
00001000
00010000
,
00200000
00000000
00000000
00000000
,
00000000
00000000
00000000
00300000
,
02000000
00000000
00000000
00000000
,
00000000
00000000
00000000
03000000
,
00100000
00000000
10000000
00000000
00100000
01000000
00010000
00000000
,
10000000
01000000
00010000
00000000
,
00001000
00000010
00000100
00000000
,
00000010
00000001
00000100
00000000
,
00000001
00000100
00001000
00010000
,
01000000
10000000
00100000
10000000
,
02200000
00000000
03300000
00010000
,
02200000
00000000
03300000
00000000
,
10000000
00000000
01000000
00000000
00100000
00010000
00100000
00000000
,
00001000
00000000
00000010
00000000
00000001
00000100
00000010
00000000
,
00001000
00000010
00000001
00000010
,
00001000
00000100
00000001
00000001
,
00000100
00000000
00001000
00000000
00010000
00001000
00010000
00000000
,
00100000
00000000
10000000
00000000
00010000
01000000
00100000
00000000
,
10000000
01000000
00010000
00001000
,
00000100
00000001
00001001
00000000
,
00000001
00000000
00000100
00000000
00000010
00001000
00000010
00000000
,
00010000
00000000
00100000
00000000
10000000
01000000
00100000
00000000
,
00010000
00100000
10000000
00100000
,
00010000
01000000
10000000
10000000
,
00200000
00000000
01300000
00000000
,
00100000
00010000
00001000
00000000
,
00000010
00000001
00000100
00000010
,
00001001
00000000
00000000
00000000
,
00000000
00000000
00000000
00000000
;
#NOTES:
     dance-double:
     :
     Medium:
     12:
     :
00000000
00000000
00000000
00000000
,
00000000
00000000
00000000
00000000
,
00000000
00000000
00000000
00000000
,
00000000
00000000
00000000
00000000
,
00000000
00000000
00000000
00000000
,
00000000
00000000
00000000
00000000
,
00000000
00000000
00000000
00000000
,
00100000
00000000
00000000
00001000
00000000
00000000
00010000
00000000
,
00000000
00000010
00000000
00000000
00010000
00000000
00001000
00000000
,
00010000
00000000
00000000
01000000
00000000
00000000
10000000
00000000
,
00000000
00100000
10000000
00100000
01000000
00001000
00010000
00000010
,
00001000
00000001
00000100
00000000
00000010
00001000
00000100
00000010
,
00000001
00000100
00001000
00000000
00010000
01000000
10000000
01000000
,
00100000
00010000
10000000
00000000
00100000
01000000
00100000
10000000
,
01000000
00010000
00001000
00000000
00000100
00000001
00001000
00000000
,
00000100
00000010
00000001
00000000
00000010
00000000
00000100
00000010
,
00000000
00001000
00000000
00010000
00000000
00000000
00000000
00000010
,
00001000
00000010
00010000
00001000
00100000
00010000
10000000
01000000
,
00100000
00010000
01000000
00100000
10000000
00000000
00000000
00000000
,
10000000
00000000
00000000
00000000
01000000
00000000
00000000
00000000
00100000
00000000
00000000
00010000
00000000
00000000
00001000
00000000
,
00000100
00000000
00000000
00000000
00000010
00000000
00000000
00000000
00000001
00000000
00000000
00001000
00000000
00000000
00001000
00000000
,
00000001
00000000
00000000
00000000
00000100
00000000
00000000
00000000
00000010
00000000
00000000
00001000
00000000
00000000
00010000
00000000
,
01000000
00000000
00100000
00000000
10000000
00000000
00100000
00000000
01000000
00000000
00000000
00010000
00000000
00000000
00010000
00000000
,
10000000
00000000
00000000
00000000
01000000
00000000
00000000
00000000
00010000
00000000
00000000
00001000
00000000
00000000
00010000
00000000
,
00000100
00000000
00000000
00000000
00000010
00000000
00000000
00000000
00000001
00000000
00000000
00001000
00000000
00000000
00000001
00000000
,
00000200
00000320
00000032
00000023
,
00002030
00023000
02030000
03100000
,
10000000
00000000
00000000
00000000
00010000
00000000
00000000
00000000
10000000
00000000
00000000
01000000
00000000
00000000
00010000
00000000
,
00001000
00000000
00000000
00000000
00000100
00000000
00000000
00000000
00000001
00000000
00000000
00001000
00000000
00000000
00001000
00000000
,
00000001
00000000
00000000
00000000
00001000
00000000
00000000
00000000
00000001
00000000
00000000
00000100
00000000
00000000
00001000
00000000
,
00010000
00000000
00100000
00000000
01000000
00000000
00100000
00000000
00010000
00000000
00000000
00100000
00000000
00000000
00100000
00000000
,
10000000
00000000
00000000
00000000
00100000
00000000
00000000
00000000
00010000
00000000
00000000
00001000
00000000
00000000
00010000
00000000
,
00000010
00000000
00000000
00000000
00000100
00000000
00000000
00000000
00000001
00000000
00000000
00001000
00000000
00000000
00000001
00000000
,
00000020
00000000
00000000
00000000
00000000
00000000
00000000
00000000
00000000
00000000
00000000
00000000
00000000
00000000
00000000
00000000
00000000
00000000
00000000
00000000
00000000
00000000
00000000
00000000
00000000
00000000
00000000
00000000
00000000
00000000
00000000
00000000
00000000
00000000
00000000
00000000
00000000
00000000
00000000
00000000
00000000
00000000
00000000
00000000
00000000
00000000
00000000
00000000
00000230
00000000
00000000
00000000
00000000
00000000
00000000
00000000
00000000
00000000
00000000
00000000
00000000
00000000
00000000
00000000
00000000
00000000
00000000
00000000
00000000
00000000
00000000
00000000
00000000
00000000
00000000
00000000
00000000
00000000
00000000
00000000
00000000
00000000
00000000
00000000
00000000
00000000
00000000
00000000
00000000
00000000
00000000
00000000
00000000
00000000
00000000
00000000
00000302
00000000
00000000
00000000
00000000
00000000
00000000
00000000
00000000
00000000
00000000
00000000
00000000
00000000
00000000
00000000
00000000
00000000
00000000
00000000
00000000
00000000
00000000
00000000
00000000
00000000
00000000
00000000
00000000
00000000
00000000
00000000
00000000
00000000
00000000
00000000
00000000
00000000
00000000
00000000
00000000
00000000
00000000
00000000
00000000
00000000
00000000
00000000
00000203
00000000
00000000
00000000
00000000
00000000
00000000
00000000
00000000
00000000
00000000
00000000
00000000
00000000
00000000
00000000
00000000
00000000
00000000
00000000
00000000
00000000
00000000
00000000
00000000
00000000
00000000
00000000
00000000
00000000
00000000
00000000
00000000
00000000
00000000
00000000
00000000
00000000
00000000
00000000
00000000
00000000
00000000
00000000
00000000
00000000
00000000
00000300
,
00020000
00000000
00000000
00030000
,
00200000
00000000
00000000
00000000
02300000
00000000
00000000
03100000
,
00000000
10000000
01000000
00000000
00100000
00000000
00010000
00000000
10000000
00000000
00000000
00000000
00000000
00000000
00000000
00000000
,
00010000
00000000
01000000
00000000
00100000
00000000
01000000
00000000
00001000
00000000
00000000
00010000
00000000
00000000
00001000
00000000
,
00000000
00000100
00000001
00000000
00001000
00000100
00000010
00000001
,
00002000
00000000
00000000
00000000
00003010
00000000
00000100
00001000
,
00000000
00010000
00100000
00000000
10000000
00010000
00000000
00000000
,
01000000
00000000
00100000
00000000
00010000
00000000
00100000
00000000
10000000
00000000
00000000
01000000
00000000
00000000
00010000
00000000
,
00000000
00001000
00000100
00000001
,
00000010
00000001
00001000
00000100
00010000
00001000
00000000
00100000
,
00010000
00100000
01000000
00100000
10000000
00100000
00100000
00000000
,
00010000
01000000
10000000
01000000
00010000
10000000
00010000
00000000
,
00100000
00010000
00001000
00000000
00000100
00000010
00000001
00001000
,
00000020
00000000
00000000
00000000
00000130
00000000
00001000
00000100
,
00000000
00000001
00000100
00000000
00000010
00001000
00000000
00000000
,
00010000
00000000
01000000
00000000
00100000
00000000
10000000
00000000
00100000
00000000
00000000
01000000
00000000
00000000
00200000
00000000
,
00000000
10000000
01000000
10300000
,
01000000
00000000
00000000
00000000
01000000
00000000
00000000
00000000
00010000
00000000
00000000
00010000
00000000
00000000
00010000
00000000
,
00001000
00000000
00000000
00000000
00001000
00000000
00000000
00000000
00000010
00000000
00000000
00000010
00000000
00000000
00000010
00000000
,
00000001
00000000
00000000
00000000
00000001
00000000
00000000
00000000
00000100
00000000
00000000
00000100
00000000
00000000
00000100
00000000
,
00001000
00000000
00000000
00000000
00001000
00000000
00000000
00000000
00010000
00000000
00000000
00010000
00000000
00000000
00010000
00000000
,
00100000
00000000
10000000
00000000
00010000
01000000
00100000
10000000
,
00000000
01000000
00100000
00020000
00000000
00000000
00000000
00031000
,
00000100
00000010
00000200
00000000
00000000
00000000
00000310
00001000
,
00000010
00000001
00001000
00000000
00000010
00001000
00000001
00000000
,
00000100
00000000
00001000
00010000
00001000
00000000
00100000
00010000
,
00000000
10000000
00100000
10000000
00010000
00000000
00010000
00000000
,
10000000
00000000
00000000
01000000
00000000
00000000
00100000
00000000
00000000
00000000
00010000
00000000
01000000
00000000
00100000
00000000
,
01000000
00000000
00000000
01000000
00000000
00000000
01000000
00000000
00000000
00000000
00000000
00000000
00000000
00000000
00000000
00000000
,
00100000
00000000
00000000
10000000
01000000
00000000
00100000
00000000
00000000
00000000
01000000
00000000
00010000
00000000
00001000
00000000
,
00000010
00000000
00000000
00000001
00001000
00000000
00000001
00000000
00000000
00000000
00000100
00000000
00000010
00000000
00001000
00000000
,
00000000
00000100
00000010
00000001
00000000
00000100
00001000
00010000
,
00000000
00100000
10000000
00000000
00010000
01000000
00100000
10000000
,
00010000
00000000
00000000
00100000
01000000
00000000
10000000
00000000
00010000
00000000
00000000
10000000
00000000
00000000
01100000
00000000
,
00000000
00000000
10000000
00000000
01000000
00000000
00010000
00000000
00001000
00000000
00000000
00010000
00000000
00000000
00011000
00000000
,
00000000
00000000
00001000
00000000
00000100
00000000
00000001
00000000
00000010
00000000
00000000
00000001
00000000
00000000
00000010
00000000
,
00000100
00000000
00000000
00000100
00000000
00000000
00000010
00000000
00000100
00000000
00000010
00000000
00000010
00000000
00000000
00000000
,
00000010
00000000
00000000
00000001
00000100
00000000
00000010
00000000
00000000
00000000
00000100
00000000
00001000
00000000
00010000
00000000
,
00100000
00000000
00000000
10000000
00010000
00000000
10000000
00000000
00000000
00000000
01000000
00000000
00100000
00000000
00010000
00000000
,
00000000
01000000
00100000
10000000
00000000
01000000
00010000
00001000
,
00000000
00000010
00000001
00000000
00001000
00000100
00000010
00000001
,
00002000
00000000
00003001
00000000
,
00000100
00000000
00000000
00001000
00000000
00000000
00010000
00000000
00001000
00000000
00000000
00000000
00000000
00000000
00000000
00000000
,
00010000
00100000
01000000
00100000
10000000
01000000
00100000
00010000
,
10000000
00000000
00000000
00000000
,
00000000
00000000
00000000
00000000
;
#NOTES:
     dance-double:
     :
     Hard:
     15:
     :
00000000
00000000
00000000
00000000
,
00000000
00000000
00000000
00000000
,
00000000
00000000
00000000
00000000
,
00000000
00000000
00000000
00000000
,
00000000
00000000
00000000
00000000
,
00000000
00000000
00000000
00000000
,
00000000
00000000
00000000
00000000
,
00002000
00000000
00000000
00003020
00000000
00000000
00000032
00000000
,
00000000
00002003
00000000
00000000
00003200
00000000
00000301
00000000
,
00002000
00000000
00000000
00023000
00000000
00000000
02030000
00000000
,
00000000
00000000
03100000
00000000
10000000
00000000
00100000
01000000
00100000
00000000
10000000
00000000
00010000
00000000
10000000
01000000
,
10000000
00000000
01000000
00000000
00100000
00010000
00000000
00100000
00000000
00001000
00000000
00010000
00000010
00000000
00001000
00000100
,
00000010
00000000
00000001
00000000
00000010
00000100
00000000
00000010
00000000
00000001
00000000
00000100
00000010
00000000
00010000
00001000
,
00010000
00000000
00001000
00000000
01000000
00010000
00000000
10000000
00000000
00100000
00000000
01000000
00100000
00000000
10000000
00010000
,
01000000
00000000
00001000
00000000
00010000
00000010
00000000
00001000
00000000
00000001
00000100
00000001
00000100
00000000
00000001
00001000
,
00000001
00001000
00000100
00000000
00000010
00001000
00010000
00200000
,
00000000
00010000
00000000
10300000
00000000
00000000
00000000
10000000
,
00010000
01000000
00100000
10000000
01000000
00100000
00001000
00010000
,
00000100
00001000
00000100
00001000
00000100
00001000
00000100
00001000
00000100
00000000
00000000
00000000
00000000
00000000
00000000
00000000
,
00010100
00000000
00000000
00000000
00010010
00000000
00000000
00000000
00000100
00000000
00000000
00000010
00000000
00000000
00001000
00000000
,
00011000
00000000
00000000
00000000
01010000
00000000
00000000
00100000
10000000
00000000
00000000
00010000
00000000
00000000
01000000
00000000
,
01100000
00000000
00000000
00000000
10010000
00000000
00000000
00000000
01000000
00000000
00000000
00010000
00000000
00000000
00001000
00000000
,
00000010
00000000
00001000
00000000
00010000
00000000
00001000
00000000
00000010
00000001
00000000
00000010
00000000
00000000
00000100
00000000
,
00000110
00000000
00000000
00000000
00001100
00000000
00000000
00000000
00000001
00000000
00000000
00000100
00000000
00000000
00001000
00000000
,
00001100
00000000
00000000
00000000
00011000
00000000
00001000
00000000
00100000
00000000
00000000
00010000
00000000
00000000
01000000
00000000
,
00100000
10000000
00100000
00000000
10000000
01000000
10000000
00000000
01000000
00100000
01000000
00000000
00100000
00010000
00100000
00000000
,
00010000
00001000
00010000
00000000
00001000
00000100
00001000
00000000
00000100
00000010
00000100
00000000
00000010
00000001
00000010
00000000
,
00001001
00000000
00000000
00000000
00001010
00000000
00000000
00000000
00000001
00000000
00000000
00000010
00000000
00000000
00001000
00000000
,
00011000
00000000
00000000
00000000
00110000
00000000
01000000
00000000
10000000
00000000
00000000
00010000
00000000
00000000
01000000
00000000
,
01100000
00000000
00000000
00000000
10010000
00000000
00000000
00000000
00100000
00000000
00000000
00010000
00000000
00000000
00001000
00000000
,
00000100
00000000
00001000
00000000
00010000
00000000
00001000
00000000
00000100
00000001
00000000
00000100
00000000
00000000
00000010
00000000
,
00001000
00000010
00000000
00000001
00000000
00000010
00000000
00001000
00000001
00000000
00000000
00000100
00000000
00000000
00000100
00000000
,
00001010
00000000
00000000
00000000
00011000
00000000
00001000
00000000
01000000
00000000
00000000
00100000
00000000
00000000
10000000
00000000
,
01000000
10000000
01000000
00000000
00100000
01000000
00100000
00000000
00010000
00100000
00010000
00000000
00001000
00010000
00001000
00000000
,
00000200
00000000
00000000
00000300
,
00000120
00000000
00000000
00000000
00000032
00000000
00000000
00001003
,
00000000
00000001
00000100
00000000
00000010
00000000
00001000
00000000
00001010
00000000
00000000
00000000
00000000
00000000
00000000
00000000
,
00010000
00000000
00001000
00000100
00000000
00001000
00000000
00010000
00001000
00000000
00000000
00010000
00000000
00000000
01000000
00000000
,
00000000
00000000
10000000
00010000
10000000
00000000
00000000
00000000
00100000
00000000
10000000
00000000
01000000
00000000
00100000
00000000
,
00010000
00000000
00000000
00000000
10000000
00000000
00000000
00000000
00010000
00000000
00000000
00000000
01000000
00000000
00000000
00000000
00001000
00000000
00000000
00000000
00010000
00000000
00000000
00000000
00000020
00000000
00000000
00000000
00000000
00000000
00000000
00000000
00000000
00000000
00000000
00000000
00000130
00000000
00000000
00000010
00000000
00000000
00000100
00000000
00000000
00000000
00000000
00000000
,
00000000
00000001
00000100
00000001
00000100
00000000
00000001
00001000
00000001
00000000
00000010
00000000
00000000
00000000
00000000
00000000
,
00000001
00000010
00000100
00001000
00000000
00000001
00000000
00000100
00001000
00000000
00000000
00010000
00000000
00000000
00002000
00000000
,
00000000
00010000
00010000
00013000
,
00100000
00000000
01000000
00100000
01000000
00000000
00100000
00000000
10000000
00000000
00100000
00000000
00000000
00000000
10000000
00000000
,
01000000
00100000
01000000
00000000
00100000
00000000
00010000
00000000
00001000
00000000
00000100
00000000
00000010
00000000
00000000
00000000
,
00000001
00000000
00001000
00000100
00001000
00000000
00000100
00000000
00000010
00000000
00000001
00000000
00000010
00000000
00000000
00000000
,
00001000
00000000
00010000
00001000
00010000
00000000
00000000
00000000
00001000
00000000
01000000
00000000
00100000
00000000
10000000
00000000
,
00010000
00000000
00000000
00000000
01000000
00000000
00000000
00000000
00100000
00000000
00000000
00000000
10000000
00000000
00000000
00000000
01000000
00000000
00000000
00000000
00100000
00000000
00000000
00000000
00020000
00000000
00000000
00000000
00000000
00000000
00000000
00000000
00000000
00000000
00000000
00000000
00130000
00000000
00000000
01000000
00000000
00000000
00100000
00000000
00000000
00000000
00000000
00000000
,
00000000
00001000
00010000
00001000
00010000
00000000
00000010
00001000
00000010
00000000
00000100
00000000
00000000
00000000
00000000
00000000
,
00000001
00000100
00000010
00001000
00000000
00000001
00000000
00001000
00000100
00000000
00000000
00000010
00000000
00000000
00000200
00000000
,
00000000
00000010
00001000
00000310
,
00000001
00000000
00000000
00000000
00000100
00000000
00000000
00000000
00001000
00000000
00000000
00010000
00000000
00000000
01000000
00000000
,
10000000
00000000
00000000
00000000
01000000
00000000
00000000
00000000
00010000
00000000
00000000
00001000
00000000
00000000
00000100
00000000
,
00000001
00000000
00000000
00000000
00000010
00000000
00000000
00000000
00001000
00000000
00000000
00010000
00000000
00000000
00100000
00000000
,
10000000
00000000
00000000
00000000
00100000
00000000
00000000
00000000
00010000
00000000
00000000
00001000
00000000
00000000
00000010
00000000
,
00000001
00000000
00001000
00000000
00000001
00000100
00000010
00001000
,
00000000
00010000
01000000
00200000
00000000
00000000
00000000
10300000
,
00100000
01000000
00200000
00000000
00000000
00000000
10300000
01000000
,
00100000
00010000
00001000
00000000
00000100
00000010
00000001
00000000
,
00001000
00000000
00000010
00001000
00000001
00000000
00001000
00000100
,
00000000
00001000
00010000
00100000
01000000
00000000
01000000
00000000
,
11000000
00000000
00000000
01010000
00000000
00000000
11000000
00000000
00000000
00000000
00100000
00000000
00010000
00000000
00002000
00000000
,
00010000
00000000
00000000
00010000
00000000
00000000
00013000
00000000
00000000
00000000
00000000
00000000
00000000
00000000
00000000
00000000
,
00000010
00000000
00001000
00000010
00001000
00000000
00000010
00000100
00000000
00000010
00000000
00001000
00000001
00000000
00000010
00000000
,
00000100
00000000
00010000
00000000
00011000
00000000
00000000
00000000
00000000
00000010
00001000
00000000
00010000
00000000
01000000
00000000
,
00100000
00000000
10000000
00010000
10000000
00000000
00010000
01000000
00000000
00100000
00000000
10000000
01000000
00000000
00100000
00000000
,
00000000
00010000
00100000
00000000
01000000
00010000
00001000
00000010
,
00000001
00000000
00000100
00000001
00000100
00000000
00000001
00000100
00000001
00000000
00000000
00000100
00000000
00000000
00001000
00000000
,
00000000
00000000
00010000
00001000
00010000
00000000
00001000
00010000
00001000
00000000
00000000
00010000
00000000
00000000
01000000
00000000
,
10000000
00000000
00010000
00100000
00010000
00000000
10000000
00000000
00100000
10000000
00000000
00100000
01000000
00000000
00100000
00000000
,
00010000
00000000
00000000
00001000
00000000
00000000
00000010
00000000
00000001
00000000
00000010
00000000
00000010
00000000
00000000
00000000
,
00000100
00000000
00001000
00000100
00001000
00000000
00000100
00000010
00000000
00000100
00000000
00001000
00000001
00000000
00000100
00000000
,
00000010
00000000
00010000
00000000
00011000
00000000
00000000
00000000
00000000
00000100
00001000
00000000
00010000
00000000
00100000
00000000
,
01000000
00000000
10000000
00010000
10000000
00000000
00010000
00100000
00000000
01000000
00000000
10000000
00100000
00000000
01000000
00000000
,
00000000
00010000
01000000
00000000
00100000
00010000
00001000
00000100
,
00000020
00000000
00000130
00000000
,
00000001
00000000
00000000
00000100
00000000
00000000
00000010
00000000
00001010
00000000
00000000
00000000
00000000
00000000
00000000
00000000
,
00000001
00000000
00000010
00000000
00001000
00000000
00010000
00000000
00100000
10000000
00100000
10000000
00010000
01000000
00100000
10000000
,
00010000
00000000
00000000
00000000
,
00000000
00000000
00000000
00000000
;
