
//----- song ID: neza -----//
#TITLE:熱情のサパデアード;
#ARTIST:日向美ビタースイーツ♪;
#TITLETRANSLIT:Netsujou no zapadeado;
#ARTISTTRANSLIT:Hinatabi Bitter Sweets♪;
#BANNER:Netsujou no zapadeado.png;
#BACKGROUND:Netsujou no zapadeado-bg.png;
#CDTITLE:./CDTitles/DDR A20.png;
#MUSIC:Netsujou no zapadeado.ogg;
#SAMPLESTART:39.939;
#SAMPLELENGTH:15;
#BPMS:0=136;
#NOTES:
     dance-single:
     :
     Beginner:
     2:
     :
0000
0000
0000
0000
,
0000
0000
0000
0000
,
0000
0000
0000
0000
,
0000
0000
0000
0000
,
0000
0000
0000
0000
,
0001
0001
0001
0000
,
1000
1000
1000
0000
,
0010
0010
0010
0000
,
1001
0000
0000
0000
,
1000
0000
1000
0000
,
0001
0000
0001
0000
,
0100
0000
0100
0000
,
0010
0000
0010
0000
,
1000
1000
1000
0000
,
0001
0001
0001
0000
,
1000
0000
0001
0000
,
1001
0000
0000
0000
,
1000
0000
0000
0001
,
0000
0000
1000
0000
,
0000
0001
0000
0000
,
0100
0000
0000
0010
,
0000
0000
0100
0000
,
0000
0010
0000
0000
,
1000
0000
0010
0000
,
1000
0000
0010
0000
,
0100
0000
0001
0000
,
0100
0000
0001
0000
,
0100
0100
0100
0000
,
0010
0010
0010
0000
,
1000
0000
0001
0000
,
1001
0000
0000
0000
,
1000
0000
0100
0000
,
0001
0000
0100
0000
,
1000
0000
0100
0000
,
0001
0000
0000
1000
,
0000
0000
0001
0000
,
0000
0000
0020
0000
0000
0030
0000
0000
,
0002
0000
0000
0003
0000
0000
0200
0000
,
0000
0300
0000
0000
0020
0000
0000
0030
,
0000
0000
2000
0000
0000
3000
0000
0000
,
0002
0000
0000
0003
0000
0000
0020
0000
,
0000
0030
0000
0000
0200
0000
0000
0300
,
0000
1001
0000
0000
,
0000
0000
0000
0000
,
0000
0000
0000
0000
,
0000
0000
0010
0000
,
0000
0000
0000
0000
,
0000
0001
0000
0001
,
0000
0100
0000
0100
,
0000
0010
0000
0010
,
0000
1000
0000
1000
,
0000
0001
0001
0001
,
0000
1000
1000
1000
,
0000
0001
0000
1000
,
0000
1001
0000
0000
,
0000
0001
0000
0010
,
0000
1000
0000
0010
,
0000
0001
0000
1000
,
0000
1001
0000
1001
,
0000
0001
0001
0001
,
0000
0100
0100
0100
,
0000
1000
1000
1000
,
0000
0001
0000
0000
,
1000
0000
0000
0010
,
0000
0000
0100
0000
,
0000
0002
0000
0000
,
0000
0000
0000
0003
,
0000
0000
1001
0000
,
0000
0000
0000
0000
;
#NOTES:
     dance-single:
     :
     Easy:
     5:
     :
0000
0000
0000
0000
,
0000
0000
0000
0000
,
0000
0000
0000
0000
,
0000
0000
0000
0000
,
0000
0000
0000
0000
,
1000
0001
1000
0000
,
0010
0100
0010
0000
,
1000
0100
0010
0001
,
1001
0000
0110
0000
,
1000
1000
0010
0100
,
0001
0001
0010
0000
,
0001
0001
0100
0010
,
1000
1000
0100
0000
,
1000
0100
0010
0001
,
0100
0010
1000
0000
,
1001
0000
0110
0000
,
0002
0000
1003
0000
,
1000
0100
0010
0001
,
0100
0010
1000
0100
,
0010
0002
0000
1003
,
0001
0010
0100
1000
,
0010
0100
0001
0010
,
0100
1000
0000
0010
,
0100
0000
0001
0000
,
0010
0100
0010
0000
,
0001
0000
1000
0000
,
0010
0100
0010
0000
,
2000
0000
3002
0000
,
0103
0100
0010
0000
,
1000
0000
0010
0100
,
0002
0000
1003
0000
,
0001
0010
0001
0010
,
0100
1000
0100
1000
,
0010
0000
1000
1001
,
0001
0010
0100
1000
,
0100
0010
0001
0010
,
0100
2000
0000
3010
,
0200
0000
0000
0301
0000
0000
1000
0000
,
0000
0010
0000
0000
0200
0000
0000
0310
,
0000
0000
0001
0000
0000
0010
0000
0000
,
1000
0000
0000
0100
0000
0000
0001
0000
,
0000
1000
0000
0000
0100
0000
0000
0010
,
0000
0000
0000
0000
0002
0000
0000
0003
0000
0000
0000
0000
0000
0000
0000
0000
,
0000
0000
0000
0000
,
0000
0000
0000
0000
,
0000
0000
0000
2000
,
0000
3002
0000
0203
,
0000
0310
0000
1000
,
0000
0001
0010
0100
,
0000
1000
0000
0010
,
0000
1000
0100
0010
,
0000
0002
0000
2003
,
0000
3010
0010
0100
,
0000
0001
0100
1000
,
0010
2000
0000
3001
,
0000
0010
0001
0100
,
1000
0001
1000
0100
,
0001
0010
0000
0001
,
1000
0002
0023
0230
,
2300
3010
0100
0001
,
0000
0010
0100
1000
,
0000
0100
0000
0010
,
1001
0010
0100
1000
,
0010
0100
0001
0010
,
0100
1000
0010
0100
,
0001
2002
0000
0000
,
0000
0000
3003
0100
,
0010
0100
1001
0000
,
0000
0000
0000
0000
;
#NOTES:
     dance-single:
     :
     Medium:
     9:
     :
0000
0000
0000
0000
,
0000
0000
0000
0000
,
0000
0000
0000
0000
,
0000
0000
0000
0000
,
0000
0000
0000
0000
,
1000
0010
0100
0000
0002
0000
0013
0000
,
0100
1000
0010
0000
0200
0000
0301
0000
,
1000
0001
0100
0000
0010
0000
0100
0000
,
0020
0000
0130
0000
,
1000
0000
0000
0100
0000
0000
0010
0000
0001
0000
0000
0100
0000
0000
0010
0000
,
1000
0000
0000
0010
0000
0000
0000
0000
0100
0000
0000
0000
0100
0000
0000
0000
,
0001
0000
0000
0010
0000
0000
0100
0000
1000
0000
0000
0010
0000
0000
0100
0000
,
0001
0000
1000
1000
,
0010
0000
0000
1000
0000
0000
0010
0000
0100
0000
0000
0001
0000
0000
0010
0000
,
0100
0000
0000
1000
0000
0000
0000
0000
0000
0000
0001
0000
1000
0000
0000
0000
,
0010
0000
0000
0100
0000
0000
0001
0000
0010
0000
0000
0000
0100
0000
0000
0000
,
0010
0000
0100
0000
0010
0100
0010
0000
0000
0000
0000
0000
,
1000
0000
1000
0100
0010
0000
0001
0000
,
0001
0100
0010
0000
1000
0000
1000
0100
,
0010
2001
0000
3000
,
0001
0000
1000
0010
0100
0000
0001
0000
,
0010
0100
1000
0000
0010
0000
0100
0001
,
0010
0000
0100
0000
0000
0001
1000
0100
,
0010
0000
0000
0000
0000
0000
0001
0000
1000
0000
0000
0001
0000
0000
0010
0000
,
0100
0000
0000
1000
0000
0000
0001
0000
0100
0000
0000
0000
0000
0000
0001
0000
,
1000
0000
0000
0100
0000
0000
0010
0000
0001
0000
0000
1000
0000
0000
0010
0000
,
0100
0000
0000
0100
0001
0000
0100
0000
,
0010
0000
0000
1000
0000
0000
0100
0000
0010
0000
0000
0100
0000
0000
1000
0000
,
0010
0000
0000
0010
0000
0000
0100
0000
0001
0000
0000
0000
0000
0000
0010
0000
,
0100
0000
0000
0000
0000
0000
0100
0000
1000
0000
0000
0100
0000
0000
0010
0000
,
0002
0000
0000
0000
1003
0000
1000
0100
,
0010
0000
0000
0000
0000
0000
0001
0000
0100
0000
0000
0010
0000
0000
1000
0000
,
0100
0000
0000
0000
0000
0000
0010
0000
0001
0000
0000
1000
0000
0000
0001
0000
,
1000
0000
0000
0010
0100
0000
0001
0000
,
1000
0000
0010
0100
0001
0010
0100
0000
,
1000
0010
0100
0001
0010
0000
0100
1000
,
0001
0010
0200
0000
0000
0000
2300
0000
,
3002
0000
0000
0000
0000
0000
0203
0000
0000
0000
0310
0000
1000
0000
0000
0100
,
0000
0000
0010
0000
0000
0001
0000
0000
0200
0000
0000
0000
0010
0000
0310
0000
,
0000
0000
0001
0010
0100
1000
0010
0000
,
0100
0001
0000
0010
0100
0000
1000
0001
,
0000
1000
0010
0000
1000
0100
0010
0001
,
0000
0000
0000
0000
1000
0000
0000
1000
0000
0000
0000
0000
0010
0000
0000
0000
,
0100
0000
0010
0000
0000
0000
0000
0000
0100
0000
0000
0100
0000
0000
0000
0000
,
0000
0000
0000
0000
,
0000
1000
0210
1000
,
0000
0001
0000
0310
,
0000
0000
0000
0000
1000
0000
0000
0000
0000
0000
0001
0000
0010
0000
0000
0100
,
0000
0000
1000
0000
0010
0000
0000
0100
0000
0000
0010
0000
1000
0000
0000
0000
,
0000
0000
1000
0000
0100
0000
0000
0010
0000
0000
0001
0000
0100
0000
0000
0010
,
0000
1000
0002
0000
0003
0000
0100
0000
,
0010
0000
0000
0000
1000
0000
0000
0100
0000
0000
0010
0000
0001
0000
0000
0100
,
0000
0000
0010
0000
1000
0000
0000
0010
0000
0000
0100
0000
0001
0000
0000
0000
,
0000
0000
0010
0000
0100
0000
0000
0000
0000
0000
0000
0000
1000
0000
0000
0001
,
0000
1000
0020
0000
0000
0000
0130
0000
,
0100
0000
0001
0000
0010
0000
0000
0000
0000
0000
0100
0000
1000
0000
0000
0010
,
0000
0000
0100
0000
0001
0000
0000
0000
0000
0000
0010
0000
0001
0000
0000
0100
,
0000
0010
1000
0000
0000
0100
0010
0000
,
0100
0002
0023
0230
,
1300
0000
0001
0000
1000
0000
0000
0000
0000
0000
1000
0000
0100
0000
0000
0010
,
0000
0000
0001
0000
2000
0000
0000
0000
0000
0000
3010
0000
0100
0000
0000
0010
,
0000
1000
0002
0000
0003
1000
0001
0000
,
1001
0000
0010
0000
0100
1000
0001
0100
,
0010
0000
1000
0001
0010
0100
1000
0000
,
0010
1000
0001
0100
0010
0000
0100
0010
,
2000
0000
3002
0000
0000
0100
0000
0000
,
1000
0000
0000
0100
0000
0000
1003
0000
,
0001
0010
0100
1000
1001
0000
0000
0000
,
0000
0000
0000
0000
;
#NOTES:
     dance-single:
     :
     Hard:
     13:
     :
0000
0000
0000
0000
,
0000
0000
0000
0000
,
0000
0000
0000
0000
,
0000
0000
0000
0000
,
0000
0000
0000
0000
,
0010
0000
1000
0100
0000
0010
0000
0002
0100
0000
0000
0000
0103
0000
0000
0000
,
0100
0000
0001
0010
0000
0100
0000
2000
0010
0000
0000
0000
3010
0000
0000
0000
,
0010
0000
0100
0010
0000
1000
0000
0001
0000
0000
0000
0000
0010
0000
0000
0000
,
0200
0000
0000
0000
0000
0000
0000
0000
0301
0000
0000
0000
0000
0000
0100
1000
,
0100
0000
0000
0100
0000
0000
0010
0000
0001
0000
0000
0100
0000
0000
0010
0000
,
1000
0000
0000
0100
0000
0000
1000
0000
0010
0000
0000
0100
0000
0000
0001
1000
,
0001
0000
0000
0010
0000
0000
0100
0000
1000
0000
0010
0100
0000
0000
0001
0000
,
1000
0000
0000
1000
0000
0000
0001
0000
1000
0000
0000
1000
0000
0000
0100
1000
,
0100
0000
0000
0100
0000
0000
0010
0000
0001
0000
0000
0100
0000
0000
0010
0000
,
1000
0000
0000
1001
0000
0000
0000
0000
0000
0000
0001
0000
0100
0000
1000
0000
,
0100
0000
0000
0010
0000
0000
1000
0000
0001
0000
0010
0000
0100
0000
1000
0000
,
0010
0000
0000
0000
0000
0000
0000
0000
0100
0000
0000
0000
0000
0000
0000
0000
0010
0000
0000
0000
0100
0000
0000
0000
0010
0000
0000
0000
0000
0000
0000
0000
0000
1000
0000
0000
0001
0000
0000
0000
0000
0000
0000
0000
0000
0000
0000
0000
,
1000
0000
0100
0000
1000
0000
0010
0000
0100
0000
0010
0000
1000
0000
0001
1000
,
0001
0000
0010
0000
0100
0000
1000
0000
0010
0000
0100
0010
0100
0000
0001
0000
,
1000
0001
1000
0002
0000
2003
3020
0230
,
0301
0000
1000
0010
1000
0000
0100
0000
0010
0000
0001
0000
1000
0100
1000
0100
,
1000
0000
0001
0000
0010
0000
0100
0000
1000
0000
0001
0100
0001
0000
1000
0000
,
0010
0100
0010
0000
0000
0001
1000
0100
,
0020
0000
0000
0000
0000
0000
0031
0000
1000
0000
0000
0001
0000
0000
0010
0000
,
0100
0000
0000
1000
0000
0000
0001
0000
2000
0000
0000
0000
0000
0000
3010
0000
,
1000
0000
0000
0100
0000
0000
0010
0000
0001
0000
0000
1000
0000
0000
0010
0000
,
0200
0000
0300
0010
0001
0010
1000
0100
,
0020
0000
0000
0000
0000
0000
0000
0000
0031
0000
0100
1000
0000
0100
0000
0010
,
1000
0000
0100
0010
0000
0000
0001
0000
2000
0000
0000
0000
3000
0000
0010
0100
,
0020
0000
0000
0000
0030
0000
1000
0000
1000
0000
0000
0001
0000
0000
1000
0000
,
0002
0000
0100
0103
,
0100
0000
0010
0000
1000
0000
0100
0000
0010
0000
0001
1000
0000
0010
0000
0200
,
0000
0000
0000
0000
0300
0000
0100
0000
0010
0000
1000
0100
0000
0001
0000
0200
,
0000
0000
0000
0000
0300
0000
1000
0100
1000
0000
0000
0000
1001
0000
0000
0000
,
0010
0000
1000
0100
1000
0000
0001
0000
0010
0000
0100
0000
1000
0000
0001
0100
,
0001
0000
1000
0000
0100
0000
0010
0000
0001
0000
1000
0010
1000
0000
0001
0000
,
0100
0010
2000
0000
0000
0000
3001
0100
,
2000
0000
0000
0000
0000
0000
3200
0000
0000
0000
0301
0000
0010
0000
0000
0100
,
0000
0000
1000
0000
0000
0010
0000
0000
0100
0000
0000
0000
0110
0000
1001
0000
,
0000
0000
0001
0100
0010
1000
0100
0010
,
0001
0100
0000
0100
0010
1000
0100
0001
,
0000
0100
1000
0000
0010
0000
0100
0000
0001
0000
0010
0000
0100
0000
1000
0000
,
0000
0000
0000
0000
1001
0000
0000
1001
0000
0000
0000
0000
0010
0000
0001
0000
,
1000
0000
0010
0000
1000
0000
0000
1000
0001
0000
0000
0001
0000
0000
0000
0000
,
0000
0000
0000
0000
0000
0001
1000
0001
0000
1000
0001
1000
0001
0100
0000
0010
,
0000
0100
0000
0010
0100
0000
0000
0000
0210
0000
0000
0000
2000
0000
0000
0000
,
3000
0002
0003
0320
,
0000
0000
0000
0000
2030
0000
0000
0000
0000
0000
3001
0000
0010
0000
0000
0100
,
0000
0000
1000
0000
0010
0000
0000
0100
0000
0000
0001
0000
0020
0000
0000
0000
,
0000
0000
0130
0000
1000
0000
0000
0010
0000
0000
0100
0000
0001
0000
0000
0010
,
0000
1000
0020
0000
0000
0031
0100
1000
,
0100
0000
0010
0000
2000
0000
0000
0000
0000
0000
0000
0000
3001
0000
0010
0100
,
0000
1000
0000
0010
0100
0000
0000
0010
0000
0000
1000
0000
0002
0000
0000
0000
,
0003
0000
1000
0100
0020
0000
0000
0000
0000
0000
0031
0000
1000
0000
0000
0001
,
0000
1000
1002
0000
0000
0000
0100
0000
,
0103
0000
1000
0001
1000
0000
0010
0100
0010
0000
1000
0000
0001
0000
0100
1000
,
0000
0100
0000
0020
0000
0000
0000
0000
0000
0000
1030
0000
0010
0000
0100
0001
,
0000
0010
0000
1000
0000
0000
0000
0000
0000
0000
1000
0010
0001
0000
0000
0000
,
0100
0102
0023
0230
,
2300
0000
3010
0100
0020
0000
0000
0000
0000
0000
1030
0000
0100
0000
0001
0100
,
0000
1000
0000
0020
0000
0000
0000
0000
0000
0000
0130
0000
0010
0000
1000
0001
,
0000
1000
0000
0002
0000
0000
0000
0000
0003
0000
1000
0100
1000
0000
0000
0000
,
1001
0000
0000
0000
0010
0000
1000
0100
1000
0000
0001
0000
0010
0000
0100
0000
,
1000
0000
0010
0100
0010
0000
1000
0000
0010
0000
0100
0000
0001
0000
0010
0001
,
0010
0000
0100
0000
1000
0000
0010
0000
0100
0000
0001
1000
0001
0000
1000
0000
,
0020
0000
0230
0000
0000
0001
0001
0001
,
0001
0000
0000
0000
0000
0000
1000
0000
1000
0000
1000
0000
1300
0000
1000
0100
,
0001
0010
1000
0001
1001
0000
0000
0000
,
0000
0000
0000
0000
;
#NOTES:
     dance-double:
     :
     Easy:
     5:
     :
00000000
00000000
00000000
00000000
,
00000000
00000000
00000000
00000000
,
00000000
00000000
00000000
00000000
,
00000000
00000000
00000000
00000000
,
00000000
00000000
00000000
00000000
,
00000010
00000001
00001000
00000000
,
00000001
00000100
00001000
00000000
,
00010000
01000000
10000000
00000000
,
10010000
00000000
01100000
00000000
,
10000000
01000000
00100000
00010000
,
01000000
00100000
01000000
00000000
,
00100000
00010000
00001000
00000010
,
00000100
00000010
00000001
00000000
,
00000010
00000001
00000100
00000010
,
00001000
00000100
00010000
00000000
,
00001000
00010000
00100000
10000000
,
00010000
10000000
10010000
00000000
,
00100000
00010000
00001000
00000010
,
00001000
00010000
00100000
00010000
,
00001000
00020000
00000000
00031000
,
00000100
00001000
00010000
01000000
,
00010000
00001000
00000100
00001000
,
00010000
00011000
00000000
00010000
,
00100000
00000000
10000000
00000000
,
01000000
00100000
00010000
00000000
,
00100000
00000000
00001000
00000000
,
00000010
00000100
00001000
00000000
,
00000002
00000000
00000203
00000000
,
00000310
00000100
00001000
00000000
,
00010000
00000000
00001000
00010000
,
02000000
00000000
03100000
00000000
,
00010000
00000000
10000000
00000000
,
01000000
00100000
00010000
00000000
,
00100000
00000000
00001000
00011000
,
00001000
00000100
00000010
00000100
,
00001000
00010000
00001000
00000100
,
00001000
00020000
00000000
00130000
,
20000000
00000000
00000000
30010000
00000000
00000000
00100000
00000000
,
00000000
00001000
00000000
00000000
00020000
00000000
00000000
00031000
,
00000000
00000000
00000010
00000000
00000000
00000001
00000000
00000000
,
00000100
00000000
00000000
00001000
00000000
00000000
00010000
00000000
,
00000000
00100000
00000000
00000000
10000000
00000000
00000000
01000000
,
00000000
00000000
00000000
00000000
20000000
00000000
00000000
30000000
00000000
00000000
00000000
00000000
00000000
00000000
00000000
00000000
,
00000000
00000000
00000000
00000000
,
00000000
00000000
00000000
00000000
,
00000000
00000000
00000000
20000000
,
00000000
30020000
00000000
00230000
,
00000000
01300000
00000000
00010000
,
00000000
00001000
00000010
00000100
,
00000000
00001000
00000000
00000001
,
00000000
00000100
00000010
00001000
,
00000000
00000200
00000000
00020300
,
00000000
00031000
01000000
00010000
,
00000000
10000000
00000000
00100000
,
00010000
00002000
00000000
00013000
,
00000000
00001000
00000000
00000100
,
00000000
00000010
00001000
00000001
,
00000000
00000010
00000000
00000100
,
00000000
00000010
00001000
00010000
,
01000000
10000000
00000000
00100000
,
00000000
01000000
00010000
00100000
,
00000000
00001000
00000000
00010000
,
00011000
00000010
00001000
00010000
,
00100000
00010000
00001000
00000100
,
00001000
00010000
01000000
00010000
,
00001000
00022000
00000000
00000000
,
00000000
00000000
00033000
00010000
,
00100000
10000000
10010000
00000000
,
00000000
00000000
00000000
00000000
;
#NOTES:
     dance-double:
     :
     Medium:
     10:
     :
00000000
00000000
00000000
00000000
,
00000000
00000000
00000000
00000000
,
00000000
00000000
00000000
00000000
,
00000000
00000000
00000000
00000000
,
00000000
00000000
00000000
00000000
,
00001000
00010000
00100000
00000000
02000000
00000000
03010000
00000000
,
10000000
01000000
00100000
00000000
00020000
00000000
01030000
00000000
,
00001000
00010000
00100000
00000000
00010000
00000000
00001000
00000000
,
00020000
00000000
00031000
00000000
,
00010000
00000000
00000000
00000100
00000000
00000000
00001000
00000000
00000010
00000000
00000000
00000100
00000000
00000000
00001000
00000000
,
00000100
00000000
00000000
00000010
00000000
00000000
00000000
00000000
00000100
00000000
00000000
00000000
00000000
00000000
00000000
00000000
,
00000001
00000000
00000000
00000010
00000000
00000000
00001000
00000000
00010000
00000000
00000000
00001000
00000000
00000000
00010000
00000000
,
01000000
00000000
10000000
00000000
,
00100000
00000000
00000000
10000000
00000000
00000000
01000000
00000000
00010000
00000000
00000000
01000000
00000000
00000000
00100000
00000000
,
00001000
00000000
00000000
00010000
00000000
00000000
00000000
00000000
00000000
00000000
00001000
00000000
00010000
00000000
00000000
00000000
,
00001000
00000000
00000000
00000100
00000000
00000000
00000010
00000000
00000100
00000000
00000000
00000000
00000001
00000000
00000000
00000000
,
00000010
00000000
00000100
00000000
00000010
00000100
00000010
00000000
00000000
00000000
00000000
00000000
,
00001000
00000000
00000001
00000010
00000100
00000000
00001000
00000000
,
00000010
00000100
00001000
00000000
00010000
00000000
00001000
00010000
,
00100000
00000000
10000000
00020000
00000000
01030000
00100000
10000000
,
01000000
00000000
00100000
00010000
01000000
00000000
00100000
00000000
,
00010000
00001000
00010000
00000000
00000100
00000000
00001000
00000001
,
00000010
00000000
00000100
00000000
00000000
00001000
00000001
00000100
,
00000020
00000000
00000000
00000000
00000000
00000000
00000130
00000000
00001000
00000000
00000000
00010000
00000000
00000000
00100000
00000000
,
01000000
00000000
00000000
00100000
00000000
00000000
10000000
00000000
00010000
00000000
00000000
00000000
00000000
00000000
00100000
00000000
,
01000000
00000000
00000000
00010000
00000000
00000000
00001000
00000000
00000100
00000000
00000000
00001000
00000000
00000000
00010000
00000000
,
00100000
00000000
00000000
01000000
00010000
00000000
10000000
00000000
,
00100000
00000000
00000000
10000000
00000000
00000000
01000000
00000000
00010000
00000000
00000000
00001000
00000000
00000000
00010000
00000000
,
00001000
00000000
00000000
00000100
00000000
00000000
00000001
00000000
00001000
00000000
00000000
00000000
00000000
00000000
00000010
00000000
,
00010000
00000000
00000000
00000000
00000000
00000000
00001000
00000000
00010000
00000000
00000000
00100000
00000000
00000000
00010000
00000000
,
00002000
00000000
00010000
00013000
,
00000100
00000000
00000000
00000000
00000000
00000000
00000010
00000000
00000001
00000000
00000000
00001000
00000000
00000000
00000010
00000000
,
00000100
00000000
00000000
00000000
00000000
00000000
00000001
00000000
00001000
00000000
00000000
00000100
00000000
00000000
00000010
00000000
,
00001000
00000000
00000000
00010000
00001000
00000000
00011000
00000000
,
00100000
00000000
01000000
10000000
00100000
00000000
01000000
00000000
,
00100000
00010000
00001000
00000000
00010000
00000000
00001000
00000100
,
00000010
00002000
00000000
00003002
,
00000023
00000000
00000000
00000000
00000000
00000000
00000230
00000000
00000000
00000000
00001300
00000000
00000010
00000000
00000000
00000100
,
00000000
00000000
00001000
00000000
00000000
00010000
00000000
00000000
01000000
00000000
00000000
00000000
00100000
00000000
10010000
00000000
,
00000000
00000000
00010000
01000000
00100000
10000000
01000000
00000000
,
00100000
00010000
00000000
01000000
00100000
00000000
00010000
00001000
,
00000000
00000100
00000010
00000000
00000010
00001000
00000001
00000010
,
00000000
00000000
00000000
00000000
00000001
00000000
00000000
00000001
00000000
00000000
00000000
00000000
00000100
00000000
00000000
00000000
,
00000010
00000000
00000100
00000000
00000000
00000000
00000000
00000000
00000010
00000000
00000000
00000010
00000000
00000000
00000000
00000000
,
00000000
00000000
00000000
00000000
,
00000000
00001000
00021000
00100000
,
00000000
00000010
00000000
00031000
,
00000000
00000000
00000000
00000000
00010000
00000000
00000000
00000000
00000000
00000000
00001000
00000000
00010000
00000000
00000000
01000000
,
00000000
00000000
10000000
00000000
00010000
00000000
00000000
01000000
00000000
00000000
00100000
00000000
10000000
00000000
00000000
00000000
,
00000000
00000000
10000000
00000000
01000000
00000000
00000000
10000000
00000000
00000000
00100000
00000000
01000000
00000000
00000000
00010000
,
00000000
00100000
00001000
00000000
00000000
00010000
00001000
00000000
,
00000100
00000000
00000000
00000000
00000010
00000000
00000000
00000100
00000000
00000000
00001000
00000000
00000100
00000000
00000000
00000001
,
00000000
00000000
00000010
00000000
00000100
00000000
00000000
00010000
00000000
00000000
00001000
00000000
00100000
00000000
00000000
00000000
,
00000000
00000000
01000000
00000000
00100000
00000000
00000000
00000000
00000000
00000000
00001000
00000000
00010000
00000000
00000000
00001000
,
00000000
01000000
00200000
00000000
00000000
00000000
10300000
00000000
,
10000000
00000000
01000000
00000000
00100000
00000000
00000000
00000000
00000000
00000000
00010000
00000000
01000000
00000000
00000000
00100000
,
00000000
00000000
00010000
00000000
00001000
00000000
00000000
00000000
00000000
00000000
00000010
00000000
00000001
00000000
00000000
00001000
,
00000000
00000001
00000100
00000000
00000000
00000010
00001000
00000000
,
00001001
00000002
00000203
00002300
,
00013000
00000000
00001000
00000000
00010000
00000000
00000000
00000000
00000000
00000000
00100000
00000000
01000000
00000000
00000000
00010000
,
00000000
00000000
10000000
00000000
01000000
00000000
00000000
00000000
00000000
00000000
00100000
00000000
00001000
00000000
00000000
00010000
,
00000000
00000100
00001000
00000000
00000000
00010000
00001000
00000000
,
00011000
00000000
00001000
00000000
00001000
00010000
00100000
01000000
,
00010000
00000000
01000000
00100000
00010000
00001000
00010000
00000000
,
00000100
00000010
00001000
00010000
00001000
00000000
00100000
00001000
,
00020000
00000000
00032000
00000000
00000000
00010000
00000000
00000000
,
00000100
00000000
00000000
00010000
00000000
00000000
00003100
00000000
,
00000100
00001000
00010000
01000000
01100000
00000000
00000000
00000000
,
00000000
00000000
00000000
00000000
;
#NOTES:
     dance-double:
     :
     Hard:
     13:
     :
00000000
00000000
00000000
00000000
,
00000000
00000000
00000000
00000000
,
00000000
00000000
00000000
00000000
,
00000000
00000000
00000000
00000000
,
00000000
00000000
00000000
00000000
,
00001000
00000000
00010000
00100000
00000000
00010000
00000000
00002000
00010000
00000000
00000000
00000000
00013000
00000000
00000000
00000000
,
00010000
00000000
00001000
00000010
00000000
00001000
00000000
00020000
00001000
00000000
00000000
00000000
00031000
00000000
00000000
00000000
,
00001000
00000000
00100000
00010000
00000000
01000000
00000000
00100000
00000000
00000000
00000000
00000000
10000000
00000000
00000000
00000000
,
02000000
00000000
00000000
00000000
00000000
00000000
00000000
00000000
00200000
00000000
00000000
03300000
00000000
00000000
01000000
10000000
,
01000000
00000000
00000000
01000000
00000000
00000000
00100000
00000000
00010000
00000000
00000000
01000000
00000000
00000000
00010000
00000000
,
00100000
00000000
00000000
00001000
00000000
00000000
00010000
00000000
00001000
00000000
00000000
00000010
00000000
00000000
00000001
00001000
,
00000001
00000000
00000000
00000010
00000000
00000000
00000100
00000000
00001000
00000000
00000010
00000100
00000000
00000000
00001000
00000000
,
00010000
00000000
00000000
00100000
00000000
00000000
10000000
00000000
00010000
00000000
00000000
01000000
00000000
00000000
00100000
10000000
,
00100000
00000000
00000000
10000000
00000000
00000000
01000000
00000000
00010000
00000000
00000000
01000000
00000000
00000000
00100000
00000000
,
00001000
00000000
00000000
00011000
00000000
00000000
00000000
00000000
00000000
00000000
00100000
00000000
00001000
00000000
00010000
00000000
,
00100000
00000000
00000000
00010000
00000000
00000000
00001000
00000000
00000100
00000000
00000010
00000000
00000100
00000000
00001000
00000000
,
00010000
00000000
00000000
00000000
00000000
00000000
00000000
00000000
00001000
00000000
00000000
00000000
00000000
00000000
00000000
00000000
00010000
00000000
00000000
00000000
00001000
00000000
00000000
00000000
00010000
00000000
00000000
00000000
00000000
00000000
00000000
00000000
00000000
00010000
00000000
00000000
00001000
00000000
00000000
00000000
00000000
00000000
00000000
00000000
00000000
00000000
00000000
00000000
,
00001000
00000000
00010000
00000000
00100000
00000000
00010000
00000000
00001000
00000000
00010000
00000000
00000010
00000000
00000100
00001000
,
00000100
00000000
00000010
00000000
00000001
00000000
00000010
00000000
00000100
00000000
00001000
00010000
00001000
00000000
00010000
00000000
,
00100000
01000000
10000000
02000000
00000000
03020000
00230000
02300000
,
13000000
00000000
00100000
01000000
00100000
00000000
10000000
00000000
00100000
00000000
00010000
00000000
00001000
00010000
00001000
00010000
,
00001000
00000000
00000100
00000000
00000010
00000000
00000100
00000000
00001000
00000000
00010000
00100000
00010000
00000000
00001000
00000000
,
00100000
01000000
00100000
00000000
00000000
00010000
10000000
01000000
,
00200000
00000000
00000000
00000000
00000000
00000000
00310000
00000000
10000000
00000000
00000000
00100000
00000000
00000000
00010000
00000000
,
00001000
00000000
00000000
00000100
00000000
00000000
00000001
00000000
00002000
00000000
00000000
00000000
00000000
00000000
00003010
00000000
,
00000100
00000000
00000000
00000001
00000000
00000000
00000010
00000000
00001000
00000000
00000000
00010000
00000000
00000000
00100000
00000000
,
02000000
00000000
03000000
00100000
10000000
00010000
00100000
01000000
,
10000000
00000000
00100000
10000000
00000000
01000000
00000000
00100000
00010000
00000000
00100000
00001000
00000000
00010000
00000000
00000100
,
00001000
00000000
00000010
00000100
00000000
00000000
00001000
00000000
00020000
00000000
00000000
00000000
00030000
00000000
00100000
01000000
,
00200000
00000000
00000000
00000000
00300000
00000000
10000000
00000000
10000000
00000000
00000000
00010000
00000000
00000000
10000000
00000000
,
10020000
00000000
01000000
01030000
,
01000000
00000000
00100000
00000000
00010000
00000000
00001000
00000000
00010000
00000000
00000010
00000100
00000000
00001000
00000000
00000200
,
00000000
00000000
00000000
00000000
00000300
00000000
00000001
00000000
00000010
00000000
00000100
00001000
00000000
00000010
00000000
00000200
,
00000000
00000000
00000000
00000000
00000300
00000000
00001000
00010000
00001000
00000000
00000000
00000000
00011000
00000000
00000000
00000000
,
00100000
00000000
10000000
01000000
10000000
00000000
00010000
00000000
00100000
00000000
01000000
00000000
10000000
00000000
00100000
01000000
,
00100000
00000000
00010000
00000000
00100000
00000000
00010000
00000000
00001000
00000000
00010000
00001000
00010000
00000000
00001000
00000000
,
00000100
00000010
00002000
00000000
00000000
00000000
00003001
00000010
,
00002000
00000000
00000000
00000000
00000000
00000000
00023000
00000000
00000000
00000000
00030010
00000000
00000100
00000000
00000000
00001000
,
00000000
00000000
00010000
00000000
00000000
00100000
00000000
00000000
01000000
00000000
00000000
00000000
01100000
00000000
10010000
00000000
,
00000000
00000000
00010000
01000000
00100000
10000000
01000000
00100000
,
00010000
01000000
00000000
00100000
00010000
00001000
00000100
00000010
,
00000000
00001000
00000001
00000000
00000010
00000000
00001000
00000000
00010000
00000000
01000000
00000000
10000000
00000000
00010000
00000000
,
00000000
00000000
00000000
00000000
10010000
00000000
00000000
10010000
00000000
00000000
00000000
00000000
00100000
00000000
10000000
00000000
,
01000000
00000000
00010000
00000000
00001000
00000000
00000000
00001000
00010000
00000000
00000000
00010000
00000000
00000000
00000000
00000000
,
00000000
00000000
00000000
00000000
00000000
00000010
00001000
00000010
00000000
00010000
00001000
00010000
00000000
00001000
00000000
01000000
,
00000000
00100000
00000000
00010000
00001000
00000000
00000000
00000000
00021000
00000000
00000000
00000000
02000000
00000000
00000000
00000000
,
03000000
00000200
00000300
00032000
,
00000000
00000000
00000000
00000000
00023000
00000000
00000000
00000000
00000000
00000000
00130000
00000000
01000000
00000000
00000000
10000000
,
00000000
00000000
01000000
00000000
00100000
00000000
00000000
00010000
00000000
00000000
00001000
00000000
00200000
00000000
00000000
00000000
,
00000000
00000000
01300000
00000000
10000000
00000000
00000000
00100000
00000000
00000000
01000000
00000000
00010000
00000000
00000000
00100000
,
00000000
00001000
00020000
00000000
00000000
00031000
00000010
00000001
,
00000010
00000000
00000100
00000000
00001000
00000000
00000010
00000100
00000000
00001000
00000000
00000100
00000010
00000000
00010000
00000100
,
00000000
00100000
00000000
00001000
01000000
00000000
00000000
00100000
00000000
00000000
10000000
00000000
00020000
00000000
00000000
00000000
,
00030000
00000000
10000000
01000000
00200000
00000000
00000000
00000000
00000000
00000000
00310000
00000000
01000000
00000000
00000000
00001000
,
00000000
00010000
00012000
00000000
00000000
00000000
01000000
00000000
,
01003000
00000000
00010000
00100000
00010000
00000000
00100000
00001000
00100000
00000000
00001000
00000000
00010000
00000000
00100000
00010000
,
00000000
00001000
00000000
00000200
00000000
00000000
00000000
00000000
00000000
00000000
00000310
00000000
00001000
00000000
00000001
00000010
,
00000000
00001000
00000000
00010000
00000000
00000000
00000000
00000000
00000000
00000000
00010000
00100000
10000000
00000000
00000000
00000000
,
01000000
21000000
32000000
03200000
,
00320000
00000000
00130000
01000000
00200000
00000000
00000000
00000000
00000000
00000000
00301000
00000000
00010000
00000000
00100000
00010000
,
00000000
00001000
00000000
00000200
00000000
00000000
00000000
00000000
00000000
00000000
00000301
00000000
00001000
00000000
00000010
00000100
,
00000000
00000001
00000000
00000020
00000000
00000000
00000000
00000000
00000030
00000000
00000100
00001000
00000100
00000000
00000000
00000000
,
00010100
00000000
00000000
00000000
00001000
00000000
00010000
00100000
01000000
00000000
00100000
00000000
10000000
00000000
01000000
00000000
,
00100000
00000000
00010000
01000000
00100000
00000000
00010000
00000000
00001000
00000000
00000100
00000000
00000010
00000000
00001000
00000001
,
00000010
00000000
00001000
00000000
00010000
00000000
00100000
00000000
01000000
00000000
00010000
10000000
00010000
00000000
00100000
00000000
,
00002000
00000000
00023000
00000000
00000000
00100000
00100000
00100000
,
00100000
00000000
00000000
00000000
00000000
00000000
00001000
00000000
00001000
00000000
00001000
00000000
00031000
00000000
00010000
00001000
,
00000100
00000001
00000010
00000100
00000110
00000000
00000000
00000000
,
00000000
00000000
00000000
00000000
;
