
//----- song ID: mkdr -----//
#TITLE:妄想感傷代償連盟;
#ARTIST:DECO*27;
#TITLETRANSLIT:Mousou kanshou daishou renmei;
#BANNER:Mousou kanshou daishou renmei.png;
#BACKGROUND:Mousou kanshou daishou renmei-bg.png;
#CDTITLE:./CDTitles/jubeat festo.png;
#MUSIC:Mousou kanshou daishou renmei.ogg;
#SAMPLESTART:60.221;
#SAMPLELENGTH:15;
#BPMS:0=110;
#NOTES:
     dance-single:
     :
     Beginner:
     2:
     :
0000
0000
0000
0000
,
0000
0000
0000
0000
,
0000
0000
0000
0000
,
0000
0000
0000
0000
,
0000
0000
0000
0000
,
1000
0000
0010
0000
,
0001
0000
0000
0000
,
0001
0000
1000
0000
,
0001
0000
0000
0000
,
0001
0000
0100
0000
,
1000
0000
0000
0000
,
1000
0000
0001
0000
,
1000
0000
0000
0000
,
1001
0000
0000
0000
,
0000
0000
0000
0000
,
1001
0000
0000
0000
,
0000
0000
0000
0000
,
1000
0000
0010
0000
,
1000
0000
0001
0000
,
0100
0000
0100
0000
,
0100
0000
0000
0000
,
0001
0000
0010
0000
,
0001
0000
1000
0000
,
0100
0000
0100
0000
,
0100
0000
0000
0000
,
2000
0000
3000
0000
,
0020
0000
0030
0000
,
0002
0000
0003
0000
,
0001
0000
1000
0000
,
0001
0000
1000
0000
,
0010
0010
0010
0000
,
0010
0010
0010
0000
,
1000
0000
0001
0000
,
1000
0000
0001
0000
,
0100
0100
0100
0000
,
0100
0100
0100
0000
,
1001
0000
1001
0000
,
0020
0000
0030
0000
,
1001
0000
1001
0000
,
0010
0010
0010
0000
,
1001
0000
1001
0000
,
0200
0000
0300
0000
,
1001
0000
1001
0000
,
0100
0100
0100
0000
,
1001
0000
0000
0000
,
0000
0000
0000
0000
;
#NOTES:
     dance-single:
     :
     Easy:
     4:
     :
0000
0000
0000
0000
,
0000
0000
0000
0000
,
0000
0000
0000
0000
,
0000
0000
0000
0000
,
0000
0000
0000
0000
,
0001
0010
0001
0000
,
1000
0010
1000
0000
,
1001
0000
0110
0000
,
1000
1000
1000
0000
,
1000
0010
1000
0000
,
0001
0010
0001
0000
,
1001
0000
0110
0000
,
0001
0001
0001
0000
,
1001
0000
0000
0000
,
0000
0000
0000
0000
,
1001
0000
0000
0000
,
0000
0000
0000
0000
,
1000
0100
0001
0100
,
1000
0100
0010
0000
,
0001
0000
1000
0000
,
0010
0010
0010
0000
,
0001
0100
1000
0100
,
0001
0100
0010
0000
,
1000
0000
0001
0000
,
0010
0010
0010
0000
,
0110
0000
1001
0000
,
0100
0100
0100
0000
,
0010
0000
0100
0000
,
1001
1001
1001
0000
,
0110
0110
0110
0000
,
0001
1000
0001
1000
,
0100
0010
0100
0000
,
0110
0110
0110
0000
,
1001
1001
1001
0000
,
1000
0001
1000
0001
,
0100
0010
0100
0000
,
0010
1000
0100
0000
,
0010
0001
0100
0000
,
0010
1000
0100
0000
,
2002
0000
3003
0000
,
0100
0001
0010
0000
,
0100
1000
0010
0000
,
0100
0001
0010
0000
,
2002
0000
0000
0000
,
3003
0000
0000
0000
,
0000
0000
0000
0000
;
#NOTES:
     dance-single:
     :
     Medium:
     8:
     :
0000
0000
0000
0000
,
0000
0000
0000
0000
,
0000
0000
0000
0000
,
0000
0000
0000
0000
,
0000
0000
0000
0000
,
0010
0100
0010
0000
1000
0000
0101
0000
,
0010
0100
0020
0000
0001
0000
1030
0000
,
1000
0000
0101
0000
,
1000
0100
0001
0000
0100
1000
0010
0000
,
2000
3002
2003
3002
,
1003
1000
1000
0000
0020
0000
0130
0000
,
0001
0100
1000
0000
0100
0001
0010
0000
,
0100
1000
0010
0001
,
0100
0000
0000
0000
,
0000
0000
0000
0000
,
0010
0000
0000
0000
,
0000
0000
0000
0000
,
0001
0010
1000
0100
,
0010
0001
0100
0000
1000
0100
0001
0000
,
0120
0000
0030
0000
1000
1000
1002
0000
,
2003
3002
2003
3000
,
0001
1000
0001
0000
0100
0010
0100
0000
,
0010
0100
0010
0000
1000
0000
0101
0000
,
0010
0001
0100
1000
,
0010
0100
0010
0100
0220
0000
0330
0000
,
0002
0023
0230
2300
,
3200
0320
0032
2003
,
3020
0000
0130
0000
,
1010
0101
0011
1100
,
1001
0110
0001
1000
,
0001
0010
1000
0000
0001
0100
1000
0000
,
0001
1000
0001
2000
0002
0000
3003
0000
,
1010
0011
0101
1100
,
0010
0010
0010
0000
0100
0100
0100
0000
,
0010
1000
0100
0010
,
0001
0100
0020
0030
,
1000
0001
1000
0000
0001
1000
0001
0000
,
1001
0110
1001
0000
,
0010
0100
0010
0000
0100
0010
0100
0000
,
0110
1001
0110
0000
,
0001
1000
0001
0000
1000
0001
1000
0000
,
1001
0110
1001
0000
,
0100
0010
0100
0000
0010
0100
0010
0000
,
0110
1001
0110
0000
,
1001
0000
0000
0000
,
0000
0000
0000
0000
;
#NOTES:
     dance-single:
     :
     Hard:
     12:
     :
0000
0000
0000
0000
,
0000
0000
0000
0000
,
0000
0000
0000
0000
,
0000
0000
0000
0000
,
0000
0000
0000
0000
0000
0010
0010
0010
,
0020
0000
0130
0000
0001
1000
0001
0000
1000
0100
1000
0000
0101
0000
0000
0100
,
0001
0100
0001
0000
0100
0010
0100
0000
0020
0000
1000
0000
0031
0000
0000
0100
,
0010
0000
1000
0100
0000
0000
0000
0010
0001
0000
0100
0001
0000
0000
0000
1000
,
0100
0000
0010
0001
0010
0000
0100
1000
0100
0000
1000
0100
0001
0000
0000
0000
,
2001
0000
3002
0000
2003
0000
3002
0000
2003
0000
3002
0000
1003
0000
0001
0010
,
0001
0000
0010
1000
0000
1000
0000
1000
0010
0000
0001
0000
1001
0000
0000
0000
,
0101
0000
0010
1000
0010
0000
0000
0000
1100
0000
0010
0001
0010
0000
0000
0000
,
0001
0100
1000
0010
0001
0100
1000
0010
,
0001
0000
0000
0000
,
0000
0000
0000
0000
0000
0000
0000
1000
,
0100
0000
0000
0000
,
0000
0000
0000
0000
0000
0010
0010
0010
,
0200
0000
0310
0000
1000
0001
1000
0000
0001
0010
0001
0000
1010
0000
0000
0010
,
1000
0010
1000
0000
0010
0100
0010
0000
0200
0000
0001
0000
1300
0000
0000
0010
,
0100
0000
0001
0010
0000
0000
0000
0100
1000
0000
0010
1000
0000
0000
0000
0001
,
0010
0000
0100
1000
0100
0000
0010
0001
0010
0000
0001
0010
1000
0000
0000
0000
,
0010
0000
0000
0000
1001
0000
0000
0000
0100
0010
0100
0010
0100
0000
0000
0000
,
0020
0000
0130
0000
0001
1000
0001
0000
1000
0100
1000
0000
0101
0000
0000
0001
,
0010
0000
0010
1000
0000
0000
0000
1000
0100
0000
0100
0001
0000
0000
0000
1000
,
0001
1000
0001
1000
0001
1000
0001
0000
0200
0000
0000
0000
0000
0000
0000
0000
,
0320
0000
2030
0000
3002
0000
0103
0110
,
0000
0010
1000
0001
1000
0001
0001
0001
,
0200
0000
0000
0000
0000
0000
0310
0100
0010
0000
0000
0000
0000
0000
0000
0000
,
1010
0100
0011
0100
1010
0100
0011
0100
,
1010
0000
0001
0000
0101
0000
1000
0010
1000
0000
0001
0100
0001
0000
1001
0000
,
0000
0001
1000
0100
0010
0100
0010
0001
,
0100
1000
0100
0002
2000
0000
3003
0100
,
1001
0000
0010
0000
1001
0000
0100
0000
0010
1000
0100
0000
0110
0000
1000
0000
,
1001
0000
1001
0000
1001
0000
0100
0001
0010
0000
0100
1000
0010
0000
1001
0000
,
0000
0010
1000
0100
0010
0001
0100
0010
,
1000
0100
0010
0001
0100
0000
1001
0000
,
0100
0010
0100
0010
0100
0000
0000
0000
0001
1000
0001
1000
0001
0000
0000
0000
,
0000
0000
1010
0000
0000
0101
0000
0000
0110
0000
0000
0000
1001
0000
0000
0000
,
0010
0100
0010
0100
0010
0000
0000
0000
1000
0001
1000
0001
1000
0000
0000
0000
,
0001
0100
1000
0100
0001
0000
1001
0000
,
0100
0010
0100
0010
0100
0000
0000
0000
1000
0001
1000
0001
1000
0000
0000
0000
,
0000
0000
0101
0000
0000
1010
0000
0000
0110
0000
0000
0000
1001
0000
0000
0000
,
0010
0100
0010
0100
0010
0000
0000
0000
0001
1000
0001
1000
0001
0000
0000
0000
,
1000
0010
0001
0010
1000
0000
0110
0000
,
1001
0000
0000
0000
,
0000
0000
0000
0000
;
#NOTES:
     dance-double:
     :
     Easy:
     4:
     :
00000000
00000000
00000000
00000000
,
00000000
00000000
00000000
00000000
,
00000000
00000000
00000000
00000000
,
00000000
00000000
00000000
00000000
,
00000000
00000000
00000000
00000000
,
00000001
00000010
00000001
00000000
,
00000100
00000010
00000100
00000000
,
00001000
00010000
00001000
00000000
,
00011000
00000000
00000000
00000000
,
00100000
10000000
00100000
00000000
,
10000000
01000000
10000000
00000000
,
00010000
00100000
00010000
00000000
,
00011000
00000000
00000000
00000000
,
00000100
00000000
00000000
00000000
,
00000000
00000000
00000000
00000000
,
01000000
00000000
00000000
00000000
,
00000000
00000000
00000000
00000000
,
10000000
01000000
10000000
01000000
,
00100000
00010000
00100000
00000000
,
00002000
00003000
00020000
00030000
,
00011000
00000000
00000000
00000000
,
00000010
00000100
00000010
00000100
,
00001000
00000001
00001000
00000000
,
00000200
00000300
00020000
00030000
,
00011000
00000000
00000000
00000000
,
00100000
10000000
00010000
00000000
,
01000000
00001000
00010000
00000000
,
00001000
00000000
00010000
00000000
,
00011000
00000000
00001100
00000000
,
00000110
00000000
00001001
00000000
,
00000001
00000010
00000100
00000000
,
00010000
00001000
00010000
00000000
,
00011000
00000000
01010000
00000000
,
01100000
00000000
10010000
00000000
,
10000000
01000000
00100000
00000000
,
00001000
00010000
00001000
00000000
,
00000110
00000000
00000110
00000000
,
00000100
00001000
00000100
00000000
,
00011000
00000000
00011000
00000000
,
01000000
00010000
01000000
00000000
,
01100000
00000000
01100000
00000000
,
00010000
00001000
00010000
00000000
,
00000110
00000000
00000110
00000000
,
00000001
00001000
00000001
00000000
,
00001001
00000000
00000000
00000000
,
00000000
00000000
00000000
00000000
;
#NOTES:
     dance-double:
     :
     Medium:
     9:
     :
00000000
00000000
00000000
00000000
,
00000000
00000000
00000000
00000000
,
00000000
00000000
00000000
00000000
,
00000000
00000000
00000000
00000000
,
00000000
00000000
00000000
00000000
,
10000000
01000000
00010000
00000000
00001000
00000010
00000001
00000000
,
00000200
00010000
00002300
00010000
,
01003000
00100000
00010000
00000000
00001000
00000010
00000100
00000000
,
00000001
00000100
00001000
00000010
00000100
00001000
00010000
00000000
,
00002000
00023000
00032000
00013000
,
01000000
01000000
00100000
00100000
01000000
00001000
00010000
00000000
,
00001000
00000010
00000100
00000000
00001000
00000001
00000100
00000000
,
00001000
00010000
00100000
10000000
01000000
00010000
00001000
00000010
,
00000001
00000000
00000000
00000000
,
00000000
00000000
00000000
00000000
00000000
00000000
00000000
00001000
,
00010000
00000000
00000000
00000000
,
00000000
00000000
00000000
00000000
,
00001000
00010000
01000000
10000000
00100000
00010000
00001000
00000000
,
00000100
00000001
00001000
00000001
00000100
00000010
00001000
00000000
,
00010000
01000000
00100000
00000000
00100000
01000000
00001000
00000000
,
00010000
00010000
00001000
00001000
00010000
00001000
00010000
00000000
,
00011000
00000000
00011000
00000000
00100000
01000000
00100000
00000000
,
10000000
01000000
00010000
00000000
00001000
00000010
00000001
00000000
,
00000001
00000100
00001000
00010000
00100000
10000000
01000000
00010000
,
00001000
00010000
00001000
00010000
00022000
00000000
00033000
00000000
,
00000200
00000320
00000032
00002003
,
00003200
00020300
00032000
00203000
,
02300000
00000000
03100000
00000000
,
10100000
01010000
00110000
00011000
,
00001100
00001010
00000101
00001001
,
00000001
00000100
00001000
00010000
,
01000000
20000000
00020000
30030000
,
11000000
00110000
01010000
00011000
,
00001010
00001100
00000011
00001001
,
00000010
00001000
00000001
00000000
00000100
00001000
00010000
00000000
,
00100000
10000000
01000000
00010000
00002000
00000000
00013000
00000000
,
00000010
00000100
00000010
00000000
00001000
00000001
00001000
00000000
,
00000110
00001001
00000110
00000000
,
00010000
00001000
00010000
00000000
00001000
00010000
00001000
00000000
,
00011000
00110000
10010000
00000000
,
00100000
01000000
00100000
00000000
10000000
00010000
10000000
00000000
,
01100000
10010000
01100000
00000000
,
00001000
00010000
00001000
00000000
00010000
00001000
00010000
00000000
,
00011000
00001010
00001001
00000000
,
00000110
00000000
00000000
00000000
,
00000000
00000000
00000000
00000000
;
#NOTES:
     dance-double:
     :
     Hard:
     12:
     :
00000000
00000000
00000000
00000000
,
00000000
00000000
00000000
00000000
,
00000000
00000000
00000000
00000000
,
00000000
00000000
00000000
00000000
,
00000000
00000000
00000000
00000000
00000000
00100000
00100000
00100000
,
10000000
00000000
01000000
00000000
00010000
00001000
00010000
00000000
00001000
00000010
00000001
00000000
00001001
00000000
00000000
00000000
,
00000002
00000000
00001000
00000000
00000023
00000000
00000100
00000000
00002030
00000000
00010000
00000000
01003000
00000000
00000000
00100000
,
10000000
00000000
00100000
01000000
00000000
00000000
00000000
00010000
00100000
00000000
01000000
00100000
00000000
00000000
00000000
01000000
,
00010000
00000000
00001000
00010000
00001000
00000000
00000010
00000000
00001000
00000000
00010000
00000000
01000000
00000000
00000000
00000000
,
00021000
00032000
00023000
00032000
00023000
00032000
00013000
00000000
,
00001000
00000000
00000010
00000001
00000000
00000001
00000000
00000001
00000100
00000000
00001000
00000000
00010000
00000000
00000000
00000000
,
00011000
00000000
00100000
00010000
00100000
00000000
00000000
00000000
11000000
00000000
00010000
01000000
00010000
00000000
00000000
00000000
,
01000000
00000000
00100000
00000000
10000000
00000000
01000000
00010000
00001000
00000000
00000010
00000001
00000100
00000000
00000010
00000000
,
00001000
00000000
00000000
00000000
,
00000000
00000000
00000000
00000000
00000000
00000000
00000000
00000001
,
00001000
00000000
00000000
00000000
,
00000000
00000000
00000000
00000000
00000000
00000100
00000100
00000100
,
00000001
00000000
00000010
00000000
00001000
00010000
00001000
00000000
00010000
01000000
10000000
00000000
10010000
00000000
00000000
00000000
,
20000000
00000000
00010000
00000000
32000000
00000000
00100000
00000000
03020000
00000000
00001000
00000000
00030010
00000000
00000000
00000100
,
00000001
00000000
00000100
00000010
00000000
00000000
00000000
00001000
00000100
00000000
00000010
00000100
00000000
00000000
00000000
00000010
,
00001000
00000000
00010000
00001000
00010000
00000000
01000000
00000000
00010000
00000000
00001000
00000000
00000010
00000000
00000000
00000000
,
00011000
00000000
00000000
00000000
10010000
00000000
00000000
00000000
01000000
00100000
01000000
00100000
01000000
00000000
00000000
00000000
,
10000000
00000000
01000000
00000000
00010000
00001000
00010000
00000000
00001000
00000010
00000001
00000000
00001001
00000000
00000000
00000000
,
00000001
00000100
00001000
00000010
00000001
00000100
00001000
00010000
,
00001000
00010000
00001000
00010000
00001000
00010000
00001000
00000000
00022000
00000000
00000000
00000000
00033000
00000000
00000000
00000000
,
00010000
01000000
00100000
00000000
10000000
00100000
00010000
00020000
,
00000000
01030000
01000000
00100000
20000000
00000000
30010000
00100000
,
00002000
00000000
00000000
00000010
00003010
00000000
00000000
00000000
,
00000011
00000100
00001010
00000100
00011000
00000100
00011000
00100000
,
01010000
00000000
00100000
00000000
11000000
00000000
00100000
10000000
00100000
00000000
01000000
00100000
00010000
00000000
00011000
00000000
,
00000000
00000100
00000001
00000010
00000100
00000010
00000100
00001000
,
00000100
00001000
00010000
00100000
02000000
00000000
00000000
13000000
,
10100000
00000000
01000000
00000000
00110000
00000000
01000000
00000000
00010000
00100000
00001000
00000000
00011000
00000000
00000100
00000000
,
00000110
00000000
00000110
00000000
00000110
00000000
00000001
00000100
00000001
00000000
00001000
00000100
00000010
00000000
00001001
00000000
,
00000000
00000001
00000010
00001000
00010000
01000000
10000000
00100000
,
00010000
00001000
00000100
00000001
00000010
00001000
00010000
00000000
,
01000000
00100000
01000000
00100000
01000000
00000000
00000000
00000000
10000000
00010000
10000000
00010000
10000000
00000000
00000000
00000000
,
00000000
00000000
01100000
00000000
00000000
00101000
00000000
00000000
00011000
00000000
00000000
00000000
00001100
00000000
00000000
00000000
,
00000100
00000010
00000100
00000010
00000100
00000000
00000000
00000000
00001000
00000001
00001000
00000001
00001000
00000000
00000000
00000000
,
00000001
00000100
00001000
00010000
00200000
00000000
00300000
00000000
,
01000000
00100000
01000000
00100000
01000000
00000000
00000000
00000000
00010000
10000000
00010000
10000000
00010000
00000000
00000000
00000000
,
00000000
00000000
01100000
00000000
00000000
01001000
00000000
00000000
00011000
00000000
00000000
00000000
00001010
00000000
00000000
00000000
,
00000010
00000100
00000010
00000100
00000010
00000000
00000000
00000000
00001000
00000001
00001000
00000001
00001000
00000000
00000000
00000000
,
00000001
00000010
00001000
00010000
00002000
00000000
00003000
00000000
,
00011000
00000000
00000000
00000000
,
00000000
00000000
00000000
00000000
;
