
//----- song ID: mmdf -----//
#TITLE:未来(ダ)FUTURE;
#ARTIST:seiya-murai;
#TITLETRANSLIT:Mirai (da) FUTURE;
#BANNER:Mirai (da) FUTURE.png;
#BACKGROUND:Mirai (da) FUTURE-bg.png;
#CDTITLE:./CDTitles/Mirai Gagakki FutureTomTom.png;
#MUSIC:Mirai (da) FUTURE.ogg;
#SAMPLESTART:12.562;
#SAMPLELENGTH:15;
#DISPLAYBPM:172;
#BPMS:0=171.5,4=172;
#NOTES:
     dance-single:
     :
     Beginner:
     2:
     :
0000
0000
0000
0000
,
0000
0000
0000
0000
,
0000
0000
0000
0000
,
0000
0000
0000
0000
,
0000
0000
0000
0000
,
1000
0000
0000
0000
,
1000
0000
0000
0000
,
0100
0000
0100
0000
,
1000
0000
0000
0000
,
0001
0000
0000
0000
,
0010
0000
0000
0000
,
1000
0000
0010
0000
,
1000
0000
0000
0000
,
0001
0000
0000
0000
,
0010
0000
0000
0000
,
1000
0000
0100
0000
,
0001
0000
0000
0000
,
1000
0000
0000
0000
,
0001
0000
0000
0000
,
0010
0000
0010
0000
,
1000
0000
0000
0000
,
0001
0000
0000
0000
,
1000
0000
0000
0000
,
0010
0000
0010
0000
,
0001
0000
0000
0000
,
0001
0000
0000
0000
,
0010
0000
0000
0000
,
0010
0000
1000
0000
,
0100
0000
0000
0000
,
1000
0000
0000
0000
,
0100
0000
0000
0000
,
0100
0000
0001
0000
,
0010
0000
0000
0000
,
1000
0000
0010
0000
,
1000
0000
0000
0000
,
0001
0000
0100
0000
,
1000
0000
0000
0000
,
0001
0000
0010
0000
,
0001
0000
0000
0000
,
1000
0000
0100
0000
,
0001
0000
0000
0000
,
2000
0000
0000
0000
,
3000
0000
0000
0000
,
2000
0000
0000
0000
,
3000
0000
0000
0000
,
0002
0000
0000
0000
,
0003
0000
0000
0000
,
0002
0000
0000
0000
,
0003
0000
0000
0000
,
2000
0000
0000
0000
,
3000
0000
0000
0000
,
2000
0000
0000
0000
,
3000
0000
0000
0000
,
0001
0001
0001
0000
,
0000
0000
0000
0000
,
1000
1000
1000
0000
,
0000
0000
0000
0000
,
1001
0000
0000
0000
,
0000
0000
0000
0000
,
1001
0000
0000
0000
,
0000
0000
0000
0000
,
1000
0000
0100
0000
,
0001
0000
0000
0000
,
2000
0000
0000
0000
,
3000
0000
0000
0000
,
0001
0000
0100
0000
,
1000
0000
0000
0000
,
0002
0000
0000
0000
,
0003
0000
0000
0000
,
0000
0000
1000
0000
,
0100
0000
0000
0000
,
2000
0000
0000
0000
,
3000
0000
0000
0000
,
0001
0000
0100
0000
,
0010
0000
0000
0000
,
0002
0000
0000
0000
,
0003
0000
0000
0000
,
1001
0000
0000
0000
,
0000
0000
0000
0000
;
#NOTES:
     dance-single:
     :
     Easy:
     7:
     :
0000
0000
0000
0000
,
0000
0000
0000
0000
,
0000
0000
0000
0000
,
0000
0000
0000
0000
,
0000
0000
0000
0000
,
0001
0010
0001
0100
,
0001
0010
0100
1000
,
0010
1000
0100
1000
,
0010
0100
0110
0000
,
0001
0100
0010
0100
,
0001
0100
1000
0100
,
0010
1000
0010
0100
,
0001
0010
0110
0000
,
1000
0100
0010
0100
,
0001
0100
1000
0100
,
0010
0001
0010
0100
,
1000
0010
0110
0000
,
0001
0001
0010
0100
,
1000
1000
0010
0100
,
0001
0100
1000
0100
,
0001
0010
1000
0110
,
1000
1000
0010
0100
,
0001
0001
0010
0100
,
1000
0010
0001
0010
,
1000
0100
1001
0000
,
1000
0100
1000
0010
,
0100
0001
0010
0100
,
1000
0010
0100
0010
,
1000
0001
0110
0000
,
0001
0100
0001
0010
,
0100
1000
0010
0100
,
0001
0010
0100
0010
,
0001
1000
0110
0000
,
1000
0100
0010
0001
,
1000
0010
0100
0010
,
1000
1000
0100
0100
,
0010
0001
1000
0110
,
0001
0100
0010
1000
,
0001
0010
0100
0010
,
0001
0001
0100
0100
,
0010
1000
1001
0000
,
1000
0000
0010
0000
,
0100
0000
0000
0010
0000
0000
0100
0000
,
0001
0000
0010
0000
,
1000
0000
0000
0010
0000
0000
0100
0000
,
0001
0000
0100
0000
,
0010
0000
0000
0100
0000
0000
0010
0000
,
1000
0000
0100
0000
,
0010
0000
0000
0100
0000
0000
0001
0000
,
1000
0000
0001
0000
,
0100
0000
0000
0010
0000
0000
1000
0000
,
0100
0000
1000
0000
,
0010
0000
0000
0100
0000
0000
0010
0000
,
1000
0001
1001
0000
,
0200
0000
0000
0300
,
0001
1000
1001
0000
,
0220
0000
0330
0000
,
2002
0000
0000
0000
,
3003
0000
0000
0000
,
0220
0000
0000
0000
,
0330
0000
0000
0000
,
0001
0010
0001
1000
,
0010
0000
0100
0000
0001
1000
0001
0000
,
1000
0100
0010
0001
,
1000
0001
1001
0110
,
1000
0100
1000
0010
,
0100
0000
0001
0000
1000
0001
1000
0000
,
0100
0010
0001
0010
,
0100
1000
0001
0100
,
0000
1001
0100
0010
,
1000
0000
0100
0000
0010
0001
0010
0000
,
0001
0100
0010
1000
,
0001
1000
1001
0110
,
1000
0100
0010
0001
,
0100
0000
0010
0000
1000
0010
1000
0000
,
0100
0010
0100
1000
,
0001
0100
0010
1000
,
2002
0000
0000
0000
,
0000
0000
0000
0000
,
0000
0000
0000
0000
,
0000
0000
0000
0000
,
3003
0000
0000
0000
,
0000
0000
0000
0000
;
#NOTES:
     dance-single:
     :
     Medium:
     10:
     :
0000
0000
0000
0000
,
0000
0000
0000
0000
,
0000
0000
0000
0000
,
0000
0000
0000
0000
,
0000
0000
0000
0000
,
0001
0000
1000
0000
0100
0010
0100
0000
,
0010
0001
0010
0000
1000
0000
0000
0000
,
0001
0100
0010
1000
0010
0100
0001
0000
,
1000
0000
1000
0100
0000
0100
0000
0000
,
0001
0010
0001
0000
0100
0000
0000
0000
,
0010
1000
0010
0000
0100
0000
0000
0000
,
0010
1000
0100
0001
,
1000
0010
0001
0000
,
1000
0010
1000
0000
0100
0000
0000
0000
,
0010
0001
0010
0000
0100
0000
0000
0000
,
1000
0010
0001
1000
,
0100
0001
1000
0000
,
0001
0011
0010
1010
,
1000
1100
0100
0101
,
0001
0100
0001
0000
1000
0100
1000
0000
,
0010
0100
0010
0000
0110
0000
0000
0000
,
1000
1010
0010
0011
,
0001
0101
0100
1100
,
1000
0010
1000
0000
0001
0010
0001
0000
,
0100
0000
0100
0010
0000
0010
0000
0000
,
0001
0100
0001
0000
1000
0010
1000
0000
,
0100
1000
0100
0000
0010
0001
0010
0000
,
0001
0000
0010
0000
0100
1000
0100
0000
,
1000
0010
1000
0000
0100
0000
0000
0000
,
0001
1000
0001
0000
0100
0010
0100
0000
,
0010
1000
0010
0000
0100
0001
0100
0000
,
0001
0100
0001
0100
0010
0100
0010
0000
,
1000
0100
0010
0000
0110
0000
0000
0000
,
0001
0000
0100
0000
0001
0100
0010
0000
,
1000
0100
0010
0000
0100
0010
0100
0000
,
0010
0001
0010
0100
,
1000
0001
1000
0000
0100
0000
0000
0000
,
1000
0000
0100
0000
1000
0100
0010
0000
,
0001
0100
0010
0000
0100
0010
0100
0000
,
0010
1000
0100
1000
,
0010
0000
0010
0100
0000
0100
0000
0000
,
2000
0000
3020
0000
,
0130
0010
0000
1000
0000
0010
0100
0000
,
0002
0000
0023
0000
,
0130
0000
0010
0001
0000
0011
0000
0000
,
2000
0000
3200
0000
,
0310
0001
0000
0010
0000
0100
1000
0000
,
0002
0000
0203
0000
,
0310
0000
1000
0010
0000
0110
0000
0000
,
2000
0000
3002
0000
,
0103
0010
0000
0100
0000
0010
0100
0000
,
0002
0000
2003
0000
,
3100
0010
0000
0100
0000
0010
0000
0000
,
0001
0010
1001
0000
,
0100
0100
0100
0000
,
1000
0010
1001
0000
,
0200
0000
0000
0300
,
2002
0000
0000
0000
,
0000
0000
0000
0000
,
0000
0000
0000
3003
,
1000
0001
1000
0001
,
1000
0000
0010
0000
0100
0001
0100
0000
,
0001
0010
0001
0000
1000
0100
1000
0000
,
0001
0100
1000
0100
,
0001
1000
0100
0000
,
0001
0000
1000
0000
0010
1000
0010
0000
,
1000
0100
1000
0000
0001
0010
0001
0000
,
1000
0100
0001
0100
,
0010
0000
0010
0100
0000
0100
0000
0000
,
0000
1001
0001
0100
,
0010
1000
0100
0000
0010
0001
0100
0000
,
1000
0100
0001
0100
,
0010
0100
0010
0100
0010
0100
0010
0000
,
0100
1001
1000
0100
,
0010
0001
0100
0000
0010
1000
0100
0000
,
0001
0100
1000
0100
,
0010
0000
0010
0100
0000
0100
0000
0220
,
0000
0000
0000
0000
,
0000
0000
0000
0000
,
0000
0000
0000
0000
,
0000
0000
0000
0000
,
0330
0000
0000
0000
,
0000
0000
0000
0000
;
#NOTES:
     dance-single:
     :
     Hard:
     15:
     :
0000
0000
0000
0000
,
0000
0000
0000
0000
,
0000
0000
0000
0000
,
0000
0000
0000
0000
,
0000
0000
0000
0000
,
0001
0000
1001
0000
0100
0010
0000
0011
,
0000
1010
0000
1100
0000
0101
1001
0000
,
1000
0100
1000
0100
0000
0010
0001
0010
,
0100
1000
0010
0110
0000
0110
0000
0000
,
1000
0100
0010
0001
0010
0000
0001
0100
,
0010
1000
0010
0000
0000
2000
0000
3002
,
0000
0103
0010
0100
0000
0110
0000
2001
,
0000
0000
3001
0200
0000
0320
0000
0230
,
0000
0301
0010
0100
1000
0000
0000
0010
,
1000
0001
0100
0000
0000
0010
1000
0100
,
0000
0100
0010
0001
1000
0100
0010
0002
,
0000
0203
0000
2300
0000
3200
0000
0000
,
0310
0000
0110
0000
1000
0001
0000
0011
,
0000
0101
0000
1100
0000
1010
1001
0000
,
1000
0100
1000
0100
0010
0100
0010
0100
,
0010
0001
1000
0001
0000
0001
0100
0100
,
0010
0000
1010
0000
0001
0100
0000
0101
,
0000
1100
0000
1010
0000
0011
1001
0000
,
0001
0100
0001
0100
0010
0100
0010
0100
,
0010
1000
0010
0100
0000
0110
0000
0000
,
1000
0000
0001
0100
0001
0000
1000
0000
0001
0000
0000
0000
0001
0000
1000
0100
,
1000
0001
1000
0000
0010
0100
0000
0110
,
0000
1000
0010
0001
1000
0100
0001
2000
,
0000
0000
3001
0200
0000
0010
0000
0310
,
0000
0000
0010
0100
0010
0000
1000
0000
0100
0000
0000
0000
0100
0000
0010
0100
,
0010
0001
0100
0000
0010
1000
0010
0100
,
0000
0001
0100
1000
0001
0010
1000
0100
,
0000
0000
1100
0000
0000
0000
1001
0000
0000
0000
0100
0000
0010
0100
0010
0000
,
1000
0000
0000
0000
1001
0000
0000
0000
0001
0000
0010
0100
1000
0000
0010
0000
,
0000
0000
0110
0000
0000
0000
1010
0000
0000
0000
1000
0000
0100
1000
0100
0000
,
1000
0010
0100
0100
0001
1000
0100
0100
,
0010
0000
0001
0010
0000
0001
1000
0000
0100
1000
0000
0100
0010
0000
0001
0000
,
1000
0000
0000
0000
1001
0000
0000
0000
0010
0000
0100
0001
1000
0000
0010
0000
,
0000
0000
0110
0000
0000
0000
0011
0000
0000
0000
0010
0000
0001
1000
0001
0000
,
1000
0100
0010
0010
0001
0100
0010
0010
,
1000
0000
0100
0010
0000
1001
0000
0000
,
0001
0000
1000
0100
1000
0000
0001
0010
0100
0000
1000
0000
0010
0000
0001
0000
,
1000
0100
0010
2000
0000
3100
0010
0001
,
0100
0000
0010
1000
0010
0000
0100
0001
0100
0000
0001
0000
1000
0000
0100
0000
,
0010
0001
0010
0000
0100
0000
0110
0000
0000
0000
0010
0000
0100
0000
1000
0001
,
1000
0001
1000
0000
0010
0000
0100
0001
0100
0000
0010
1000
0010
0000
0100
0000
,
0001
0010
0001
0200
0000
0310
1000
0100
,
0001
0000
1000
0010
1000
0000
0001
0010
0001
0000
0010
0000
0001
0000
1000
0000
,
1001
0000
0000
0000
0010
0000
0110
0000
0000
0000
0001
0000
0100
0000
0010
0100
,
0010
0100
0010
0000
1000
0000
0001
0100
0001
0000
1000
0100
0010
0000
0001
0000
,
0100
0001
0010
0200
0000
1300
0010
1000
,
0100
0000
1000
0010
1000
0000
0001
0010
0100
0000
1000
0000
0010
0000
0100
0000
,
0001
1000
0100
0000
1000
0000
1001
0000
0000
0000
0110
0000
0000
0000
1001
0000
,
0000
0100
0010
0000
1001
0000
0000
0000
,
1000
0000
0001
0100
0001
0000
1000
0100
1000
0000
0001
0010
0001
0000
0100
0000
,
0000
0010
1001
0000
1001
0000
0000
0220
,
0000
0000
0000
0000
0330
0100
0010
2002
,
0000
0000
0000
0000
,
0000
0000
0000
0000
,
0000
0000
0000
3003
,
0010
0100
0010
0010
,
1001
0000
0001
1000
0010
0000
0100
0000
0010
0000
1000
0100
0010
0000
0001
0000
,
1000
0000
0001
0010
0100
0000
1000
0000
0010
0000
0100
0001
0100
0000
0000
0000
,
0001
1000
0100
0000
0010
0000
0001
0000
1000
0001
0100
0000
0010
0000
1000
0000
,
0100
0010
0100
0010
0100
0000
0110
0000
0000
0000
1000
0000
0100
0000
0001
0000
,
0100
0000
0010
0001
1000
0000
0010
0000
0100
0000
0001
1000
0010
0000
1000
0000
,
0001
0000
0010
0100
1000
0000
0010
0000
1000
0001
1000
0001
1000
0000
0000
0000
,
1000
0001
0100
0000
0010
0000
1000
0000
0001
1000
0100
0000
0010
0000
0001
0000
,
0010
0001
0010
0000
0100
0000
1100
0000
0000
0000
1010
0000
0000
0000
1001
0000
,
0000
0000
0000
0000
1001
0000
0000
0000
0001
0000
2000
0000
3100
0000
0010
0001
,
0010
0000
0002
0000
1003
0000
0100
0000
0001
0000
0100
0000
1000
0001
1000
0001
,
1000
0000
0020
0000
0130
0000
0010
0000
1000
0000
0200
0000
0310
0000
0100
1000
,
0000
0001
0100
0001
0100
0000
0010
1000
0000
0001
1000
0100
0010
0001
0010
0000
,
0001
0000
2000
0000
3100
0000
0010
0001
0010
0000
0002
0000
0103
0000
0010
1000
,
0010
0000
0200
0000
0301
0000
0100
0000
1000
0000
0100
0000
0001
1000
0001
1000
,
0001
2000
3010
0100
0001
2000
3100
0000
,
1001
0010
0110
1001
0000
0110
0000
2002
,
0000
0000
0000
0000
,
0000
0000
0000
0000
,
0000
0000
0000
0000
,
0000
0000
0000
0000
,
3003
0000
0000
0000
,
0000
0000
0000
0000
;
#NOTES:
     dance-double:
     :
     Easy:
     7:
     :
00000000
00000000
00000000
00000000
,
00000000
00000000
00000000
00000000
,
00000000
00000000
00000000
00000000
,
00000000
00000000
00000000
00000000
,
00000000
00000000
00000000
00000000
,
10000000
01000000
00100000
01000000
,
00010000
00001000
00010000
00010000
,
00001000
00000010
00000100
00000010
,
00000001
00001000
00001001
00000000
,
00000001
00000100
00000010
00000100
,
00001000
00000000
00010000
00000000
00001000
00010000
00001000
00000000
,
00010000
00100000
00010000
00001000
,
00010000
00100000
10000000
00000000
,
10000000
01000000
00100000
01000000
,
00010000
00000000
00001000
00000000
00010000
00001000
00010000
00000000
,
00001000
00010000
00001000
00000010
,
00000001
00001000
00000001
00000000
,
00001001
00000000
00000110
00000000
,
00000001
00001000
00000100
00000000
,
00010000
00001000
00010000
00010000
,
00001000
00010000
00001000
00000000
,
00011000
00000000
00011000
00000000
,
00001000
00100000
00010000
00000000
,
10000000
00100000
01000000
01000000
,
00100000
10000000
00010000
00000000
,
10000000
00100000
10000000
00100000
,
01000000
00001000
00010000
00001000
,
00010000
00000010
00001000
00000010
,
00000100
00000010
00000100
00000000
,
00000001
00001000
00000001
00001000
,
00000100
00010000
00001000
00010000
,
00001000
00100000
00010000
00100000
,
00010000
10000000
01000000
00000000
,
10000000
10000000
01000000
01000000
,
00100000
00000000
00100000
00000000
00010000
00100000
00010000
00000000
,
00100000
00001000
00010000
00001000
,
00010000
00000100
00010000
00000000
,
00000100
00000100
00001000
00001000
,
00000001
00000000
00000001
00000000
00000010
00000100
00000010
00000000
,
00000001
00000100
00000001
00001000
,
00000010
00010000
00001000
00000000
,
00010000
01000000
10000000
00100000
,
10000000
01000000
00010000
00000000
,
00001000
00010000
00100000
01000000
,
00100000
00010000
00001000
00000000
,
00010000
00001000
00000010
00000100
,
00000010
00001000
00010000
00000000
,
00001000
00000100
00000001
00001000
,
00000001
00000100
00001000
00000000
,
00010000
00100000
10000000
00010000
,
01000000
10000000
01000000
00100000
,
10000000
01000000
00010000
01000000
,
00010000
00001000
00000010
00000000
,
00000100
00000010
00000110
00000000
,
00000002
00000000
00000003
00000000
,
00000100
00000010
00000110
00000000
,
00002000
00000000
00003000
00000000
,
00020000
00000000
00030000
00000000
,
00002000
00000000
00003000
00000000
,
00022000
00000000
00000000
00000000
,
00033000
00000000
00000000
00000000
,
00010000
00100000
00010000
00100000
,
10000000
00000000
00100000
00000000
10000000
01000000
10000000
00000000
,
00100000
00010000
00100000
00010000
,
00001000
00010000
00001000
00011000
,
00001000
00000010
00001000
00000010
,
00000001
00000000
00000010
00000000
00000001
00000100
00000001
00000000
,
00000100
00001000
00000100
00001000
,
00010000
00001000
00010000
00001000
,
00000000
00011000
00010000
01000000
,
00100000
00010000
10000000
01000000
,
00100000
00001000
00010000
01000000
,
00010000
00000000
00001000
00000000
00010000
00001000
00010000
00000000
,
00001000
00010000
00001000
00000100
,
00000010
00001000
00000010
00010000
,
00001000
00000100
00001000
00010000
,
00100000
00000000
10000000
00000000
00010000
10000000
00010000
00000000
,
20020000
00000000
00000000
00000000
,
00000000
00000000
00000000
00000000
,
00000000
00000000
00000000
00000000
,
00000000
00000000
00000000
00000000
,
30030000
00000000
00000000
00000000
,
00000000
00000000
00000000
00000000
;
#NOTES:
     dance-double:
     :
     Medium:
     10:
     :
00000000
00000000
00000000
00000000
,
00000000
00000000
00000000
00000000
,
00000000
00000000
00000000
00000000
,
00000000
00000000
00000000
00000000
,
00000000
00000000
00000000
00000000
,
10000000
00000000
01000000
00000000
00100000
01000000
00100000
00000000
,
00010000
00100000
00010000
00001000
,
00000010
00000100
00000010
00000000
00001000
00000001
00001000
00000000
,
00002002
00000000
00000000
00003003
,
00000001
00000100
00000001
00000000
00000010
00000000
00000001
00000100
,
00000001
00000000
00000010
00000000
00000100
00010000
00000000
00010000
,
00001000
01000000
00010000
10000000
,
01000000
00100000
10010000
00000000
,
10000000
01000000
10000000
00000000
00100000
00000000
10000000
01000000
,
10000000
00000000
00100000
00000000
01000000
00001000
00000000
00001000
,
00010000
00000010
00001000
00000001
,
00000100
00000010
00001001
00000000
,
00001000
00000000
00001001
00000000
00000001
00000100
00000010
00000000
,
00001000
00000100
00010000
00000000
00001000
00000000
00001000
00000000
,
00010000
00100000
10000000
01000000
,
11000000
01010000
10010000
00000000
,
00010000
00000000
10010000
00000000
10000000
01000000
00100000
00000000
,
00010000
01000000
00001000
00000000
00010000
00000000
00010000
00000000
,
00001000
00000010
00000001
00000100
,
00000101
00001100
00001001
00000000
,
00001000
00000100
00000010
00000000
00000001
00000000
00000010
00000100
,
00001000
00000010
00000100
00001000
,
00010000
00001000
00010000
00100000
,
10000000
01000000
01100000
00000000
,
00010000
00100000
01000000
00000000
10000000
00000000
01000000
00100000
,
00010000
10000000
01000000
00010000
,
00001000
00010000
00001000
00000000
00010000
00001000
00000010
00000000
,
00000001
00000100
00000110
00000000
,
00000001
00001001
00001000
00001100
,
00000100
00000000
00010100
00000000
00001000
00010000
00001000
00000000
,
00010000
00100000
01000000
00010000
,
00100000
01000000
00100000
00000000
10010000
00000000
00000000
00000000
,
10000000
10010000
00010000
00110000
,
00100000
00000000
00101000
00000000
00010000
00001000
00010000
00000000
,
00001000
00000010
00000100
00001000
,
00000010
00000100
00000010
00000000
00001001
00000000
00000000
00000000
,
00000002
00000000
00002003
00000000
,
00003010
00000000
00000000
00001000
00000000
00000000
00100000
00000000
,
20000000
00000000
30020000
00000000
,
01030000
00000000
00000000
00001000
00000000
00010000
00000000
00000000
,
00200000
00000000
20300000
00000000
,
31000000
00000000
00000000
00001000
00000000
00000000
00000100
00000000
,
00000020
00000000
00000032
00000000
,
00000103
00000000
00000000
00001000
00000000
00010000
00000000
00000000
,
00002000
00000000
00003020
00000000
,
00001030
00000000
00000000
00010000
00000000
00000000
01000000
00000000
,
00200000
00000000
00302000
00000000
,
00013000
00000000
00000000
00000100
00000000
00000010
00000000
00000000
,
00000110
00001001
00000110
00000000
,
00000000
00000000
00000000
00000000
,
01100000
10010000
01100000
00000000
,
00000000
00000000
00000000
00000000
,
00022000
00000000
00000000
00000000
,
00000000
00000000
00000000
00000000
,
00000000
00000000
00000000
00000000
,
00033000
00000000
00000000
00000000
,
00001000
00000000
00000010
00000000
00000001
00000100
00000010
00000000
,
00010000
00001000
00100000
00000000
00010000
10000000
00100000
00000000
,
00010000
01000000
10000000
00100000
,
01000000
00010000
01000000
00100000
01000000
00010000
01000000
00000000
,
10000000
00000000
00100000
00000000
01000000
00001000
00010000
00000000
,
00000010
00001000
00000100
00000000
00000010
00000100
00001000
00000000
,
00000010
00000001
00000100
00000010
,
00001000
00000000
00000100
00000010
00000000
00000110
00000000
00000000
,
00000000
00000000
00001001
00000000
00000001
00000010
00001000
00000000
,
00010000
00001000
00010000
00000000
00001000
01000000
00010000
00000000
,
10000000
00100000
01000000
00010000
01000000
00001000
00010000
00000000
,
00001000
00010000
00000010
00001000
00000001
00000000
00000110
00000000
,
00001000
00000000
00000100
00000000
00000001
00000010
00000100
00000000
,
00000010
00000100
00010000
00000000
00001000
00010000
01000000
00000000
,
10000000
00100000
01000000
00010000
01000000
00001000
00010000
00001000
,
00000010
00000000
00000010
00000100
00000000
00000100
00000000
00002002
,
00000000
00000000
00000000
00000000
,
00000000
00000000
00000000
00000000
,
00000000
00000000
00000000
00000000
,
00000000
00000000
00000000
00000000
,
00003003
00000000
00000000
00000000
,
00000000
00000000
00000000
00000000
;
#NOTES:
     dance-double:
     :
     Hard:
     15:
     :
00000000
00000000
00000000
00000000
,
00000000
00000000
00000000
00000000
,
00000000
00000000
00000000
00000000
,
00000000
00000000
00000000
00000000
,
00000000
00000000
00000000
00000000
,
00010000
00000000
10000000
00000000
01000000
00100000
00000000
01000000
,
00000000
10000000
00000000
01000000
00000000
00010000
00011000
00000000
,
00001000
00000010
00001000
00000010
00000001
00000010
00000001
00000000
,
00000100
00000000
00000100
00000010
00000000
00000010
00000000
00000000
,
00000001
00000100
00000010
00000000
00000110
00000000
00001000
00000100
,
00000010
00000000
00000110
00000000
00000100
00001000
00000100
00000000
,
00010000
00001000
00010000
00001000
00010000
01000000
00100000
01000000
,
00000000
00000000
10000000
00010000
00000000
01000000
00000000
01000000
,
00010000
01000000
00100000
00000000
01100000
00000000
10000000
01000000
,
00100000
00000000
01100000
00000000
10000000
01000000
00100000
00000000
,
00001000
00010000
00001000
00010000
00000010
00001000
00000010
00002000
,
00000000
00003002
00000000
00000203
00000000
00000310
00000100
00000000
,
00000001
00000000
00000010
00000000
00000100
00001000
00000000
00000010
,
00000000
00000100
00000000
00001000
00000000
00010000
00011000
00000000
,
00010000
00100000
00010000
00100000
10000000
00100000
10000000
00000000
,
00010000
01000000
00010000
01000000
00000000
00100000
10000000
00010000
,
10000000
00000000
01000000
00000000
00100000
00010000
00000000
01000000
,
00000000
00100000
00000000
00010000
00000000
00001000
00011000
00000000
,
00001000
00000100
00001000
00000100
00000001
00000100
00000001
00000000
,
00001000
00000000
00000100
00000010
00000000
00000010
00000000
00000000
,
00000001
00000000
00000100
00000010
00000100
00000000
00000010
00000000
00001000
00000000
00000000
00000000
00000100
00000000
00010000
00001000
,
00010000
00001000
00010000
00000000
01000000
10000000
00000000
10100000
,
00000000
00100000
01000000
10000000
01000000
00100000
01000000
00002000
,
00000000
00000000
00013000
00000200
00000000
00010300
00000000
00001000
,
00100000
00000000
00010000
10000000
00010000
00000000
01000000
00000000
00100000
00000000
00000000
00000000
10000000
00000000
01000000
00100000
,
01000000
00100000
00010000
00000000
01000000
00001000
00010000
00001000
,
00000000
00000010
00000001
00001000
00000100
00000010
00000001
00000200
,
00000000
00002300
00000000
00023000
00000000
00130000
10000000
00000000
,
01100000
00000000
00000000
00000000
10010000
00000000
00000000
00000000
00010000
00000000
10000000
01000000
10000000
00000000
00100000
00000000
,
01000000
00000000
00001000
00010000
00001000
00000000
00010000
00000000
00000100
00000000
00000010
00000000
00000001
00000000
00000000
00000000
,
00000001
00000010
00000001
00000010
00000100
00001000
00000100
00010000
,
00001000
00100000
00001000
00100000
00010000
10000000
00100000
00000000
,
01100000
00000000
00000000
00000000
10010000
00000000
00000000
00000000
10000000
00000000
00100000
10000000
00100000
00000000
01000000
00000000
,
00010000
00000000
00100000
00001000
00100000
00000000
00001000
00000000
00010000
00000000
00000100
00000000
00000010
00000000
00000000
00000000
,
00000001
00000100
00001000
00000100
00001000
00010000
00001000
00010000
,
00100000
00010000
00100000
10100000
00000000
10100000
00000000
00000000
,
10000000
01000000
00010000
01000000
10000000
01000000
00100000
00001000
,
00010000
00001000
00010000
00000000
00001000
00000000
00011000
00000000
00000000
00000000
00010000
00000000
00000100
00000000
00001000
00000000
,
00000010
00000001
00000010
00001000
00000010
00000001
00000010
00000100
,
00000001
00000010
00000001
00000000
00001000
00000000
00000100
00000000
00000000
00000000
00000100
00000000
00001000
00000000
00000010
00000100
,
00000010
00000100
00000010
00000000
00001000
00000000
00000100
00000000
00010000
00000000
00000100
00000000
00001000
00000000
00000100
00000000
,
00010000
00001000
00010000
00000000
00001000
00000000
01000000
00000000
00000000
00000000
00100000
00000000
10000000
00000000
00010000
00000000
,
00100000
10000000
00100000
01000000
00100000
00010000
00100000
00001000
,
00010000
00001000
00010000
00000000
00001000
00000000
00000100
00000000
00000000
00000000
00000100
00000000
00000010
00000000
00001000
00000001
,
00001000
00000001
00001000
00000000
00000001
00000000
00000100
00000000
00000010
00000000
00001000
00000000
00000001
00000000
00000100
00000000
,
00000010
00010000
00000010
00000000
00010000
00000000
00001000
00000000
00000000
00000000
00010000
00000000
00001000
00000000
00100000
00000000
,
00010000
10000000
01000000
00100000
00010000
10000000
01000000
00100000
,
00010000
10000000
00010000
00000000
01000000
00000000
00100000
00000000
00000000
00000000
01000000
00000000
00100000
00000000
00010000
00000000
,
00001000
00010000
00001000
00000000
00011000
00000000
00000000
00000000
,
00001000
00000000
00000010
00000000
00000001
00001000
00000001
00001000
00000001
00000000
00000100
00000000
00001000
00000000
00010000
00000000
,
00000000
00100000
10000000
00000000
10010000
00000000
00000000
02200000
,
00000000
00000000
00000000
03300000
00000000
00010000
00001000
00022000
,
00000000
00000000
00000000
00000000
,
00000000
00000000
00000000
00000000
,
00000000
00000000
00000000
00033000
,
00001000
00010000
00001000
00010000
,
00011000
00000000
00001000
00000010
00001000
00000000
00000010
00000000
00000001
00000000
00000100
00001000
00000100
00000000
00001000
00000000
,
00010000
00000000
00100000
01000000
00100000
00000000
10000000
00000000
01000000
00000000
00100000
00001000
00010000
00000000
00000000
00000000
,
00001000
00010000
00001000
00000000
00000010
00000000
00000001
00000000
00001000
00000001
00001000
00000000
00000010
00000000
00000100
00000000
,
00001000
00010000
00001000
00000000
01000000
00000000
00100000
00000000
00000000
00000000
01100000
00000000
00100000
00000000
10000000
00000000
,
00010000
00000000
01000000
00100000
10000000
00000000
01000000
00000000
00100000
00000000
00001000
00100000
00010000
00000000
00100000
00000000
,
00001000
00000000
00010000
00000100
00001000
00000000
00000010
00000000
00001000
00000100
00000010
00000100
00001000
00000000
00000000
00000000
,
00000001
00000100
00000001
00000000
00000010
00000000
00001000
00000000
00010000
00001000
00010000
00000000
01000000
00000000
10000000
00000000
,
00100000
01000000
00100000
00000000
01000000
00000000
00001000
00000000
00000000
00000000
00010000
00000000
00000000
00000000
00011000
00000000
,
00000000
00000000
00000000
00000000
00011000
00000000
00000000
00000000
01000000
00000000
00200000
00000000
00310000
00000000
00001000
00010000
,
00001000
00000000
00020000
00000000
00030100
00000000
00001000
00000000
00000001
00000000
00000010
00000000
00000100
00000010
00000100
00000010
,
00000100
00000000
00000020
00000000
00000031
00000000
00000100
00000000
00000010
00000000
00020000
00000000
00031000
00000000
00100000
01000000
,
00000000
10000000
00010000
10000000
00010000
00000000
00100000
00001000
00000000
00010000
00001000
00010000
00000100
00001000
00000100
00000000
,
00001000
00000000
00000002
00000000
00000103
00000000
00000010
00000100
00000010
00000000
00000200
00000000
00000301
00000000
00000010
00000100
,
00000010
00000000
00002000
00000000
00013000
00000000
01000000
00000000
00100000
00000000
00010000
00000000
10000000
00010000
10000000
00010000
,
10000000
00200000
00310000
00001000
00000100
00000002
00000013
00000000
,
00001010
00010000
00001000
00011000
00000000
00110000
00000000
20020000
,
00000000
00000000
00000000
00000000
,
00000000
00000000
00000000
00000000
,
00000000
00000000
00000000
00000000
,
00000000
00000000
00000000
00000000
,
30030000
00000000
00000000
00000000
,
00000000
00000000
00000000
00000000
;
