
//----- song ID: midw -----//
#TITLE:ミッドナイト☆WAR;
#ARTIST:いちか;
#TITLETRANSLIT:Midnight☆WAR;
#ARTISTTRANSLIT:Ichika;
#BANNER:Midnight WAR.png;
#BACKGROUND:Midnight WAR-bg.png;
#CDTITLE:./CDTitles/DDR A20.png;
#MUSIC:Midnight WAR.ogg;
#SAMPLESTART:63.461;
#SAMPLELENGTH:15;
#BPMS:0=156;
#NOTES:
     dance-single:
     :
     Beginner:
     3:
     :
0000
0000
0000
0000
,
0000
0000
0000
0000
,
0000
0000
0000
0000
,
0000
0000
0000
0000
,
0000
0000
0000
0000
,
0010
0000
0010
0000
,
0100
0000
0100
0000
,
0001
0000
0001
0000
,
1000
0000
1000
0000
,
0100
0000
0100
0000
,
0010
0000
0010
0000
,
0001
0000
0001
0000
,
1000
0000
1000
0000
,
1001
0000
0000
0000
,
1001
0000
0000
0000
,
1001
0000
0000
0000
,
1001
0000
0000
0000
,
0001
0000
1000
0000
,
0001
0000
1000
0000
,
0010
0000
0100
0000
,
0010
0000
0000
0000
,
1000
0000
1000
0000
,
0001
0001
0001
0000
,
0001
0000
0001
0000
,
1000
1000
1000
0000
,
0010
0000
0010
0000
,
0100
0100
0100
0000
,
0100
0000
0100
0000
,
0020
0000
0030
0000
,
1000
0000
0000
0000
,
1000
0000
0000
0000
,
0001
0000
0000
0000
,
0001
0000
0000
0000
,
0010
0000
0000
0000
,
0010
0000
0000
0000
,
0100
0000
0000
0000
,
0100
0000
0000
0000
,
0010
0000
0001
0000
,
0010
0000
0001
0000
,
1000
0000
0100
0000
,
1001
0000
0000
0000
,
0000
1000
1000
0000
,
0001
0000
1000
0000
,
0010
0000
0010
0000
,
0100
0000
0100
0000
,
0000
0001
0001
0000
,
1000
0000
0001
0000
,
0100
0000
0100
0000
,
0020
0000
0030
0000
,
0000
0100
0100
0000
,
0010
0000
0100
0000
,
0001
0000
0001
0000
,
1000
0000
1000
0000
,
0000
0010
0010
0000
,
0100
0000
0100
0000
,
0020
0000
0030
0000
,
1001
0000
0000
0000
,
0001
0000
0001
0000
,
1000
0000
1000
0000
,
0001
0000
0000
0000
,
1000
0000
0000
0000
,
0010
0000
0010
0000
,
0100
0000
0100
0000
,
0010
0000
0010
0000
,
0100
0000
0100
0000
,
1001
0000
0000
0000
,
1001
0000
0000
0000
,
1001
0000
0000
0000
,
1001
0000
0000
0000
,
0001
0000
0001
0000
,
1000
0000
1000
0000
,
0010
0000
0100
0000
,
1001
0000
0000
0000
,
0000
0000
0000
0000
;
#NOTES:
     dance-single:
     :
     Easy:
     7:
     :
0000
0000
0000
0000
,
0000
0000
0000
0000
,
0000
0000
0000
0000
,
0010
1000
0001
0100
,
0010
0000
1001
0000
,
1000
0100
1000
0100
,
0010
0000
0001
0000
0010
0010
0010
0000
,
0001
0100
0001
0100
,
0010
0000
1000
0000
0010
0010
0010
0000
,
0100
0001
0100
0001
,
1000
0000
0100
0000
0010
0010
0010
0000
,
0001
0100
0001
0100
,
0010
0000
1000
0000
0010
0010
0010
0000
,
1001
0000
1000
1000
,
0110
0000
0010
0010
,
1001
0000
0001
0001
,
0220
0000
0000
0330
,
1000
0100
1000
1001
,
0001
0100
0001
1001
,
0100
0010
0100
0010
,
2002
0000
0000
3003
,
0010
1000
0010
0010
,
0100
0001
1000
0010
,
0010
1000
0001
0001
,
0010
0100
0010
0110
,
0100
0010
0001
0001
,
0010
0100
1000
1000
,
0001
0100
0010
1000
,
2002
0000
0000
3003
,
0001
0000
0000
0010
0001
0000
0100
0000
,
0010
1000
0002
0003
,
1000
0100
0010
0001
,
0200
0000
0000
0300
,
0010
0010
0100
0100
,
0001
1000
1001
0000
,
2000
3000
0002
0003
,
0020
0000
0000
0000
0000
0000
0000
0000
0130
0000
0000
0100
0000
0000
0100
0000
,
0000
0010
0100
1001
,
0000
0100
0010
1001
,
0100
0000
0000
0100
0000
0000
0100
0000
0010
0000
0000
0010
0000
0000
0010
0000
,
0100
0000
0000
0100
0000
0000
0100
0000
0100
0000
0000
0000
0000
0000
0000
0000
,
0000
0110
1001
0000
,
0001
1000
1001
0000
,
0001
0001
1000
1000
,
0010
0100
0010
0100
,
0000
1001
0110
0000
,
1000
0001
0110
0000
,
0010
0010
0100
0100
,
0001
1000
0001
1000
0000
0000
0000
0000
,
0000
0110
1001
0000
,
0001
1000
1001
0000
,
0001
0110
1000
0110
,
1000
0001
1000
0001
,
0000
1001
0110
0000
,
1000
0000
0001
0000
0010
0000
0100
1000
,
0000
0001
0000
0000
0000
0000
0000
0000
,
0110
0000
1001
0000
0010
0010
0010
0000
,
1000
0100
1000
0100
,
0010
0001
0010
0001
,
0200
0300
0100
0010
,
1000
0000
0001
0000
1000
1000
1000
0000
,
0001
0001
0010
0010
,
0100
0100
1000
1000
,
0010
0010
0100
0100
,
0001
0001
1000
0001
,
1001
0000
0000
0000
,
0110
0000
0000
0000
,
1001
0000
0000
0000
,
0001
0000
0000
0000
1000
0000
0000
0000
0100
0000
0000
0100
0000
0000
0100
0000
,
0010
0001
1000
0100
,
1000
0010
0100
0001
,
0010
0100
1000
0001
,
2002
0000
0000
3003
,
0000
0000
0000
0000
;
#NOTES:
     dance-single:
     :
     Medium:
     11:
     :
0000
0000
0000
0000
,
0000
0000
0000
0000
,
0000
0000
0000
0000
,
0010
1000
0001
0100
,
0010
0000
1001
0000
,
1000
0010
1000
0000
0001
0010
0001
0000
,
1000
1000
0001
0001
0100
0010
0100
0000
,
0001
0100
0001
0000
1000
0100
1000
0000
,
0001
0001
1000
1000
0010
0100
0010
0000
,
0100
0010
1000
0000
0100
0010
0001
0000
,
1000
1000
0001
0001
0010
0001
0100
0000
,
0010
0100
0001
0000
0010
0100
1000
0000
,
0001
0001
1000
1000
0010
0100
0010
0000
,
0110
0110
0000
0000
0000
0000
0000
0000
,
1100
1100
0000
0000
0000
0000
0000
0000
,
0101
0101
0000
0000
0000
0000
0000
0000
,
1100
0000
0000
0000
0101
0000
0000
0000
0010
0000
0000
0100
0000
0000
0010
0000
,
1000
0100
1000
0100
0010
0000
0110
0000
,
0001
0100
0001
0100
0010
0000
0110
0000
,
1000
0010
0001
0010
1000
0000
1001
0000
,
0001
0100
0010
1000
0100
0010
1001
0000
,
0000
0010
1000
0010
1000
0001
0100
0010
,
0000
1000
0100
0001
0010
1000
0100
0001
,
0000
0100
0010
1000
0001
0100
0010
1000
,
0010
0000
0010
0000
0100
0000
0100
0000
0001
0000
0000
1000
0000
0000
0001
0000
,
0000
0010
0001
0100
0010
1000
0100
0010
,
0000
0001
0100
0001
0010
0100
1000
0001
,
0000
0000
1000
0000
0100
0000
0010
0000
0001
0000
0000
1000
0000
0000
0010
0000
,
0200
0000
0000
0300
,
0010
0000
0100
0010
0100
0000
0010
1000
,
0001
0110
2002
3003
,
1000
0100
0010
0001
0100
0000
0100
0010
,
2000
0000
3002
0000
,
1003
0100
0010
0001
0100
0000
0100
0010
,
2000
3002
0023
0030
,
0220
0000
0330
0000
1001
0000
0001
1000
,
0200
0000
0000
0000
0000
0000
0000
0000
0310
0000
0000
0001
0000
0000
1000
0000
,
0000
0010
1000
0010
0100
0001
0010
0010
,
0000
0100
0010
0001
1000
0100
0010
0010
,
0001
0000
0000
0001
0000
0000
0001
0000
1000
0000
0000
1000
0000
0000
1000
0000
,
0010
0000
0000
0100
0000
0000
0010
0000
0110
0000
0000
0000
0000
0000
0000
0000
,
0000
0000
1100
0000
0101
0000
0100
0020
,
0000
0130
0010
0100
0010
0000
1001
0000
,
1000
1000
0001
0001
0010
0100
0010
0100
,
1000
0000
1000
0000
0001
0000
0001
0000
0100
0000
0000
0010
0000
0000
0100
0000
,
0000
0000
0101
0000
1100
0000
0001
2000
,
0000
3001
1000
0001
1000
0000
0110
0000
,
0010
0010
0100
0100
0001
1000
0001
1000
,
0010
1000
0001
0100
0000
0010
0010
0000
,
0000
0000
1100
0000
0101
0000
0100
0020
,
0000
0130
0010
0100
0010
0000
1001
0000
,
0001
0010
1000
0010
0001
0100
1000
0100
,
0001
0000
0001
0000
1000
0000
1000
0000
0100
0000
0000
0010
0000
0000
0100
0000
,
0000
0000
0110
0000
1001
0000
0000
0200
,
0000
0310
1000
0001
0200
0000
0310
0100
,
0000
0220
0000
0000
0000
0330
0000
0100
,
0010
1000
0001
0100
0010
0010
0010
0000
,
1000
1000
0100
0010
0010
0001
0100
0100
,
0010
1000
0001
0100
0010
1000
0100
0010
,
0002
0000
0000
1003
0010
0100
0001
1000
,
0001
0001
1000
1000
0100
0010
0100
0000
,
1000
1000
0001
0001
0010
0010
0200
0000
,
0310
0010
0001
0001
1000
1000
0010
0100
,
0010
1000
0001
0100
0001
0010
0100
1000
,
0010
0100
0001
0100
0010
1000
0010
0000
,
1100
1100
0000
0000
0010
0000
0100
0000
,
0101
0101
0000
0000
0010
0000
0100
0000
,
1001
1001
0000
0000
1000
0000
0001
0000
,
0110
0000
0000
0000
1001
0000
0000
0000
0100
0000
0000
0010
0000
0000
0100
0000
,
0000
0010
1000
0010
0100
0100
0010
0100
,
0000
0001
0100
0001
0010
0010
0100
1000
,
0000
0010
0100
0010
1000
0001
0010
0100
,
0020
0000
0000
0000
0100
0100
0130
0000
,
0000
0000
0000
0000
;
#NOTES:
     dance-single:
     :
     Hard:
     14:
     :
0000
0000
0000
0000
,
0000
0000
0000
0000
,
0000
0000
0000
0000
,
0010
1000
0001
0100
,
0010
0000
1001
0000
,
0010
1000
0010
0001
0010
1000
0100
0010
,
0001
0001
1000
1000
0010
1000
0001
0000
,
0010
0001
0010
1000
0010
0001
0100
0010
,
1000
1000
0001
0001
0010
0001
1000
0000
,
0010
1000
0100
0001
0100
1000
0010
0100
,
0010
0010
0100
0100
0001
0010
0100
0000
,
0010
0001
0100
1000
0100
0001
0010
0100
,
0010
0010
0100
0100
1000
0010
0100
0000
,
0100
0000
0010
1000
0010
0000
0100
0000
0010
0100
0010
0000
1000
0000
0100
0000
,
1000
0000
0001
0010
0001
0000
1000
0000
0100
0010
0100
0000
1000
0000
0100
0000
,
0010
0000
0001
0010
0001
0000
0100
0000
0001
0100
0001
0000
1000
0000
0100
0000
,
2000
0000
0000
0000
3002
0000
0000
0000
0203
0000
0000
0320
0000
0000
0130
0000
,
0010
0000
0010
0000
1000
0000
0001
0000
0010
0001
0010
0000
0100
0010
0100
0000
,
1000
0000
1000
0000
0001
0000
0100
0000
0010
1000
0010
0000
1000
0100
1000
0000
,
0001
0000
0001
0000
0010
0000
0100
0000
0010
0100
0010
0000
0001
1000
0001
0000
,
0020
0000
0000
0000
0100
0100
0130
0000
,
0000
0000
0010
0000
0100
0000
1000
0000
0010
0100
0010
0000
1000
0000
0001
0000
,
0100
0001
0010
1000
0100
0001
0010
1000
,
0001
0000
0100
0000
0010
0000
1000
0000
0010
0100
0010
0000
1000
0000
0001
0000
,
1000
0100
1000
0000
0001
0100
0001
0000
0010
0000
0000
0100
0000
0000
0010
0000
,
0001
0000
1000
0100
1000
0000
0010
0000
0100
0000
0001
0000
0010
0000
0001
0000
,
0100
0000
0001
0100
0001
0000
0010
0000
0100
0000
1000
0000
0010
0000
1000
0000
,
0100
0000
1000
0100
1000
0000
0010
0000
0100
0000
0000
0001
0000
0000
0010
0000
,
0200
0000
0000
0300
,
1100
0000
0100
1000
0001
0000
0100
0000
,
0101
0011
2002
3003
,
0001
0010
1000
0010
0001
0000
1000
0100
,
0020
0000
0130
1001
,
0001
0100
0010
1000
0100
0000
0100
1000
,
0020
0230
0302
0003
,
2000
0000
3000
0000
0002
0000
1003
0010
,
0200
0000
0000
0000
0300
0000
0000
0000
0010
0000
0000
1000
0000
0000
1001
0000
,
0000
0000
0100
1000
0100
0000
1000
0000
0100
1000
0100
1000
0100
0000
0010
0000
,
0001
0000
0100
0001
0100
0000
0001
0000
0100
0001
0100
0001
0100
0000
0001
0000
,
0101
0000
0000
0011
0000
0000
0101
0000
1100
0000
0000
1010
0000
0000
1100
0000
,
1010
0000
0000
0011
0000
0000
0101
0000
1100
0000
0000
0000
0000
0000
0000
0000
,
0100
0000
1100
0000
0101
0000
1000
0002
,
0000
1003
0001
1000
0001
0000
0000
0000
,
1000
0100
1000
0000
0100
1000
0100
1000
0010
0000
0100
0010
0100
0000
0001
0000
,
0100
0001
0100
0000
0001
1000
0001
0000
1000
0000
0000
0001
0000
0000
1001
0000
,
0000
0000
0011
0000
1010
0000
0001
2000
,
0000
3001
1000
0001
1000
0000
0000
0000
,
0001
0010
0001
0000
0010
0001
0010
0001
0100
0000
0010
0100
0010
0000
1000
0000
,
0010
1000
0001
0100
0000
0000
0000
0000
,
0000
0000
1100
0000
0011
0000
0100
0020
,
0000
0130
0010
0100
0010
0000
0000
0000
,
1000
0100
0010
0000
0001
0000
1000
0000
0001
0100
0010
0000
1000
0000
0001
0000
,
1000
0100
0010
0000
0001
0100
0010
0000
1000
0000
0000
0001
0000
0000
1001
0000
,
0000
0000
0110
0000
1001
0000
0100
0020
,
0000
0130
0010
1000
0001
0000
0001
1000
,
0000
2002
0000
0000
0000
0000
3003
0001
,
1000
0000
0001
0100
0001
0100
0010
1000
0001
0000
1000
0000
1001
0000
0000
0000
,
1000
0100
1000
0000
0001
0000
0100
0001
0100
0000
0001
0000
1000
0100
1000
0000
,
0001
0000
0100
0001
0100
0010
1000
0000
0010
0000
0100
0000
0001
0000
0010
0000
,
0200
0000
0000
0000
1300
0000
0100
0010
0100
0000
1000
0000
0100
0000
0010
0000
,
0001
1000
0010
0000
0100
0010
1000
0000
0001
0000
0010
0000
0100
0000
0000
0000
,
1000
0100
1000
0000
0001
0010
0001
0000
0100
0010
0100
0000
0001
0000
0001
0000
,
1000
0100
1000
0000
0100
0010
0100
0000
0010
0001
0010
0000
0100
0000
0100
0000
,
1000
1000
0010
0010
0100
0100
0001
0001
,
1000
0100
1000
0001
0100
0001
1000
0100
0010
0000
0001
0000
1001
0000
0000
0000
,
1010
1001
0000
0000
0000
0000
0000
0000
,
0011
1001
0000
0000
0000
0000
0000
0000
,
1100
1001
0000
0000
0000
0000
0000
0000
,
0110
0000
0000
0000
1001
0000
0000
0000
0010
0000
0000
0100
0000
0000
0010
0000
,
1000
0000
0100
1000
0010
0000
0100
0000
0001
0010
0001
0010
0100
0000
1000
0000
,
0001
0000
0100
0001
0010
0000
0100
0000
1000
0010
1000
0010
0100
0000
0010
0000
,
0100
0001
0010
0100
1000
0010
0100
0100
,
0001
0000
0100
0010
0100
0010
1000
0001
0100
0000
0010
0000
1000
0000
0000
0000
,
0000
0000
0000
0000
;
#NOTES:
     dance-single:
     :
     Challenge:
     17:
     :
0000
0000
0000
0000
,
0000
0000
0000
0000
,
0000
0000
0000
0000
,
0011
1100
1010
0101
,
0110
0000
0000
1000
0010
0100
0001
0000
2002
0000
0000
0000
0000
0000
3003
0000
,
0001
0010
0100
0001
0100
0000
1000
0010
0100
1000
0100
0000
0001
0010
0100
0001
,
0100
0000
1000
0000
0001
0010
0001
1000
0001
0000
1000
0000
0010
0100
0010
0000
,
1000
0100
0010
1000
0010
0000
0001
0100
0010
0001
0010
0000
1000
0100
0010
1000
,
0010
0000
0001
0000
0011
0000
0010
0100
1000
0000
0001
0100
0020
0000
0030
0000
,
1000
0010
0100
0001
0010
0000
0100
0001
0100
1000
0100
0000
0010
0001
0100
0010
,
1000
0000
0001
0000
0010
0100
0010
0001
1000
0000
0010
0000
0100
0010
0100
0000
,
0001
0100
0010
1000
0001
0000
1000
0100
0010
0001
1000
0000
0001
0010
0100
1000
,
0001
0100
0001
0100
0010
1000
0010
1000
0001
1000
0001
1000
0002
0000
0003
0000
,
0011
0000
0001
0010
0001
0000
0011
0000
0010
0001
0010
0001
0010
0000
0011
0000
,
0101
0000
0001
0100
0001
0000
0101
0000
0100
0001
0100
0001
0100
0000
0101
0000
,
1100
0000
0100
1000
0100
0000
1100
0000
0100
1000
0100
1000
0100
0000
1100
0000
,
1000
0000
0010
0000
1000
0000
0010
0000
1000
0000
0010
0000
0100
0000
0010
0000
0100
0000
0010
0000
0100
0000
0010
0000
1000
0000
0000
0000
0000
0000
0000
0000
0000
1000
0000
0000
0000
0000
0000
0000
0000
0000
1000
0000
0000
0000
0000
0000
,
1010
0000
0110
0000
0100
0000
0110
0000
0010
1000
0001
0000
0010
0001
1000
0000
,
1100
0000
0110
0000
0010
0000
0110
0000
0100
1000
0001
0000
0100
0001
1000
0000
,
1100
0000
0110
0000
0010
0001
0100
0000
0010
1000
0100
0000
0010
0100
0010
0100
,
0010
0000
0001
0010
0100
1000
0100
0010
0001
0000
0001
0000
1001
0000
0000
0000
,
1000
0000
0100
0010
0100
0000
1000
0000
0001
0010
0100
0000
1000
0010
0100
0000
,
0001
0000
0100
0010
0100
0000
0001
0000
1000
0010
0100
0000
0001
0010
0100
0000
,
1000
0000
0010
0001
0010
0000
1000
0000
0001
0010
1000
0000
1000
0010
0001
0000
,
1000
0000
1100
0000
0010
0000
0011
0000
0001
1000
0000
0001
1000
0000
1001
0000
,
0001
0000
0100
0010
0100
0000
0001
0000
1000
0010
0100
0000
0001
0010
0100
0000
,
1000
0000
0100
0010
0100
0000
1000
0000
0001
0010
0100
0000
1000
0010
0100
0000
,
0001
0000
0010
1000
0010
0000
0001
0000
1000
0010
0000
0001
0010
0000
1000
0000
,
2002
0000
0000
3003
,
1000
1000
0100
0100
0010
0000
0001
1000
,
1001
0110
2002
3003
,
1000
0010
0001
1000
0200
0000
0301
1000
,
0002
0010
0100
0103
,
0001
0100
1000
1000
0100
0001
0001
0010
,
2000
0000
3020
0000
0032
0000
1003
0010
,
0110
0000
0001
0010
0110
0000
1000
0001
,
2002
0000
0000
0000
3003
0000
0000
0000
0001
0010
0000
0001
0100
0000
0001
0000
,
1001
0000
1000
0010
1000
0000
1010
0000
1000
0001
1000
0100
1000
0000
1100
0000
,
1001
0000
0001
0010
0001
0000
0011
0000
0001
1000
0001
0100
0001
0000
0101
0000
,
0001
0010
0100
1000
0000
0001
0001
0000
1000
0010
0100
0001
0000
1000
1000
0000
,
0001
1000
0010
0100
0000
0110
0110
0000
2002
0000
0000
0000
3003
0000
0000
0000
,
0000
0000
1010
0000
0101
0000
0000
0002
,
0000
0103
1000
0100
0002
0000
0003
0000
,
0001
0010
0100
1000
0010
0000
1000
0100
0010
0001
1000
0001
0010
0001
1000
0001
,
0010
0100
0010
0000
0001
1000
0001
1000
0010
0100
0000
0010
0100
0000
0110
0000
,
0000
0000
0011
0000
1100
0000
0000
2000
,
0000
3100
0001
0100
2000
0000
3000
0000
,
1000
0010
0100
0001
0010
0000
0001
0100
0010
1000
0001
1000
0010
1000
0001
1000
,
0010
0000
0000
0100
0000
0000
0010
0000
0000
0000
0000
0000
0110
0000
0000
0000
0000
0000
1001
0000
0000
0000
0000
0000
0001
0000
0010
0000
0100
0000
1000
0000
0100
0000
0010
0000
0001
0000
0000
0000
0000
0000
0000
0000
0000
0000
0000
0000
,
1000
0100
1000
0000
0100
0010
0100
0000
0010
0001
0010
0000
0001
1000
0001
0000
,
1000
0000
0010
0100
0010
0100
0001
0000
0010
0100
0010
0100
1000
0000
0000
0000
,
0001
0100
0010
1000
0001
0010
0100
1000
0001
0100
0010
0000
1000
0010
0100
0001
,
1000
0000
0100
0000
0001
0100
1000
0000
0001
0010
0000
0100
1000
0000
1001
0000
,
0000
0000
0110
0000
1001
0000
1000
0020
,
0000
0100
1000
0100
2030
0000
0001
0001
,
0000
0200
0000
0000
0000
0000
3300
0100
,
0110
0000
0010
0001
0100
0001
0010
0001
0100
0000
0100
0000
0110
0000
0000
0000
,
0010
0001
0010
0000
1000
0000
0010
0001
0010
0000
1000
0000
0100
0001
0100
0000
,
1000
0000
0001
0010
0100
0001
0100
0001
0100
1000
0100
0000
1100
0000
0110
0000
,
0012
0000
1003
0000
2100
0000
3001
0100
0010
0000
1020
0000
2030
0000
3002
0000
,
1003
0100
0010
1000
0010
0100
1000
0010
0200
0000
1000
0000
0301
0000
0001
0000
,
1000
0100
1000
0001
0100
0001
1000
0010
1000
0001
0010
0001
2000
0000
3001
0010
,
0100
1000
0001
0100
0001
1000
0010
1000
0001
0010
0001
1000
0010
0000
0110
0000
,
0100
0010
0100
0010
1000
0010
1000
0010
1000
0001
1000
0001
0010
0001
0010
0001
,
1000
0100
0001
0100
1000
0010
0001
0010
1000
0000
0001
0000
1001
0000
0000
0000
,
0011
0000
0010
0001
0001
0010
0001
0000
0001
0010
0010
0001
0010
0000
0011
0000
,
1010
0000
1000
0010
0010
1000
0010
0000
0010
1000
1000
0010
1000
0000
1010
0000
,
1100
0000
1000
0100
0100
1000
0100
0000
0100
1000
1000
0100
1000
0000
1100
0000
,
0001
0000
0100
0000
0001
0000
0100
0000
0001
0000
0100
0000
0001
0000
1000
0000
0001
0000
1000
0000
0001
0000
1000
0000
0001
0000
0000
0000
0000
0000
0000
0000
0000
0001
0000
0000
0000
0000
0000
0000
0000
0000
0001
0000
0000
0000
0000
0000
,
0011
0000
0001
1000
0010
0000
1010
0000
1000
0100
0010
0100
1000
0010
0100
0000
,
0101
0000
0001
0010
0100
0000
0110
0000
0100
1000
0001
1000
0100
0010
0001
0000
,
0011
0000
0001
0010
1000
0000
1010
0000
1000
0010
0001
1000
0100
0010
0001
0000
,
1001
0000
1000
0010
0100
0001
0010
0100
1000
0100
0002
0000
1003
0000
0000
0000
,
0000
0000
0000
0000
;
#NOTES:
     dance-double:
     :
     Easy:
     7:
     :
00000000
00000000
00000000
00000000
,
00000000
00000000
00000000
00000000
,
00000000
00000000
00000000
00000000
,
10000000
01000000
00010000
00001000
,
00000100
00000000
00001001
00000000
,
00000001
00000010
00000001
00000100
,
00000010
00010000
01000000
10000000
,
10000000
00100000
10000000
01000000
,
00100000
00001000
00000100
00000001
,
00000010
00000001
00001000
00000100
,
00010000
01000000
10000000
00100000
,
00100000
10000000
00010000
01000000
,
00001000
00000100
00000001
00000010
,
00001001
00000000
00000100
00010000
,
00011000
00000000
01000000
00100000
,
10010000
00000000
00100000
00001000
,
00022000
00000000
00000000
00033000
,
00001000
00100000
00010000
10010000
,
10000000
00100000
01000000
01100000
,
00100000
00010000
00001000
00000100
,
00002002
00000000
00000000
00003003
,
00000001
00000010
00000100
00000100
,
00001000
00000010
00000001
00000100
,
00001000
00000100
00010000
00010000
,
01000000
00100000
01000000
01000000
,
00100000
00010000
10000000
10000000
,
01000000
00010000
00001000
00001000
,
00000100
00000010
00001000
00000001
,
00002002
00000000
00000000
00003003
,
00000001
00000000
00000000
00000100
00000010
00000000
00001000
00000000
,
00000100
00010000
02000000
03000000
,
10000000
01000000
00100000
00001000
,
00020000
00000000
00000000
00030000
,
00001000
00001000
00010000
00010000
,
00000100
00000010
00000001
00000000
,
00002000
00003000
00000200
00000300
,
00020000
00000000
00031000
00001000
,
00010000
00010000
01000000
10010000
,
01000000
00010000
00001000
00011000
,
00001000
00000000
00000000
00001000
00000000
00000000
00001000
00000000
00010000
00000000
00000000
00010000
00000000
00000000
00010000
00000000
,
00001000
00000000
00000000
00001000
00000000
00000000
00001000
00000000
00001000
00000000
00000000
00000000
00000000
00000000
00000000
00000000
,
00000000
00000110
00001001
00000000
,
00000010
00000100
00000110
00000000
,
00000001
00000100
00001000
00010000
,
01000000
10000000
00100000
01000000
,
00000000
01100000
10010000
00000000
,
00100000
01000000
01100000
00000000
,
10000000
01000000
00010000
00001000
,
00000100
00000010
00000100
00000010
00000000
00000000
00000000
00000000
,
00000000
00000110
00001001
00000000
,
00000100
00000010
00000110
00000000
,
00000001
00000110
00001000
00011000
,
00010000
00100000
10000000
01000000
,
00000000
10010000
01100000
00000000
,
00100000
00000000
10000000
00000000
01000000
00000000
00010000
00001000
,
00000000
00000100
00000000
00000000
00000000
00000000
00000000
00000000
,
00000001
00000000
00001000
00000000
00000100
00000100
00000100
00000000
,
00001000
00000100
00010000
00001000
,
00100000
00010000
01000000
00100000
,
20000000
30000000
10000000
00100000
,
01000000
00000000
00001000
00000000
00010000
00010000
00010000
00000000
,
00001000
00001000
00010000
00010000
,
00000100
00000100
00000010
00000010
,
00000001
00000100
00001000
00010000
,
01000000
10000000
00100000
01000000
,
01100000
00000000
00000000
00000000
,
00011000
00000000
00000000
00000000
,
00000110
00000000
00000000
00000000
,
00000010
00000000
00000000
00000000
00000100
00000000
00000000
00000000
00000010
00000000
00000000
00000010
00000000
00000000
00000010
00000000
,
00000100
00000010
00001000
00001000
,
00000100
00010000
00001000
00001000
,
01000000
00010000
00100000
01000000
,
02200000
00000000
00000000
03300000
,
00000000
00000000
00000000
00000000
;
#NOTES:
     dance-double:
     :
     Medium:
     11:
     :
00000000
00000000
00000000
00000000
,
00000000
00000000
00000000
00000000
,
00000000
00000000
00000000
00000000
,
10000000
01000000
00010000
00001000
,
00000100
00000000
00001001
00000000
,
00000001
00000100
00000010
00000000
00001000
00000100
00010000
00000000
,
00001000
00001000
00010000
00010000
01000000
00100000
01000000
00000000
,
10000000
01000000
00100000
00000000
00010000
01000000
00001000
00000000
,
00010000
00010000
00001000
00001000
00000100
00000010
00000100
00000000
,
00000001
00000100
00001000
00000000
00000100
00001000
00010000
00000000
,
01000000
01000000
00100000
00100000
00010000
10000000
01000000
00000000
,
10000000
01000000
00010000
00000000
01000000
00010000
00001000
00000000
,
00000100
00000100
00000010
00000010
00001000
00000001
00000100
00000000
,
00000101
00000101
00000000
00000000
00000000
00000000
00000000
00000000
,
00011000
00011000
00000000
00000000
00000000
00000000
00000000
00000000
,
11000000
11000000
00000000
00000000
00000000
00000000
00000000
00000000
,
10000000
00000000
00000000
00000000
00010000
00000000
00000000
00000000
00100000
00000000
00000000
00001000
00000000
00000000
00010000
00000000
,
00001000
00000100
00000010
00001000
00000100
00000000
00000110
00000000
,
00000001
00000100
00001000
00010000
00001000
00000000
00011000
00000000
,
00010000
01000000
10000000
01000000
00100000
00000000
01100000
00000000
,
10000000
01000000
00100000
00010000
01000000
00100000
20000000
00000000
,
30000000
00100000
10000000
00100000
01000000
00010000
00100000
01000000
,
00000000
10000000
01000000
00010000
00001000
00000100
00000001
00000010
,
00000000
00000001
00000100
00000010
00001000
00000001
00000100
00000010
,
00000100
00000000
00000100
00000000
00001000
00000000
00001000
00000000
00010000
00000000
00000000
00001000
00000000
00000000
00010000
00000000
,
00000000
00001000
00100000
00010000
01000000
00100000
10000000
01000000
,
00000000
10000000
01000000
00010000
00001000
00010000
00001000
00100000
,
00000000
00000000
00001000
00000000
00010000
00000000
00001000
00000000
00000100
00000000
00000000
00000010
00000000
00000000
00001000
00000000
,
00000002
00000000
00000000
00000003
,
00000100
00000000
00000010
00000100
00000010
00000000
00000100
00001000
,
00010000
00001000
00022000
00033000
,
00001000
00010000
01000000
00100000
00010000
00000000
00010000
01000000
,
00200000
00300000
01010000
11000000
,
10000000
01000000
00010000
00001000
00010000
00000000
00001000
00000100
,
00000002
00002003
00003020
00000030
,
00000220
00000000
00000330
00000000
00001001
00000000
00000100
00010000
,
00002000
00000000
00000000
00000000
00000000
00000000
00000000
00000000
00013000
00000000
00000000
00001000
00000000
00000000
00011000
00000000
,
00000000
00001000
00010000
01000000
10000000
00100000
01000000
01000000
,
00000000
00010000
00100000
10000000
00100000
00010000
01000000
01000000
,
00001000
00000000
00000000
00001000
00000000
00000000
00001000
00000000
00010000
00000000
00000000
00010000
00000000
00000000
00010000
00000000
,
00000100
00000000
00000000
00000010
00000000
00000000
00000100
00000000
00000110
00000000
00000000
00000000
00000000
00000000
00000000
00000000
,
00000000
00000000
00000011
00000000
00001100
00000000
00000001
00000200
,
00000000
00000301
00000100
00000001
00000100
00000000
00001001
00000000
,
00000100
00000100
00010000
00010000
00001000
00010000
01000000
00100000
,
00010000
00000000
00010000
00000000
10000000
00000000
10000000
00000000
00100000
00000000
00000000
01000000
00000000
00000000
00100000
00000000
,
00000000
00000000
10100000
00000000
01010000
00000000
10000000
02000000
,
00000000
13000000
01000000
10000000
01000000
00000000
10010000
00000000
,
01000000
01000000
00001000
00001000
00010000
00001000
00000100
00000010
,
00001000
00000010
00000100
00000001
00000000
00001000
00001000
00000000
,
00000000
00000000
00000110
00000000
00001001
00000000
00000001
00002000
,
00000000
00003001
00001000
00000001
00001000
00000000
00000110
00000000
,
00000001
00000100
00001000
00000000
00000100
00001000
00010000
00000000
,
01000000
00000000
01000000
00000000
00100000
00000000
00100000
00000000
00010000
00000000
00000000
10000000
00000000
00000000
00010000
00000000
,
00000000
00000000
01100000
00000000
10010000
00000000
00000000
20000000
,
00000000
30100000
01000000
00010000
00200000
00000000
00301000
00010000
,
00000000
00022000
00000000
00000000
00000000
00033000
00000000
00001000
,
00010000
00001000
00100000
00010000
01000000
01000000
01000000
00000000
,
00010000
00010000
01000000
00100000
00100000
10000000
01000000
01000000
,
00100000
00001000
00010000
00001000
00000100
00000010
00001000
00000001
,
00002000
00000000
00000000
00003001
00000010
00001000
00000010
00000001
,
00001000
00001000
00000001
00000001
00000100
00001000
00010000
00000000
,
00001000
00001000
00010000
00010000
00001000
00001000
00200000
00000000
,
00310000
00010000
10000000
10000000
00010000
00010000
00100000
01000000
,
00100000
00010000
00100000
00010000
01000000
00001000
01000000
00001000
,
00010000
00001000
00000100
00000010
00001000
00000001
00000010
00000000
,
00000110
00000110
00000000
00000000
00000000
00000000
00000000
00000000
,
00011000
00011000
00000000
00000000
00000000
00000000
00000000
00000000
,
01100000
01100000
00000000
00000000
00000000
00000000
00000000
00000000
,
01100000
00000000
00000000
00000000
10010000
00000000
00000000
00000000
01000000
00000000
00000000
00100000
00000000
00000000
01000000
00000000
,
00000000
10000000
01000000
00100000
00010000
00010000
00100000
00001000
,
00000000
00010000
00001000
00010000
00000100
00000100
00000010
00000001
,
00000000
00000001
00001000
00000100
00010000
00010000
00001000
00010000
,
00002000
00000000
00000000
00000000
00010000
00010000
00013000
00000000
,
00000000
00000000
00000000
00000000
;
#NOTES:
     dance-double:
     :
     Hard:
     14:
     :
00000000
00000000
00000000
00000000
,
00000000
00000000
00000000
00000000
,
00000000
00000000
00000000
00000000
,
10000000
01000000
00010000
00001000
,
00000100
00000000
00001001
00000000
,
00001000
00000010
00000001
00000010
00001000
00000100
00010000
00001000
,
00010000
00010000
00001000
00001000
00100000
00010000
01000000
00000000
,
00010000
00100000
10000000
00100000
00010000
01000000
00001000
00010000
,
00001000
00001000
00010000
00010000
00000010
00001000
00000100
00000000
,
00000010
00000001
00000100
00001000
00010000
00001000
00010000
00100000
,
01000000
01000000
00100000
00100000
10000000
00100000
01000000
00000000
,
00100000
10000000
01000000
00010000
00001000
00010000
00001000
00000010
,
00000100
00000100
00000010
00000010
00000001
00000010
00000100
00000000
,
00001000
00000000
00000100
00000010
00000100
00000000
00001000
00000000
00000010
00000100
00000010
00000000
00001000
00000000
00000100
00000000
,
00000000
00000000
00001000
00000100
00001000
00000000
00000100
00000000
00010000
00001000
00010000
00000000
00001000
00000000
00100000
00000000
,
00000000
00000000
01000000
10000000
01000000
00000000
00100000
00000000
00010000
01000000
00010000
00000000
00100000
00000000
00001000
00000000
,
00020000
00000000
00000000
00000000
00032000
00000000
00000000
00000000
00003200
00000000
00000000
00000302
00000000
00000000
00000013
00000000
,
00000001
00000000
00000001
00000000
00000100
00000000
00000010
00000000
00000100
00000010
00000100
00000000
00000010
00001000
00000010
00000000
,
00001000
00000000
00001000
00000000
00000100
00000000
00010000
00000000
00001000
00010000
00001000
00000000
00100000
00010000
00100000
00000000
,
01000000
00000000
01000000
00000000
10000000
00000000
00100000
00000000
01000000
00100000
01000000
00000000
00010000
00100000
00010000
00000000
,
02000000
00000000
00000000
00000000
00010000
00010000
03010000
00000000
,
00000000
00000000
00001000
00000000
00010000
00000000
00000100
00000000
00001000
00000100
00010000
00000000
00001000
00000000
00010000
00000000
,
01000000
10000000
00100000
00010000
00001000
00000100
00000001
00000010
,
00000100
00000000
00000010
00000001
00000010
00000000
00000100
00000000
00001000
00000100
00001000
00000000
00000100
00000000
00010000
00000000
,
00001000
00010000
00001000
00000000
00100000
00010000
00100000
00000000
01000000
00000000
00000000
10000000
00000000
00000000
00100000
00000000
,
00000000
00000000
01000000
00100000
01000000
00000000
00010000
00000000
00100000
00010000
00100000
00000000
00001000
00000000
00010000
00000000
,
00000100
00000000
00001000
00000100
00000010
00000000
00000001
00000000
00000100
00000010
00001000
00000000
00000100
00000000
00010000
00000000
,
00001000
00000000
00010000
00001000
00010000
00000000
01000000
00000000
00100000
00000000
00000000
00010000
00000000
00000000
00100000
00000000
,
00002000
00000000
00000000
00003000
,
00011000
00000000
00001000
00100000
00010000
00000000
01000000
00000000
,
01010000
11000000
20020000
30030000
,
10000000
01000000
00010000
00001000
00000100
00000000
00000001
00000100
,
00000020
00000000
00000130
00001001
,
00000010
00000100
00001000
00010000
00001000
00000000
00010000
00100000
,
02000000
03200000
20300000
30000000
,
00020000
00000000
00030000
00000000
00200000
00000000
00310000
01000000
,
00002000
00000000
00000000
00000000
00003000
00000000
00000000
00000000
00010000
00000000
00000000
00001000
00000000
00000000
00011000
00000000
,
00000000
00000000
00001000
00010000
00000100
00000000
00000010
00000000
00000001
00000010
00000001
00000010
00000001
00000000
00001000
00000000
,
00000000
00000000
00000100
00010000
00001000
00000000
00010000
00000000
00001000
00010000
00001000
00010000
00001000
00000000
01000000
00000000
,
01001000
00000000
00000000
00011000
00000000
00000000
00110000
00000000
10100000
00000000
00000000
11000000
00000000
00000000
01010000
00000000
,
00110000
00000000
00000000
00011000
00000000
00000000
00001100
00000000
00001001
00000000
00000000
00000000
00000000
00000000
00000000
00000000
,
00000010
00000000
00001010
00000000
00000011
00000000
00000100
00000020
,
00000000
00000130
00000010
00000100
00000010
00000000
00001001
00000000
,
00000001
00000100
00000010
00000000
00001000
00000100
00001000
00000100
00010000
00000000
00001000
00010000
00001000
00000000
00100000
00000000
,
00010000
00100000
00010000
00000000
01000000
00100000
01000000
00000000
00100000
00000000
00000000
10000000
00000000
00000000
10010000
00000000
,
00000000
00000000
10100000
00000000
00110000
00000000
10000000
00020000
,
00000000
10030000
00010000
10000000
00010000
00000000
00000000
00000000
,
10000000
01000000
00100000
00000000
00010000
01000000
00010000
01000000
00001000
00000000
00010000
00001000
00010000
00000000
00000010
00000000
,
00001000
00000100
00000010
00000001
00001000
00000000
00001001
00000000
,
00000010
00000000
00001010
00000000
00000101
00000000
00000010
00000200
,
00000000
00000310
00000100
00000010
00000100
00000000
00000000
00000000
,
00000001
00000100
00000010
00000000
00001000
00000000
00000100
00000000
00010000
00001000
01000000
00000000
00100000
00000000
10000000
00000000
,
00010000
01000000
00100000
00000000
10000000
01000000
00100000
00000000
00010000
00000000
00000000
01000000
00000000
00000000
10010000
00000000
,
00000000
00000000
01100000
00000000
10010000
00000000
01000000
00200000
,
00000000
01300000
00100000
10000000
00010000
00000000
10000000
00010000
,
00000000
20020000
00000000
00000000
00000000
00000000
30030000
00100000
,
00001000
00000000
00010000
00001000
00010000
00001000
00010000
00000000
00001000
00000000
00010000
00000000
00011000
00000000
00000000
00000000
,
00100000
00010000
00100000
00000000
00001000
00000000
00010000
00001000
00010000
00000000
00000100
00000000
00001000
00000100
00001000
00000000
,
00000010
00000000
00000100
00000001
00000100
00000010
00001000
00000000
00000100
00000000
00000001
00000000
00000100
00000000
00001000
00000000
,
00000200
00000000
00000000
00000000
00010300
00000000
00001000
00010000
00001000
00000000
00100000
00000000
00010000
00000000
01000000
00000000
,
00100000
10000000
00100000
00000000
01000000
00010000
01000000
00000000
00001000
00000000
00010000
00000000
00011000
00000000
00000000
00000000
,
00001000
00010000
00000100
00000000
00010000
00001000
00100000
00000000
00001000
00010000
00001000
00000000
00010000
00000000
01000000
00000000
,
10000000
01000000
00100000
00000000
01000000
00100000
00010000
00000000
00100000
00010000
00001000
00000000
00000100
00000000
00000100
00000000
,
00001000
00001000
00000100
00000100
00010000
00010000
00001000
00001000
,
00010000
00001000
00010000
00000000
00001000
00010000
01000000
00000000
00100000
00000000
00010000
00000000
01000000
00000000
00000000
00000000
,
00110000
00011000
00000000
00000000
00000000
00000000
00000000
00000000
,
00011000
00001100
00000000
00000000
00000000
00000000
00000000
00000000
,
00000011
00001001
00000000
00000000
00000000
00000000
00000000
00000000
,
00011000
00000000
00000000
00000000
00110000
00000000
00000000
00000000
00100000
00000000
00000000
01000000
00000000
00000000
00100000
00000000
,
00010000
00000000
10000000
00010000
01000000
00000000
00100000
00000000
01000000
00010000
01000000
00010000
00100000
00000000
00001000
00000000
,
00010000
00000000
00001000
00010000
00000010
00000000
00001000
00000000
00000001
00000100
00000001
00000100
00000010
00000000
00000100
00000000
,
00000010
00001000
00001000
00000100
00010000
00010000
00001000
00010000
,
00001000
00000000
00010000
01000000
00010000
01000000
00010000
00000000
01000000
00000000
10000000
00000000
00010000
00000000
00000000
00000000
,
00000000
00000000
00000000
00000000
;
#NOTES:
     dance-double:
     :
     Challenge:
     17:
     :
00000000
00000000
00000000
00000000
,
00000000
00000000
00000000
00000000
,
00000000
00000000
00000000
00000000
,
00001000
00010000
00100000
00000000
00010000
00001000
00000010
00001000
,
00011000
00000000
00000000
00010000
00001000
00010000
00001000
00000000
00022000
00000000
00000000
00000000
00000000
00000000
00033000
00000000
,
00001000
00100000
00010000
01000000
00010000
00000000
00100000
00001000
00010000
00001000
00100000
00000000
00010000
01000000
00010000
01000000
,
00100000
00000000
10000000
00000000
01000000
00010000
00001000
00000000
00000010
00000000
00000011
00000000
00000001
00001000
00000001
00000000
,
00000100
00000010
00001000
00000100
00001000
00000000
00000010
00010000
00001000
00010000
00000010
00000000
00001000
00000100
00010000
00001000
,
00010000
00000000
00001000
00000000
00011000
00000000
00010000
00100000
10000000
00000000
00100000
00000000
02200000
00000000
03300000
00000000
,
10000000
01000000
00100000
00010000
10000000
00000000
01000000
00100000
00001000
00010000
00001000
00000000
00010000
00000100
00001000
00000010
,
00000100
00000000
00001000
00000000
00000100
00000010
00000100
00000001
00001000
00000000
00000100
00000000
00000010
00000001
00001000
00000000
,
00000001
00000010
00000100
00000010
00000100
00001000
00000100
00010000
00001000
00010000
00001000
00000000
00010000
00001000
01000000
00001000
,
01000000
00010000
01000000
00010000
01000000
00100000
01000000
00100000
10000000
00010000
10000000
00010000
20000000
00000000
30000000
00000000
,
11000000
00000000
01000000
00100000
00010000
00000000
00110000
00000000
00010000
00100000
00001000
00010000
00001000
00000000
00011000
00000000
,
00010000
00000000
00000100
00001000
00000100
00000000
00001100
00000000
00001000
00000010
00000100
00000001
00000100
00000000
00000101
00000000
,
00001001
00000000
00000001
00000010
00000100
00000000
00000110
00000000
00000010
00000100
00001000
00000100
00010000
00000000
00011000
00000000
,
00001000
00000000
00010000
00000000
00001000
00000000
00010000
00000000
00001000
00000000
00010000
00000000
00001000
00000000
01000000
00000000
00001000
00000000
01000000
00000000
00001000
00000000
01000000
00000000
00001000
00000000
00000000
00000000
00000000
00000000
00000000
00000000
00000000
00001000
00000000
00000000
00000000
00000000
00000000
00000000
00000000
00000000
00001000
00000000
00000000
00000000
00000000
00000000
,
00011000
00000000
00010000
00100000
10000000
00000000
10000000
01000000
00010000
00000000
00011000
00000000
00001000
00000000
00010000
00000000
,
00011000
00000000
00001000
00000010
00000001
00000000
00000001
00000100
00001000
00000000
00011000
00000000
00010000
00000000
00001000
00000000
,
00011000
00000000
00001000
00100000
01000000
00000000
00100000
00001000
00010000
00000000
00010000
00000010
00000100
00000000
00000010
00010000
,
00001000
00000000
00010000
00001000
00010000
00010000
00001000
00001000
00010000
00000000
00010000
00000000
00011000
00000000
00000000
00000000
,
00001000
00000000
01000000
10000000
01000000
00000000
00001000
00000000
00100000
01000000
00100000
00000000
00001000
00000000
00011000
00000000
,
00010000
00000000
00000100
00000001
00000100
00000000
00010000
00000000
00000010
00000100
00000010
00000000
00010000
00000000
00011000
00000000
,
00001000
00000000
00010000
00100000
10000000
00000000
01100000
00000000
10000000
01000000
00010000
00000000
00001000
00000000
00011000
00000000
,
00010000
00000100
00000010
00000000
00000001
00000100
00001000
00000000
00000100
00000010
00000000
00000100
00000010
00000000
00000110
00000000
,
00000001
00000000
00000100
00000010
00000100
00000000
00001000
00000000
00010000
00001000
00010000
00000000
00001000
00010000
00001000
00000000
,
00011000
00000000
00010000
00100000
01000000
00000000
01100000
00000000
00100000
01000000
00100000
00000000
10000000
00010000
10000000
00000000
,
00010000
10000000
01000000
00000000
00010000
00001000
00000010
00000000
00000001
00000100
00000000
00000001
00000010
00000000
00001000
00000000
,
00020000
00000000
00000000
00030000
,
00001000
00000000
00001000
00010000
00100000
00000000
00100000
10000000
,
00020000
02030000
03200000
00300000
,
00100000
10000000
00010000
00100000
00002000
00000000
00013000
00000010
,
00002000
00000010
00000001
00000100
,
00003001
00000010
00001000
00010000
01000000
00000000
10000000
00100000
,
00020000
00000000
10030000
01000000
00020000
00000000
10030000
01000000
,
01100000
00100000
00001000
00010000
00010010
00000010
00001000
00000100
,
00000220
00000000
00000000
00000000
00000330
00000000
00000000
00000000
00000001
00000010
00000000
00000100
00001000
00000000
00000001
00000000
,
00000100
00000000
00010000
00000000
01000000
00000000
10000000
00000000
00010000
00100000
10000000
00000000
00010000
00100000
01000000
00000000
,
00010000
00000000
00000100
00000000
00000010
00000000
00001000
00000000
00000001
00000100
00001000
00000000
00000001
00000100
00001000
00000000
,
00010000
00100000
00000000
10100000
00000000
00000000
10000000
00000000
01000000
00010000
00000000
00011000
00000000
00000000
00001000
00000000
,
00000010
00000001
00000000
00000011
00000000
00000000
00000001
00000100
00001000
00000000
00000000
00000000
00011000
00000000
00000000
00000000
,
00000000
00000000
00101000
00000000
00010100
00000000
00010000
00002000
,
00000000
00013000
01000000
00010000
00002000
00000000
00003000
00000000
,
00001000
01000000
00100000
00010000
00100000
00000000
01000000
00001000
00010000
00001000
00000010
00000000
00000100
00010000
00001000
00010000
,
00000100
00000010
00000100
00000000
00010000
00001000
00010000
00000000
00100000
01000000
00000000
00100000
00010000
00000000
00011000
00000000
,
00000000
00000000
00010010
00000000
01001000
00000000
00001000
00020000
,
00000000
00031000
00000010
00001000
00020000
00000000
00030000
00000000
,
00010000
00000100
00000010
00000100
00001000
00000000
00000010
00000100
00010000
00000000
01000000
00000000
00100000
00010000
00100000
01000000
,
00001000
00000000
00000000
00011000
00000000
00000000
00010000
00000000
00000000
00011000
00000000
00000000
00001000
00010000
00001000
00010000
00001000
00010000
00001000
00000000
00000000
00000000
00000000
00000000
,
00010000
00001000
00010000
00000000
00001000
01000000
00001000
00000000
01000000
00010000
01000000
00000000
00010000
10000000
00010000
00000000
,
10000000
00000000
01000000
00100000
01000000
00100000
00010000
00000000
00100000
00001000
00100000
00001000
00010000
00000000
00000000
00000000
,
00001000
00010000
00000100
00001000
00000010
00000100
00000010
00001000
00000100
00010000
00001000
00010000
00000100
00001000
00000010
00000100
,
00000010
00000000
00001010
00000000
00001000
00000000
00001001
00000000
00000001
00000010
00000000
00001000
00010000
00000000
00011000
00000000
,
00000000
00000000
00101000
00000000
00010100
00000000
00010000
00002000
,
00000000
00013000
01000000
00010000
00002000
00000000
00010000
00023000
,
00000000
00002000
00000000
00000000
00000000
00000000
00033000
00000000
,
00011000
00000000
00010000
00001000
00100000
00010000
00100000
01000000
10000000
00000000
10000000
00000000
10010000
00000000
00000000
00000000
,
10000000
01000000
00010000
00000000
00011000
00000000
00001000
00000010
00000001
00000000
00001001
00000000
00000001
00000100
00001000
00000000
,
00011000
00000000
00010000
00100000
10000000
00000000
10010000
00000000
10000000
01000000
00100000
00010000
00001000
00000100
00000010
00000001
,
00002000
00000000
00003010
00000100
00000020
00000000
00010030
00001000
00020000
00000000
00031000
00100000
02000000
00000000
23000000
00000000
,
30010000
01000000
00100000
01000000
00001000
00010000
00001000
00000000
00011000
00000000
00010000
00000100
00000010
00000000
00000000
00000000
,
00000001
00000100
00000000
00000010
00001000
00000000
00010000
01000000
00000000
00100000
10000000
00000000
00020000
00000000
10030000
00010000
,
10000000
01000000
00000000
00100000
00010000
00000000
00001000
00000100
00000000
00000010
00000001
00000000
00002000
00000000
00003001
00000100
,
00000001
00000010
00000001
00000010
00000100
00001000
00000100
00001000
00000100
00010000
00000100
00010000
00001000
00010000
00001000
00000000
,
01000000
00010000
01000000
00010000
01000000
00100000
01000000
00100000
10000000
00000000
00010000
00000000
10010000
00000000
00000000
00000000
,
01100000
00000000
10000000
01000000
00010000
00001000
00000010
00000000
00000001
00001000
00000001
00000000
00000100
00000010
00000100
00000000
,
00000110
00000000
00000001
00000100
00001000
00010000
00100000
00000000
10000000
00010000
10000000
00000000
00100000
01000000
00100000
00000000
,
01100000
00000000
10000000
01000000
00010000
00001000
00000010
00000000
00000001
00000010
00000100
00000000
00001000
00000100
00010000
00000000
,
00001000
00000000
00010000
00000000
00001000
00000000
00010000
00000000
00001000
00000000
00010000
00000000
00001000
00000000
00100000
00000000
00001000
00000000
00100000
00000000
00001000
00000000
00100000
00000000
00001000
00000000
00000000
00000000
00000000
00000000
00000000
00000000
00000000
00001000
00000000
00000000
00000000
00000000
00000000
00000000
00000000
00000000
00001000
00000000
00000000
00000000
00000000
00000000
,
00011000
00000000
00010000
00001000
00100000
00000000
00010000
10000000
01000000
00000000
01100000
00000000
00100000
00000000
00010000
00000000
,
00110000
00000000
00100000
00001000
00010000
00000000
00000100
00001000
00000010
00000000
00001010
00000000
00001000
00000000
00000100
00000000
,
00010100
00000000
00000100
00010000
00001000
00010000
00001000
00000000
00010000
00001000
00100000
00000000
00010000
00100000
01000000
00000000
,
01100000
00000000
10000000
01000000
00010000
00001000
00000010
00000000
00000001
00001000
00000002
00000000
00001003
00000000
00000000
00000000
,
00000000
00000000
00000000
00000000
;
