
//----- song ID: losp -----//
#TITLE:ラブキラ☆スプラッシュ;
#ARTIST:BEMANI Sound Team "Sota F." feat.いちか;
#TITLETRANSLIT:Love kira splash;
#ARTISTTRANSLIT:BEMANI Sound Team "Sota F." feat. Ichika;
#BANNER:Love kira splash.png;
#BACKGROUND:Love kira splash-bg.png;
#CDTITLE:./CDTitles/DDR A20.png;
#MUSIC:Love kira splash.ogg;
#SAMPLESTART:41.047;
#SAMPLELENGTH:15;
#BPMS:0=152;
#NOTES:
     dance-single:
     :
     Beginner:
     2:
     :
0000
0000
0000
0000
,
0000
0000
0000
0000
,
0000
0000
0000
0000
,
0000
0000
0000
0000
,
0000
0000
0000
0000
,
0000
0000
0000
0000
,
0010
0000
0000
0000
,
0001
0000
0000
0000
,
0010
0000
0000
0000
,
1000
0000
0000
0000
,
0001
0000
0001
0000
,
0001
0000
0000
0000
,
1000
0000
1000
0000
,
1000
0000
0000
0000
,
0010
0000
0010
0000
,
0010
0000
0000
0000
,
0100
0000
0100
0000
,
0100
0000
0000
0000
,
0001
0000
1000
0000
,
0001
0000
0000
0000
,
1000
0000
0001
0000
,
1000
0000
0000
0000
,
0010
0000
0100
0000
,
0010
0000
0000
0000
,
0100
0000
0010
0000
,
0100
0000
0000
0000
,
0002
0000
0003
0000
,
2000
0000
3000
0000
,
0001
0000
1000
0000
,
0001
0000
1000
0000
,
0020
0000
0030
0000
,
0200
0000
0300
0000
,
0010
0000
0100
0000
,
0010
0000
0000
0000
,
0002
0000
0003
0000
,
0001
0001
0001
0000
,
0020
0000
0030
0000
,
0010
0010
0010
0000
,
2000
0000
3000
0000
,
1000
1000
1000
0000
,
0200
0000
0300
0000
,
0100
0100
0100
0000
,
0001
0000
0000
0000
,
0010
0000
0001
0000
,
1000
0000
0000
0000
,
0010
0000
1000
0000
,
0001
0000
0000
0000
,
0100
0000
0001
0000
,
1000
0000
0000
0000
,
0100
0000
1000
0000
,
0000
0000
0000
0000
,
0001
0000
0001
0000
,
0010
0010
0010
0000
,
1000
0000
1000
0000
,
0020
0000
0030
0000
,
0001
0000
0001
0000
,
0100
0100
0100
0000
,
1000
0000
1000
0000
,
0200
0000
0300
0000
,
0001
0000
1000
0000
,
0010
0010
0010
0000
,
1000
0000
0001
0000
,
0200
0000
0300
0000
,
0001
0000
1000
0000
,
0010
0010
0010
0000
,
1000
0000
0001
0000
,
0200
0000
0300
0000
,
0001
0000
0000
0000
,
0100
0000
0000
0000
,
1000
0000
0000
0000
,
0010
0000
0000
0000
,
0001
0000
0100
0000
,
1000
0000
0100
0000
,
0001
0000
1000
0000
,
2002
0000
0000
3003
,
0000
0000
0000
0000
;
#NOTES:
     dance-single:
     :
     Easy:
     6:
     :
0000
0000
0000
0000
,
0000
0000
0000
0000
,
0000
0000
0000
0000
,
0000
0000
0000
0000
,
0000
0000
0000
0000
,
0000
0000
0000
0000
,
0001
0010
0100
1000
,
0010
1000
2002
3003
,
1000
0010
0100
0001
,
0020
0000
0200
0330
,
0010
0001
0100
0010
,
0100
0000
0100
0000
0001
1000
0001
0000
,
0100
0001
0010
0100
,
0010
0100
1001
0000
,
0010
1000
0100
0010
,
0100
0000
0100
0000
1000
0001
1000
0000
,
0100
1000
0010
0100
,
0002
0000
1000
1003
,
0010
0100
0001
1000
,
0002
0010
1000
0103
,
0010
0100
1000
0001
,
2000
0010
0001
3100
,
1000
0100
0110
0000
,
0001
0100
0110
0000
,
0001
0010
1000
0010
,
0001
0000
1000
0000
0010
0010
0010
0000
,
2000
0000
0000
3000
,
0002
0000
0000
0003
,
1000
0010
0001
0100
,
1000
0001
1000
0000
,
0002
0000
0000
0003
,
2000
0000
0000
3000
,
0001
0010
1000
0100
,
0001
1000
0001
0000
,
0002
0000
0103
0100
,
0001
0100
0001
0001
,
2000
0000
3100
0100
,
1000
0100
1000
1000
,
0002
0000
0013
0010
,
0001
0010
0001
0001
,
0110
0000
1001
0110
,
1000
0001
0220
0330
,
0010
0001
0010
0001
,
0100
0001
0100
0001
,
1000
0100
1000
0100
,
1000
0010
1000
0010
,
1000
0100
0010
0001
,
1000
0010
0100
0001
,
1000
0100
0001
0010
,
1000
0100
0001
0010
,
0000
0000
0000
0000
,
0001
1000
0010
0100
,
1001
0110
1001
0000
,
0010
1000
0100
1000
,
0020
0000
0100
0130
,
0001
0010
0100
1000
,
0001
0000
0000
0001
0000
0000
0002
0000
0000
0000
0000
0000
0003
0000
0000
0000
,
1000
0010
0100
0001
,
0020
0000
0100
0130
,
1000
0000
0010
0000
1000
0001
1000
0000
,
0110
1001
0110
0000
,
0010
0001
0100
0001
,
0020
0000
0100
0130
,
1000
0000
0010
0000
0100
0010
0100
0000
,
0001
0000
0000
0001
0000
0000
0002
0000
0000
0000
0000
0000
0003
0000
0000
0000
,
1000
0010
0100
0001
,
0020
0000
0100
0130
,
2000
3100
0002
0103
,
2000
3100
0002
0103
,
2000
3010
0002
0013
,
1000
0001
0110
0000
,
0002
0013
2000
3010
,
0002
0013
2000
3010
,
1001
0000
0000
0000
,
0001
0010
0100
1000
,
0000
0000
0000
0000
;
#NOTES:
     dance-single:
     :
     Medium:
     10:
     :
0000
0000
0000
0000
,
0000
0000
0000
0000
,
0000
0000
0000
0000
,
0000
0000
0000
0000
,
0000
0000
0000
0000
,
0000
0000
0000
0000
,
1000
0000
0000
0100
0000
0000
0001
0000
0000
0100
0000
0000
1000
0000
0000
0000
,
0010
0000
0000
1000
0000
0000
0002
0000
0000
0000
0000
0000
1003
0000
0000
0000
,
0001
0000
0000
0100
0000
0000
1000
0000
0000
0100
0000
0000
0001
0000
0000
0000
,
2000
0000
0002
3003
,
0011
0000
1010
0000
0001
0010
0100
1000
,
0000
0001
1000
0010
0100
0001
0010
0000
,
1100
0000
0101
0000
1000
0010
0100
0001
,
0000
1000
0001
0100
0001
0010
0100
0000
,
1001
0000
0110
0000
1000
0100
1000
0001
,
0000
0100
0010
0100
0001
0010
0100
0000
,
1100
0000
0101
0000
1000
0010
0100
0001
,
2000
0000
0000
3001
0010
0100
1000
0000
,
0020
0000
0130
0010
1000
0000
0001
1000
,
0010
1000
0001
1000
0100
1000
0001
0000
,
0020
0000
0130
0010
0001
0000
1000
0001
,
0010
0001
1000
0001
0100
0001
1000
0000
,
0001
0000
0000
0000
0100
0000
0000
1000
0000
0000
0010
0000
0000
0000
0000
0000
,
1000
0000
0000
0000
0100
0000
0000
0001
0000
0000
0010
0000
0000
0000
0000
0000
,
0200
0000
0310
0100
1000
0000
0001
1000
,
0100
1000
0001
1000
0010
1000
0001
0000
,
0010
0000
0000
0001
0000
0000
1001
0000
0000
0000
0000
0000
0110
0000
0000
0000
,
0010
0000
0000
1000
0000
0000
1001
0000
0000
0000
0000
0000
0110
0000
0000
0000
,
1000
0000
0001
0010
0001
0100
0010
1000
,
0000
0001
0000
0220
0000
0000
0330
0000
,
1000
0000
0000
0001
0000
0000
0101
0000
0000
0000
0000
0000
0110
0000
0000
0000
,
0001
0000
0000
1000
0000
0000
1100
0000
0000
0000
0000
0000
0110
0000
0000
0000
,
0001
0000
1000
0010
1000
0100
0010
0001
,
0000
1000
0000
0220
0000
0000
0330
0000
,
2000
0000
0000
0010
0000
0000
3010
0000
0100
0000
0000
0000
0100
0000
0000
0000
,
1000
0100
0010
0100
1000
0000
1000
0000
,
0002
0000
0000
0010
0000
0000
0013
0000
0100
0000
0000
0000
0100
0000
0000
0000
,
0001
0100
0010
0100
0001
0000
0001
0000
,
2000
0000
0000
0100
0000
0000
3100
0000
0010
0000
0000
0000
0010
0000
0000
0000
,
1000
0010
0100
0010
1000
0000
1000
0000
,
0110
0000
1001
0110
,
0001
0010
0100
0010
0002
0000
0003
0000
,
0010
0000
1000
0100
0010
0001
1000
0010
,
0000
0100
0010
0000
1000
0001
0100
0000
,
0001
0000
0010
0100
1000
0001
0100
0010
,
1000
0001
0100
1001
,
0010
0000
0001
0100
0010
1000
0001
0010
,
0000
0100
0010
0000
0001
1000
0100
0000
,
1000
0000
0010
0100
0001
1000
0100
0000
,
1000
0000
0001
0000
1000
0100
0001
0000
,
0000
0000
0000
0000
,
0010
0000
0000
1000
0000
0000
0100
0000
0000
1000
0000
0000
0010
0000
0000
0000
,
1000
0000
0000
0001
0000
0000
0202
0000
0000
0000
0000
0000
0303
0000
0000
0000
,
1000
0000
0000
0100
0000
0000
0010
0000
0000
0001
0000
0000
1000
0000
0000
0000
,
0020
0000
0100
0130
,
0010
0000
0000
0001
0000
0000
0100
0000
0000
0001
0000
0000
0010
0000
0000
0000
,
0001
0000
0000
1000
0000
0000
2200
0000
0000
0000
0000
0000
3300
0000
0000
0000
,
0001
0000
0000
0100
0000
0000
0010
0000
0000
1000
0000
0000
0001
0000
0000
0000
,
0020
0000
0100
0130
,
1000
0000
0000
0100
0000
0000
0001
0000
0000
0100
0000
0000
1000
0000
0000
0000
,
0010
0000
0000
1000
0000
0000
2002
0000
0000
0000
0000
0000
3003
0000
0000
0000
,
1000
0000
0000
0100
0000
0000
0010
0000
0000
0001
0000
0000
1000
0000
0000
0000
,
0002
0000
0100
0103
,
0001
0000
0000
0100
0000
0000
1000
0000
0000
0100
0000
0000
0001
0000
0000
0000
,
0010
0000
0000
0001
0000
0000
2002
0000
0000
0000
0000
0000
3003
0000
0000
0000
,
0001
0000
0000
0100
0000
0000
0010
0000
0000
1000
0000
0000
0001
0000
0000
0000
,
2000
0000
0100
3100
,
1000
0001
0200
0000
0010
0000
0301
0000
,
0001
1000
0200
0000
0010
0000
1300
0000
,
0010
1000
0100
0000
0010
0001
0100
0001
,
0000
1000
0001
0000
0110
0000
1001
0000
,
1000
0001
0020
0000
0100
0000
0031
0000
,
0001
1000
0020
0000
0100
0000
1030
0000
,
1001
0000
0000
0110
0000
0000
0001
1000
,
0000
0010
1000
0001
0010
0000
0100
0000
,
0000
0000
0000
0000
;
#NOTES:
     dance-single:
     :
     Hard:
     14:
     :
0000
0000
0000
0000
,
0000
0000
0000
0000
,
0000
0000
0000
0000
,
0000
0000
0000
0000
,
0000
0000
0000
0000
,
0000
0000
0000
0000
,
1001
0000
0001
0100
0000
0100
0010
0000
0010
1000
0000
1000
0100
0000
0010
0000
,
0110
0000
0100
0001
0000
0100
2000
0000
0000
0000
0000
0000
3001
0000
0000
0000
,
1010
0000
0010
0001
0000
0001
0010
0000
0010
1000
0000
1000
0100
0000
0010
0000
,
0002
0000
2000
3003
,
1100
0000
0101
0000
1000
0100
0010
0001
,
0000
1000
0001
0100
0010
1000
0100
0000
,
0011
0000
1010
0000
0001
0100
0010
1000
,
0000
0001
1000
0010
1000
0100
0010
0000
,
1001
0000
0110
0000
0001
0010
0001
1000
,
0000
0010
0001
0010
1000
0100
0010
0000
,
0011
0000
1100
0000
0001
1000
0100
0010
,
0002
0000
0000
1003
0010
0100
0001
0000
,
1020
0000
0000
0000
0031
0000
0010
0100
0010
0000
0000
0010
1000
0000
0010
0000
,
0100
0010
0001
0010
0100
0010
1000
0000
,
0021
0000
0000
0000
1030
0000
0010
0100
0010
0000
0000
0010
0001
0000
0010
0000
,
0100
0010
1000
0010
0001
1000
1001
0000
,
1200
0000
0000
0000
0301
0000
0000
1020
0000
0000
0031
0000
0000
0000
0000
0000
,
0201
0000
0000
0000
1300
0000
0000
0021
0000
0000
1030
0000
0000
0000
0000
0000
,
1200
0000
0000
0000
0301
0000
0100
0010
0100
0000
0000
0100
1000
0000
0100
0000
,
0010
0100
0001
0100
1000
0001
1001
0000
,
2020
3030
0000
0202
0303
0000
2002
0000
0000
0000
3003
0000
0110
0000
0000
0000
,
0022
0033
0000
2200
3300
0000
2002
0000
0000
0000
3003
0000
0110
0000
0000
0000
,
0001
0000
0000
0000
1000
0100
0010
0001
1000
0000
0001
0000
0100
0000
0101
0000
,
0000
1100
0000
0220
0000
0000
0330
0000
,
0022
0033
0000
2020
3030
0000
2200
0000
0000
0000
3300
0000
0101
0000
0000
0000
,
2200
3300
0000
2020
3030
0000
0022
0000
0000
0000
0033
0000
0110
0000
0000
0000
,
1000
0000
0000
0000
0001
0100
0010
1000
0001
0000
1000
0000
0100
0000
1100
0000
,
0000
0101
0000
0220
0000
0000
0330
0000
,
1010
0000
0000
0010
1000
0000
0010
0000
0100
0000
0000
0000
0100
0000
0000
0000
,
0001
0100
1000
0100
0001
0000
0001
0000
,
0011
0000
0000
0010
0001
0000
0010
0000
0100
0000
0000
0000
0100
0000
0000
0000
,
1000
0100
0001
0100
1000
0000
1000
0000
,
0101
0000
0000
0100
0001
0000
0100
0000
0010
0000
0000
0000
0010
0000
0000
0000
,
1000
0010
0001
0010
1000
0000
1000
0000
,
0110
0000
1001
0110
,
0001
0010
1000
0010
0002
0000
0003
0000
,
0010
0100
0010
0000
0001
0000
0100
0000
0010
0000
1000
0000
0001
0000
0100
0000
,
0000
1000
0100
0001
1000
0100
0010
0001
,
1000
0001
1000
0000
0010
0000
0100
0000
0001
0000
1000
0000
0100
0000
0010
0000
,
0001
0010
0001
0000
1000
0000
0001
0100
0001
0000
1000
0000
1001
0000
0000
0000
,
0010
0100
0010
0000
1000
0000
0100
0000
0010
0000
0001
0000
1000
0000
0100
0000
,
0000
0001
0100
1000
0001
0100
0010
1000
,
0001
1000
0001
0000
0010
0000
0100
0000
1000
0000
0001
0000
0100
0000
0000
0000
,
0001
0010
1000
0010
0001
0100
1000
0000
,
0000
0000
0000
0000
,
1001
0000
0001
0100
0000
0100
0010
0000
0010
1000
0000
1000
0100
0000
0000
0000
,
0110
0000
0010
1000
0000
0010
0002
0000
0000
0000
0000
0000
1003
0000
0000
0000
,
0110
0000
1000
0100
0000
0100
0001
0000
0001
0010
0000
0010
1000
0000
0000
0000
,
0020
0000
0000
0000
0030
0000
0100
0010
0100
0000
0000
0000
0010
0000
0000
0000
,
1001
0000
1000
0100
0000
0100
0010
0000
0010
0001
0000
0001
0100
0000
0000
0000
,
1010
0000
0000
0101
0000
0000
2200
0000
0000
0000
0000
0000
3300
0000
0000
0000
,
0110
0000
0001
0100
0000
0100
1000
0000
1000
0010
0000
0010
0001
0000
0000
0000
,
0020
0000
0000
0000
0030
0000
0100
0010
0100
0000
0000
0000
0010
0000
0000
0000
,
1001
0000
0001
0010
0000
0100
1000
0000
0001
0010
0000
0100
1000
0000
0000
0000
,
0101
0000
0100
1000
0000
0100
0002
0000
0000
0000
0000
0000
1003
0000
0000
0000
,
0110
0000
1000
0001
0000
0100
0010
0000
1000
0001
0000
0100
0010
0000
0000
0000
,
2000
0000
0000
0000
3000
0000
0100
0010
0100
0000
0000
0000
1000
0000
0000
0000
,
1001
0000
1000
0010
0000
0100
0001
0000
1000
0010
0000
0100
0001
0000
0000
0000
,
0011
0000
0000
1100
0000
0000
0202
0000
0000
0000
0000
0000
0303
0000
0000
0000
,
2000
0000
0000
3200
0000
0000
0302
0000
0000
0023
0000
0000
2030
0000
0000
0000
,
3020
0000
0000
0000
0030
0000
0100
0010
0100
0000
0000
0000
1000
0000
0000
0000
,
0001
0000
1000
0100
1000
0000
0001
0000
1000
0100
1000
0000
0001
0000
0100
0000
,
0001
0000
1000
0100
1000
0000
0001
0100
0001
0000
1000
0100
1000
0000
0000
0000
,
0001
0000
1000
0010
1000
0000
0001
0000
1000
0010
1000
0000
0001
0000
1000
0000
,
0000
0000
0001
0010
0001
0000
1000
0100
1000
0000
0001
0100
0001
0000
0000
0000
,
1000
0000
0001
0100
0001
0000
1000
0000
0001
0100
0001
0000
1000
0000
0100
0000
,
1000
0000
0001
0100
0001
0000
1000
0100
1000
0000
0001
0100
0001
0000
0000
0000
,
1001
0000
0000
0110
0000
0000
1000
0001
,
0000
0000
1000
0010
1000
0000
0001
0100
0001
0000
1000
0100
1000
0000
0000
0000
,
0000
0000
0000
0000
;
#NOTES:
     dance-double:
     :
     Easy:
     6:
     :
00000000
00000000
00000000
00000000
,
00000000
00000000
00000000
00000000
,
00000000
00000000
00000000
00000000
,
00000000
00000000
00000000
00000000
,
00000000
00000000
00000000
00000000
,
00000000
00000000
00000000
00000000
,
00000010
00000001
00000100
00001000
,
00010000
00001000
00022000
00033000
,
00001000
00010000
00100000
10000000
,
02000000
00000000
00200000
03300000
,
01000000
10000000
01000000
00010000
,
00001000
00000010
00000100
00000100
,
00000010
00000001
00000100
00001000
,
00010000
00001000
00011000
00000000
,
00010000
01000000
10000000
00100000
,
01000000
00100000
10000000
10000000
,
00100000
00010000
00001000
00000010
,
00000002
00000000
00001000
00001003
,
00000001
00000100
00000010
00000100
,
00001000
00010000
00001000
00001000
,
00010000
00100000
10000000
01000000
,
00100000
01000000
00100000
00100000
,
00001000
00010000
00011000
00000000
,
00000010
00000100
00000110
00000000
,
00000001
00000010
00001000
00000010
,
00000001
00000000
00001000
00000000
00000010
00000010
00000010
00000000
,
00000200
00000000
00000000
00000300
,
00000020
00000000
00000000
00000030
,
00000001
00000100
00001000
00010000
,
01000000
10000000
00010000
00000000
,
00200000
00000000
00000000
00300000
,
02000000
00000000
00000000
03000000
,
10000000
01000000
00010000
00001000
,
00000100
00000001
00001000
00000000
,
00000020
00000000
00000100
00000130
,
00000001
00001000
00010000
00000000
,
00002000
00000000
00010000
00013000
,
00001000
00010000
10000000
00000000
,
00200000
00000000
01000000
01300000
,
10000000
00010000
00001000
00000000
,
00011000
00000000
00001001
00000110
,
00001000
00000001
00000220
00000330
,
00000001
00000100
00000010
00000010
,
00000100
00001000
00010000
01000000
,
10000000
00100000
01000000
01000000
,
00100000
00010000
00001000
00000010
,
00000100
00010000
00000010
00000100
,
00001000
00010000
00001000
00000010
,
00001000
00010000
00100000
10000000
,
01000000
01000000
00100000
01000000
,
00000000
00000000
00000000
00000000
,
10000000
01000000
00010000
00001000
,
00011000
01010000
00011000
00000000
,
00010000
00001000
00000100
00000001
,
00000020
00000000
00000100
00000130
,
00000001
00000100
00001000
00010000
,
00001000
00000000
00000000
00001000
00000000
00000000
00002000
00000000
00000000
00000000
00000000
00000000
00003000
00000000
00000000
00000000
,
00001000
00010000
01000000
10000000
,
00200000
00000000
01000000
01300000
,
10000000
00100000
00010000
00001000
,
00011000
00110000
00011000
00000000
,
00010000
00001000
00000010
00000001
,
00000200
00000000
00000010
00000310
,
00000001
00000010
00001000
00010000
,
00001000
00000000
00000000
00001000
00000000
00000000
00002000
00000000
00000000
00000000
00000000
00000000
00003000
00000000
00000000
00000000
,
00001000
00010000
00100000
10000000
,
02000000
00000000
00100000
03100000
,
00002000
00103000
02000000
03100000
,
00002000
00103000
02000000
03100000
,
00002000
00103000
02000000
03100000
,
00001000
00010000
00011000
00000000
,
00020000
00030010
00000200
00000310
,
00020000
00030010
00000200
00000310
,
00001001
00000000
00000000
00000000
,
00000001
00000100
00001000
00010000
,
00000000
00000000
00000000
00000000
;
#NOTES:
     dance-double:
     :
     Medium:
     10:
     :
00000000
00000000
00000000
00000000
,
00000000
00000000
00000000
00000000
,
00000000
00000000
00000000
00000000
,
00000000
00000000
00000000
00000000
,
00000000
00000000
00000000
00000000
,
00000000
00000000
00000000
00000000
,
00100000
00000000
00000000
00010000
00000000
00000000
01000000
00000000
00000000
00010000
00000000
00000000
00100000
00000000
00000000
00000000
,
01000000
00000000
00000000
00010000
00000000
00000000
00002000
00000000
00000000
00000000
00000000
00000000
00003000
00000000
00000000
00000000
,
00010000
00000000
00000000
00001000
00000000
00000000
00000010
00000000
00000000
00000001
00000000
00000000
00001000
00000000
00000000
00000000
,
00000020
00000000
00000200
00000330
,
00000101
00000000
00001100
00000000
00000001
00000100
00001000
00010000
,
00000000
00000010
00010000
00001000
00100000
00010000
01000000
00000000
,
11000000
00000000
01010000
00000000
00100000
01000000
00001000
00100000
,
00000000
01000000
00100000
01000000
00100000
00010000
10000000
00000000
,
10100000
00000000
01010000
00000000
10000000
01000000
00010000
00001000
,
00000000
00100000
00001000
00010000
00000010
00001000
00000100
00000000
,
00000101
00000000
00001100
00000000
00000010
00000100
00010000
00000010
,
00000200
00000000
00000000
00000310
00000100
00000001
00001000
00000000
,
00000001
00000000
00001000
00000100
00010000
00000000
00001000
00000000
,
00100000
00010000
01000000
00100000
10000000
01000000
00100000
00000000
,
01000000
00000000
10000000
00100000
01000000
00000000
00010000
00000000
,
00100000
00001000
00010000
00000010
00000100
00000010
00001000
00000000
,
00000001
00000000
00000000
00000000
00000001
00000000
00000000
00000010
00000000
00000000
00001000
00000000
00000000
00000000
00000000
00000000
,
00010000
00000000
00000000
00000000
00010000
00000000
00000000
00100000
00000000
00000000
10000000
00000000
00000000
00000000
00000000
00000000
,
00010000
00000000
01000000
00100000
10000000
00000000
01000000
00000000
,
10000000
00010000
10000000
01000000
00010000
00001000
00010000
00000000
,
00100000
00000000
00000000
00010000
00000000
00000000
00002000
00000000
00000000
00000000
00000000
00000000
00013000
00000000
00000000
00000000
,
00000010
00000000
00000000
00001000
00000000
00000000
00020000
00000000
00000000
00000000
00000000
00000000
00031000
00000000
00000000
00000000
,
00010000
00000000
00000010
00001000
00000100
00010000
00000010
00001000
,
00000000
00000001
00000000
00000220
00000000
00000000
00000330
00000000
,
00000001
00000000
00000000
00000100
00000000
00000000
00002000
00000000
00000000
00000000
00000000
00000000
00013000
00000000
00000000
00000000
,
00001000
00000000
00000000
00010000
00000000
00000000
02000000
00000000
00000000
00000000
00000000
00000000
13000000
00000000
00000000
00000000
,
00010000
00000000
01000000
00100000
10000000
01000000
00100000
00010000
,
00000000
10000000
00000000
02200000
00000000
00000000
03300000
00000000
,
10000000
00000000
00000000
01000000
00000000
00000000
01000000
00000000
00100000
00000000
00000000
00000000
00100000
00000000
00000000
00000000
,
00001000
00100000
00010000
00100000
00001000
00000000
00001000
00000000
,
00010000
00000000
00000000
00000010
00000000
00000000
00000010
00000000
00000100
00000000
00000000
00000000
00000100
00000000
00000000
00000000
,
00000001
00001000
00000100
00001000
00000001
00000000
00000001
00000000
,
00000001
00000000
00000000
00000100
00000000
00000000
00000100
00000000
00000010
00000000
00000000
00000000
00000010
00000000
00000000
00000000
,
00010000
00000010
00001000
00000010
00010000
00000000
00010000
00000000
,
00011000
00000000
00110000
11000000
,
00010000
01000000
00100000
10000000
00020000
00000000
00030000
00000000
,
00100000
00000000
00010000
10000000
00100000
01000000
00001000
00010000
,
00000000
00001000
00000010
00000000
00000100
00000010
00000001
00000000
,
00000100
00000000
00000010
00010000
00001000
00100000
00001000
00010000
,
00100000
00000000
10000000
00000000
01000000
00100000
01000000
00000000
,
10000000
00000000
00010000
10000000
01000000
00100000
00001000
00010000
,
00000000
00001000
00000100
00000000
00000010
00000100
00000001
00000000
,
00000010
00000000
00000100
00010000
00001000
00010000
00001000
00000000
,
01000000
00000000
00100000
00000000
10000000
00010000
01000000
00000000
,
00000000
00000000
00000000
00000000
,
00100000
00000000
00000000
10000000
00000000
00000000
01000000
00000000
00000000
00010000
00000000
00000000
00001000
00000000
00000000
00000000
,
00100000
00000000
00000000
00001000
00000000
00000000
00020000
00000000
00000000
00000000
00000000
00000000
00030000
00000000
00000000
00000000
,
00001000
00000000
00000000
00000100
00000000
00000000
00000001
00000000
00000000
00000010
00000000
00000000
00000100
00000000
00000000
00000000
,
00000020
00000000
00000100
00000130
,
00000010
00000000
00000000
00000001
00000000
00000000
00000100
00000000
00000000
00001000
00000000
00000000
00010000
00000000
00000000
00000000
,
00000010
00000000
00000000
00010000
00000000
00000000
00022000
00000000
00000000
00000000
00000000
00000000
00033000
00000000
00000000
00000000
,
00010000
00000000
00000000
01000000
00000000
00000000
10000000
00000000
00000000
01000000
00000000
00000000
00010000
00000000
00000000
00000000
,
00002000
00000000
00010000
00013000
,
00001000
00000000
00000000
00000010
00000000
00000000
00000001
00000000
00000000
00000100
00000000
00000000
00001000
00000000
00000000
00000000
,
00010000
00000000
00000000
00001000
00000000
00000000
00020000
00000000
00000000
00000000
00000000
00000000
00030000
00000000
00000000
00000000
,
00010000
00000000
00000000
00100000
00000000
00000000
10000000
00000000
00000000
01000000
00000000
00000000
00010000
00000000
00000000
00000000
,
00002000
00000000
00010000
00013000
,
00001000
00000000
00000000
00000100
00000000
00000000
00000001
00000000
00000000
00000010
00000000
00000000
00001000
00000000
00000000
00000000
,
00010000
00000000
00000000
00001000
00000000
00000000
00022000
00000000
00000000
00000000
00000000
00000000
00033000
00000000
00000000
00000000
,
00010000
00000000
00000000
01000000
00000000
00000000
10000000
00000000
00000000
00100000
00000000
00000000
00010000
00000000
00000000
00000000
,
00002000
00000000
00010000
00013000
,
00001000
00000100
00000020
00000000
00001000
00000000
00000130
00000000
,
00000001
00000010
00000200
00000000
00001000
00000000
00000310
00000000
,
00000001
00000100
00001000
00000000
00010000
00001000
00010000
00100000
,
00000000
10000000
00010000
00000000
01100000
00000000
10010000
00000000
,
10000000
01000000
00200000
00000000
00010000
00000000
01300000
00000000
,
10000000
00100000
02000000
00000000
00100000
00000000
03010000
00000000
,
00011000
00000000
00000000
00001010
00000000
00000000
00000100
00000001
,
00000000
00001000
00000100
00000010
00000001
00000000
00001000
00000000
,
00000000
00000000
00000000
00000000
;
#NOTES:
     dance-double:
     :
     Hard:
     14:
     :
00000000
00000000
00000000
00000000
,
00000000
00000000
00000000
00000000
,
00000000
00000000
00000000
00000000
,
00000000
00000000
00000000
00000000
,
00000000
00000000
00000000
00000000
,
00000000
00000000
00000000
00000000
,
00001001
00000000
00000001
00000010
00000000
00000010
00001000
00000000
00001000
00010000
00000000
00010000
00100000
00000000
10000000
00000000
,
10010000
00000000
00010000
00100000
00000000
00010000
02000000
00000000
00000000
00000000
00000000
00000000
03000000
00000000
00000000
00000000
,
10010000
00000000
10000000
01000000
00000000
01000000
00010000
00000000
00010000
00001000
00000000
00001000
00000100
00000000
00000001
00000000
,
00002000
00000000
00000002
00003003
,
00010010
00000000
00001100
00000000
00000001
00000100
00001000
00010000
,
00000000
00000100
00001000
00010000
00100000
01000000
10000000
00000000
,
10100000
00000000
01010000
00000000
00100000
00010000
00001000
00000010
,
00000000
00001000
00010000
00001000
01000000
00001000
00010000
00000000
,
00101000
00000000
01010000
00000000
10000000
01000000
00010000
00001000
,
00000000
01000000
00010000
00001000
00000010
00000100
00000001
00000000
,
00000011
00000000
00001100
00000000
00000010
00001000
00010000
00100000
,
02000000
00000000
00000000
03100000
10000000
00100000
01000000
00000000
,
20010000
00000000
00000000
00000000
31000000
00000000
00100000
01000000
00100000
00000000
00000000
00001000
00000000
00000000
00010000
00000000
,
01000000
00010000
00001000
00000100
00000001
00000010
00000001
00000000
,
00001002
00000000
00000000
00000000
00000103
00000000
00000010
00000100
00000010
00000000
00000000
00010000
00000000
00000000
00001000
00000000
,
00000100
00001000
00010000
01000000
10000000
00100000
10000000
00000000
,
11000000
00000000
00000000
00000000
00101000
00000000
00000000
00010100
00000000
00000000
00001001
00000000
00000000
00000000
00000000
00000000
,
00000101
00000000
00000000
00000000
00010010
00000000
00000000
01001000
00000000
00000000
10010000
00000000
00000000
00000000
00000000
00000000
,
20010000
00000000
00000000
00000000
30100000
00000000
01000000
00100000
01000000
00000000
00000000
00001000
00000000
00000000
00010000
00000000
,
00100000
00010000
00001000
00010000
01000000
00010000
00001000
00000000
,
00002100
00000000
00000000
00000001
00000000
00000000
00000010
00000000
00000000
00000000
00000000
00000000
00013000
00000000
00000000
00000000
,
01020000
00000000
00000000
10000000
00000000
00000000
00100000
00000000
00000000
00000000
00000000
00000000
00031000
00000000
00000000
00000000
,
00000100
00000000
00000000
00000000
00001000
00000100
00000010
00000001
00001000
00000000
00000010
00000000
00000100
00000000
00000101
00000000
,
00000000
00000011
00000000
00000220
00000000
00000000
00000330
00000000
,
00002010
00000000
00000000
00000001
00000000
00000000
00000100
00000000
00000000
00000000
00000000
00000000
00013000
00000000
00000000
00000000
,
00120000
00000000
00000000
10000000
00000000
00000000
01000000
00000000
00000000
00000000
00000000
00000000
00031000
00000000
00000000
00000000
,
00000010
00000000
00000000
00000000
00001000
00000010
00000100
00000001
00001000
00000000
00000100
00000000
00000010
00000000
00000011
00000000
,
00000000
00000101
00000000
00002200
00000000
00000000
00003300
00000000
,
00000001
00000000
00000000
00000100
00000000
00000000
00001000
00000000
00010000
00000000
00000000
00000000
00010000
00000000
00000000
00000000
,
00000100
00010000
01000000
00010000
00000100
00000000
00000010
00000000
,
00000001
00000000
00000000
00000100
00000000
00000000
00001000
00000000
00010000
00000000
00000000
00000000
00001000
00000000
00000000
00000000
,
01000000
00001000
00000100
00001000
01000000
00000000
00100000
00000000
,
10000000
00000000
00000000
01000000
00000000
00000000
00010000
00000000
00001000
00000000
00000000
00000000
00001000
00000000
00000000
00000000
,
00100000
00001000
00000010
00001000
00100000
00000000
01000000
00000000
,
10010000
00000000
00110000
00011000
,
00000010
00010000
00100000
00010000
00000020
00000000
00000030
00000000
,
00000100
00000010
00000100
00000000
00000010
00000000
00001000
00000000
00000100
00000000
00000010
00000000
00000001
00000000
00000100
00000000
,
00000000
00001000
00010000
00100000
10000000
00100000
01000000
00100000
,
10000000
01000000
10000000
00000000
01000000
00000000
00010000
00000000
00001000
00000000
00000100
00000000
00000001
00000000
00000010
00000000
,
00000100
00000010
00000100
00000000
00001000
00000000
00000001
00000100
00000001
00000000
00001000
00000000
00000001
00000000
00000000
00000000
,
00000010
00000100
00000010
00000000
00000100
00000000
00001000
00000000
00000010
00000000
00000100
00000000
00000001
00000000
00000010
00000000
,
00000000
00001000
00010000
01000000
10000000
01000000
00100000
01000000
,
10000000
00100000
10000000
00000000
00100000
00000000
00010000
00000000
00001000
00000000
00000010
00000000
00000001
00000000
00000000
00000000
,
00001000
00000010
00000001
00000010
00001000
00000100
00000001
00000000
,
00000000
00000000
00000000
00000000
,
00000110
00000000
00000001
00000100
00000000
00000100
00001000
00000000
00001000
00010000
00000000
00010000
01000000
00000000
00000000
00000000
,
10010000
00000000
10000000
00100000
00000000
10000000
02000000
00000000
00000000
00000000
00000000
00000000
03000000
00000000
00000000
00000000
,
01100000
00000000
10000000
01000000
00000000
01000000
00010000
00000000
00010000
00001000
00000000
00001000
00000100
00000000
00000000
00000000
,
00000020
00000000
00000000
00000000
00000030
00000000
00000100
00000010
00000100
00000000
00000000
00000000
00000010
00000000
00000000
00000000
,
00000110
00000000
00000001
00000010
00000000
00000010
00001000
00000000
00001000
00010000
00000000
00010000
00100000
00000000
00000000
00000000
,
10100000
00000000
00000000
01010000
00000000
00000000
22000000
00000000
00000000
00000000
00000000
00000000
33000000
00000000
00000000
00000000
,
01100000
00000000
10000000
00100000
00000000
00100000
00010000
00000000
00010000
00001000
00000000
00001000
00000010
00000000
00000000
00000000
,
00000200
00000000
00000000
00000000
00000300
00000000
00000010
00000100
00000010
00000000
00000000
00000000
00000100
00000000
00000000
00000000
,
00001001
00000000
00000001
00001000
00000000
00001000
00010000
00000000
00010000
10000000
00000000
10000000
00010000
00000000
00000000
00000000
,
01100000
00000000
10000000
00100000
00000000
10000000
00020000
00000000
00000000
00000000
00000000
00000000
00030000
00000000
00000000
00000000
,
01100000
00000000
10000000
00010000
00000000
00010000
00001000
00000000
00001000
00000001
00000000
00000001
00001000
00000000
00000000
00000000
,
00000002
00000000
00000000
00000000
00000003
00000000
00000100
00000010
00000100
00000000
00000000
00000000
00000001
00000000
00000000
00000000
,
00001001
00000000
00000100
00000010
00000000
00000010
00100000
00000000
00100000
01000000
00000000
01000000
00100000
00000000
00000000
00000000
,
00110000
00000000
00000000
11000000
00000000
00000000
02020000
00000000
00000000
00000000
00000000
00000000
03030000
00000000
00000000
00000000
,
20000000
00000000
00000000
32000000
00000000
00000000
03020000
00000000
00000000
00032000
00000000
00000000
00003001
00000000
00000000
00000000
,
00000020
00000000
00000000
00000000
00000030
00000000
00000100
00000010
00000100
00000000
00000000
00000000
00000100
00000000
00000000
00000000
,
00010000
00000000
00000010
00001000
00000010
00000000
00010000
00000000
00000100
00001000
00000100
00000000
00010000
00000000
00000000
00000000
,
00001000
00000000
00100000
00010000
00100000
00000000
00001000
00010000
00001000
00000000
01000000
00010000
01000000
00000000
00000000
00000000
,
00100000
00000000
10000000
00100000
10000000
00000000
00010000
00000000
10000000
01000000
10000000
00000000
01000000
00000000
00100000
00000000
,
00000000
00000000
01000000
00100000
01000000
00000000
00010000
00001000
00010000
00000000
00001000
00000000
00010000
00000000
00000000
00000000
,
00001000
00000000
00100000
00010000
00100000
00000000
00001000
00000000
01000000
00010000
01000000
00000000
00001000
00000000
00000000
00000000
,
00010000
00000000
00000010
00001000
00000010
00000000
00010000
00001000
00010000
00000000
00000100
00001000
00000100
00000000
00000000
00000000
,
00000011
00000000
00000000
00001100
00000000
00000000
00010000
00001000
,
00000000
00000000
01000000
00010000
01000000
00000000
00100000
10000000
00100000
00000000
10000000
00000000
00010000
00000000
00000000
00000000
,
00000000
00000000
00000000
00000000
;
