
//----- song ID: liar -----//
#TITLE:ライアーダンス;
#ARTIST:DECO*27;
#TITLETRANSLIT:Liar dance;
#BANNER:Liar dance.png;
#BACKGROUND:Liar dance-bg.png;
#CDTITLE:./CDTitles/DDR A20.png;
#MUSIC:Liar dance.ogg;
#SAMPLESTART:37.196;
#SAMPLELENGTH:15;
#BPMS:0=200;
#NOTES:
     dance-single:
     :
     Beginner:
     4:
     :
0000
0000
0000
0000
,
0000
0000
0000
0000
,
0000
0000
0000
0000
,
0000
0000
0000
0000
,
0000
0000
0000
0000
,
0001
0000
0001
0000
,
0001
0000
0000
0000
,
0001
0000
0100
0000
,
0001
0000
0000
0000
,
0001
0000
0001
0000
,
0001
0000
0000
0000
,
0002
0000
0000
0000
,
0003
0000
0000
0000
,
1000
0000
0100
0000
,
1000
0000
0100
0000
,
1000
0000
0000
0000
,
1000
0000
0000
0000
,
1000
0000
0010
0000
,
1000
0000
0010
0000
,
1000
0000
0000
0000
,
1000
0000
0000
0000
,
0001
0000
0100
0000
,
0001
0000
0100
0000
,
0001
0000
0000
0000
,
0001
0000
0000
0000
,
0001
0000
0010
0000
,
0001
0000
0010
0000
,
0001
0000
0000
0000
,
0001
0000
0000
0000
,
1001
0000
0000
0000
,
0000
0000
0000
0000
,
0001
0000
0001
0000
,
0001
0001
0001
0000
,
1000
0000
1000
0000
,
1000
1000
1000
0000
,
0001
0000
1000
0000
,
0001
0000
0000
0000
,
0002
0000
0000
0000
,
0003
0000
0000
0000
,
1000
0000
1000
0000
,
1000
1000
1000
0000
,
0001
0000
0001
0000
,
0001
0001
0001
0000
,
1000
0000
0001
0000
,
1000
0000
0000
0000
,
2000
0000
0000
0000
,
3000
0000
0000
0000
,
1001
0000
0000
0000
,
0000
0000
0000
0000
,
0001
0000
0010
0000
,
0001
0000
0010
0000
,
0001
0000
0010
0000
,
0001
0000
0000
0000
,
1000
0000
0010
0000
,
1000
0000
0010
0000
,
1000
0000
0010
0000
,
1000
0000
0000
0000
,
0002
0000
0000
0000
,
0003
0000
0000
0000
,
0020
0000
0000
0000
,
0030
0000
0000
0000
,
2000
0000
0000
0000
,
3000
0000
0000
0000
,
0200
0000
0000
0000
,
0300
0000
0000
0000
,
2000
0000
0000
0000
,
3000
0000
0000
0000
,
0020
0000
0000
0000
,
0030
0000
0000
0000
,
0002
0000
0000
0000
,
0003
0000
0000
0000
,
0200
0000
0000
0000
,
0300
0000
0000
0000
,
1001
0000
0000
0000
,
0001
0000
0001
0000
,
0001
0001
0001
0000
,
1000
0000
1000
0000
,
1000
1000
1000
0000
,
0001
0000
1000
0000
,
0001
0000
0000
0000
,
0002
0000
0000
0000
,
0003
0000
0000
0000
,
1000
0000
1000
0000
,
1000
1000
1000
0000
,
0001
0000
0001
0000
,
0001
0001
0001
0000
,
1000
0000
0001
0000
,
1000
0000
0000
0000
,
2000
0000
0000
0000
,
3000
0000
0000
0000
,
0001
0000
0000
0000
,
1001
0000
0000
0000
,
1000
0000
0000
0000
,
1001
0000
0000
0000
,
0100
0000
0000
0000
,
1001
0000
0000
0000
,
0010
0000
0000
0000
,
1001
0000
0000
0000
,
0000
0000
0000
0000
;
#NOTES:
     dance-single:
     :
     Easy:
     6:
     :
0000
0000
0000
0000
,
0000
0000
0000
0000
,
0000
0000
0000
0000
,
0000
0000
0000
0000
,
0000
0000
0000
0000
,
0001
0100
0001
0000
,
0100
0001
0100
0000
,
0010
1000
0010
0000
,
1000
0010
1000
0000
,
0100
1000
0100
0000
,
1000
0100
1000
0000
,
0001
0010
0001
0000
,
0010
0001
0010
0000
,
0001
0000
1000
0000
,
0100
0010
0100
0000
,
1000
0000
0001
0000
,
0100
0010
0100
0000
,
0001
0000
1000
0000
,
0010
0100
0010
0000
,
1000
0000
0001
0000
,
0010
0100
0010
0000
,
0001
0100
0001
0100
,
0001
0100
0001
0000
,
1000
0100
1000
0100
,
1000
0100
1000
0000
,
0010
0100
0010
0100
,
0010
0100
0010
0000
,
0100
0010
0100
0010
,
0100
0010
0100
0000
,
0220
0000
0000
0000
,
0000
0000
0330
0000
,
0001
0100
1000
0000
,
0001
0100
1000
0000
,
1000
0100
0001
0000
,
1000
0100
0001
0000
,
1001
0000
0110
0000
,
1001
0000
0000
0000
,
0110
0000
1001
0000
,
0110
0000
0000
0000
,
1000
0100
0001
0000
,
1000
0100
0001
0000
,
0001
0100
1000
0000
,
0001
0100
1000
0000
,
1001
0000
0110
0000
,
1001
0000
0000
0000
,
0110
0000
1001
0000
,
0110
0000
0000
0000
,
0010
0000
0100
0000
,
1001
0000
0000
0000
,
0001
0001
0001
0000
,
0001
0010
1000
0000
,
1000
1000
1000
0000
,
1000
0010
0001
0000
,
1000
1000
1000
0000
,
1000
0010
0001
0000
,
0001
0001
0001
0000
,
0001
0010
1000
0000
,
1001
0000
0000
0000
,
0000
0000
0000
0000
,
1001
0000
0000
0000
,
0000
0000
0000
0000
,
1001
0000
1001
0000
,
1001
0000
0000
0000
,
0110
0000
0110
0000
,
0110
0000
0000
0000
,
0001
0000
0001
0000
,
0100
0000
0100
0000
,
0010
0000
0010
0000
,
1000
0000
1000
0000
,
0100
0000
0100
0000
,
0010
0000
0010
0000
,
0001
0000
1000
0000
,
1001
0000
0000
0000
,
0110
0000
0000
0000
,
0001
0010
1000
0000
,
0001
0010
1000
0000
,
1000
0010
0001
0000
,
1000
0010
0001
0000
,
0110
0000
1001
0000
,
0110
0000
0000
0000
,
1001
0000
0110
0000
,
1001
0000
0000
0000
,
1000
0010
0001
0000
,
1000
0010
0001
0000
,
0001
0010
1000
0000
,
0001
0010
1000
0000
,
0110
0000
1001
0000
,
0110
0000
0000
0000
,
1001
0000
0110
0000
,
1001
0000
0000
0000
,
0001
0000
1000
0000
,
0110
0000
0000
0000
,
0010
0000
0100
0000
,
1001
0000
0000
0000
,
0001
0000
0010
0000
,
1000
0000
0000
0000
,
0001
0000
0100
0000
,
1000
0000
0000
0000
,
0000
0000
0000
0000
;
#NOTES:
     dance-single:
     :
     Medium:
     9:
     :
0000
0000
0000
0000
,
0000
0000
0000
0000
,
0000
0000
0000
0000
,
0000
0000
0000
0000
,
0000
0000
0000
0000
,
0001
0010
0001
0000
,
0001
0010
0001
0000
,
1000
0010
1000
0000
,
1000
0010
1000
0000
,
0001
0100
0001
0000
,
0001
0100
0001
0000
,
1000
0100
1000
0000
,
1000
0100
1000
0000
,
0001
0001
0100
0000
,
1000
0100
0010
0000
,
0001
0001
0100
0000
,
1000
0010
0100
0000
,
1000
1000
0100
0000
,
0001
0010
0100
0000
,
1000
1000
0100
0000
,
0001
0100
0010
0000
,
0001
0000
1000
0001
0000
0000
1000
0000
0001
1000
0000
0000
,
1001
1001
1001
0000
,
0010
0000
0100
0010
0000
0000
0100
0000
0010
0100
0000
0000
,
0110
0110
0110
0000
,
0001
0000
0010
0001
0000
0000
0010
0000
0001
0010
0000
0000
,
0011
0011
0011
0000
,
1000
0000
0100
1000
0000
0000
0100
0000
1000
0100
0000
0000
,
1100
1100
1100
0000
,
0001
0000
1000
0000
,
2002
0000
3003
0000
,
0001
0100
0001
0010
,
0001
0000
0000
0100
0000
0000
0001
0000
1000
0001
0000
0000
,
1000
0100
1000
0010
,
1000
0000
0000
0100
0000
0000
1000
0000
0001
1000
0000
0000
,
0001
0100
1000
0100
,
0001
0100
1000
0100
,
0001
0010
1000
0010
,
0220
0000
0330
0000
,
1000
0010
1000
0100
,
1000
0000
0000
0010
0000
0000
1000
0000
0001
1000
0000
0000
,
0001
0010
0001
0100
,
0001
0000
0000
0010
0000
0000
0001
0000
1000
0001
0000
0000
,
1000
0010
0001
0010
,
1000
0010
0001
0010
,
1000
0100
0001
0100
,
0220
0000
0330
0000
,
0001
0000
0000
0000
0000
0000
1000
0000
0000
0000
0000
1001
,
0000
0000
0000
0000
,
0001
0100
0010
1000
,
0001
0000
0000
0100
0000
0000
0010
0000
1000
0001
0000
0000
,
1000
0100
0010
0001
,
1000
0000
0001
1000
0000
0000
0001
0000
1000
0001
0000
0000
,
1000
0010
0100
0001
,
0010
0000
0000
0100
0000
0000
1000
0000
0001
1000
0000
0000
,
0001
0100
0010
1000
,
0100
0000
0010
0100
0000
0000
0010
0000
0100
0010
0000
0000
,
0002
0000
0000
0000
,
0203
0000
0000
0000
,
2300
0000
0000
0000
,
3200
0000
0000
0000
,
0302
0000
0000
0000
,
0023
0000
0000
0000
,
2030
0000
0000
0000
,
3020
0000
0000
0000
,
0031
0000
0101
0000
,
1000
0000
1100
0000
,
0001
0000
0011
0000
,
1000
0000
1010
0000
,
0001
0001
1000
1000
,
0001
0001
1000
1000
,
0001
1000
0001
1000
,
1001
0000
0000
0000
,
0110
0000
0000
0000
,
0001
0010
0100
1000
,
0010
0000
0000
0100
0000
0000
0001
0000
1000
0001
0000
0000
,
1000
0100
0010
0001
,
0100
0000
0010
0100
0000
0000
0110
0000
0000
1000
0000
0000
,
1100
0001
0101
1000
,
1010
0001
0011
0000
,
1000
0100
0010
0001
,
0002
0023
0230
2300
,
3001
0010
1000
0010
,
0001
0000
0010
0001
0000
0000
1000
0000
0010
1000
0000
0000
,
0001
0100
1000
0100
,
0001
0000
0100
0001
0000
0000
0101
0000
0000
1000
0000
0000
,
1010
0001
0011
1000
,
1100
0001
0101
0000
,
0010
1000
0100
0010
,
0001
0100
0010
1000
,
1100
0000
0000
0000
0000
0000
0011
0000
0000
0000
0000
1001
,
0000
0000
0010
0100
,
1001
0000
0000
0000
0000
0001
1000
0000
0000
0010
0000
0100
,
0000
0000
0001
0010
,
1100
0000
0000
0000
0000
0000
0110
0000
0000
0000
0000
0110
,
0000
0000
0010
1000
,
0100
0000
0000
0000
0000
0000
0001
0000
0000
0000
0000
1000
,
0000
0000
0000
0000
;
#NOTES:
     dance-single:
     :
     Hard:
     13:
     :
0000
0000
0000
0000
,
0000
0000
0000
0000
,
0000
0000
0000
0000
,
0000
0000
0000
0000
,
0000
0000
0000
0000
,
1000
0100
1000
0100
,
0010
0001
0010
0001
,
0100
0001
0100
0001
,
1000
0010
1000
0010
,
1000
0100
0010
0001
,
1000
0100
0010
0001
,
0100
0010
1000
0001
,
0100
0010
0110
0000
,
0001
1000
0100
0010
,
0001
0000
0000
0100
0000
0000
0010
0000
0100
0010
0000
0000
,
1000
0100
0001
0100
,
1000
0000
0000
0010
0000
0010
0100
0000
0100
0001
0000
0000
,
1001
0001
0010
0100
,
1000
0000
0000
0010
0000
0000
0100
0000
0010
0100
0000
0000
,
0001
0010
1000
0010
,
0001
0000
0000
0100
0000
0100
0010
0000
0010
1000
0000
0000
,
0001
0000
0001
0100
0000
0100
0001
0000
0001
0100
0000
0100
,
0001
1000
1001
0001
,
1000
0000
1000
0100
0000
0100
1000
0000
1000
0100
0000
0100
,
1000
0000
0001
0000
0000
1001
0000
0000
0100
0000
0000
0000
,
0010
0000
0010
1000
0000
1000
0010
0000
0010
1000
0000
1000
,
0010
0100
0110
0100
,
0001
0000
0001
0010
0000
0010
0001
0000
0001
0010
0000
0010
,
0001
0000
0010
0000
0000
0100
0000
0000
0110
0000
0000
0000
,
0002
0000
1003
0000
,
0002
0000
1003
0000
0000
1001
0000
0000
0000
0000
0000
0000
,
0001
0000
0001
0010
0000
0010
0100
0000
0100
1000
0000
1000
,
0100
0000
0001
0100
0000
1000
0100
0000
0000
0110
0000
0000
,
1000
0000
1000
0010
0000
0010
0100
0000
0100
0001
0000
0001
,
1000
0000
0100
0001
0000
0100
1000
0000
0000
1100
0000
0100
,
0010
0000
0000
0101
0000
0100
0010
0000
0000
1000
0000
0100
,
0000
0000
0001
0100
0000
1000
0100
0000
0000
1001
0000
0000
,
0001
0000
0100
0000
0000
0110
0000
0000
1010
0000
0000
0001
,
0000
0000
1000
0020
0000
0000
0230
0000
0000
0302
0000
0000
,
1003
0000
1000
0010
0000
0010
0100
0000
0100
0001
0000
0001
,
0100
0000
1000
0100
0000
0001
0100
0000
0000
0110
0000
0000
,
0001
0000
0001
0010
0000
0010
0100
0000
0100
1000
0000
1000
,
0001
0000
0100
1000
0000
0100
0001
0000
0000
0101
0000
0100
,
0010
0000
0000
1100
0000
0100
0010
0000
0000
0001
0000
0100
,
0000
0000
1000
0100
0000
0001
0100
0000
0000
1001
0000
0000
,
1000
0000
0100
0000
0000
0110
0000
0000
0011
0000
0000
1000
,
0000
0000
0000
0000
0000
0000
0000
0000
0000
0000
0000
0000
0000
0000
0000
0000
0000
0000
0000
0000
0000
0000
0000
0000
0000
0000
0000
0000
0000
0000
0000
0000
0001
0000
0000
0000
0000
0000
0000
0000
0000
0000
0000
0000
0000
0000
0000
0000
0020
0000
0000
0000
0000
0000
0000
0000
0000
0000
0000
0000
0000
0000
0000
0000
0000
0000
0000
0000
0000
0000
0000
0000
0000
0000
0000
0000
0000
0000
0000
0000
0000
0000
0000
0000
0000
0000
0000
0000
0000
0000
0000
0000
0000
0000
0000
0000
0230
0000
0000
0000
0000
0000
0000
0000
0000
0000
0000
0000
0000
0000
0000
0000
0000
0000
0000
0000
0000
0000
0000
0000
0000
0000
0000
0000
0000
0000
0000
0000
0000
0000
0000
0000
0000
0000
0000
0000
0000
0000
0000
0000
0000
0000
0000
0000
2300
0000
0000
0000
0000
0000
0000
0000
0000
0000
0000
0000
0000
0000
0000
0000
0000
0000
0000
0000
0000
0000
0000
0000
0000
0000
0000
0000
0000
0000
0000
0000
0000
0000
0000
0000
0000
0000
0000
0000
0000
0000
0000
0000
0000
0000
0000
3000
,
0001
0000
0000
0000
0000
0000
0100
0000
0000
0000
0000
0110
,
0000
0000
0000
0000
,
0001
0000
0100
0010
0000
0100
0001
0000
0100
0010
0000
0100
,
0001
0000
0100
0010
0000
0100
0001
0000
0100
0010
0000
0000
,
1000
0000
0100
0010
0000
0100
1000
0000
0100
0010
0000
0100
,
1000
0000
0100
0010
0000
0100
1000
0000
0100
0010
0000
0000
,
0001
0000
0001
0100
0000
0100
0010
0000
0010
1000
0000
1000
,
0100
0000
0100
0010
0000
0010
0001
0000
0001
0100
0000
0000
,
0001
0000
0001
0010
0000
0010
0100
0000
0100
1000
0000
1000
,
0010
0000
0010
0100
0000
0100
0001
0000
0001
0010
0000
0000
,
0002
0000
0000
0000
,
0203
0000
0000
0000
,
0320
0000
0000
0000
,
2030
0000
0000
0000
,
3200
0000
0000
0000
,
0320
0000
0000
0000
,
0032
0000
0000
0000
,
2000
0000
0000
3003
,
1001
0000
1001
0000
,
0101
0000
0101
0000
,
1001
0000
1001
0000
,
1100
0000
1100
0000
,
0001
0001
0100
0100
,
1000
1000
0100
0100
,
0010
0000
0100
0000
0000
1000
0000
0000
0001
0000
0000
1001
,
0000
0000
0000
0000
0000
0000
0000
0000
0000
0000
0000
0110
,
0000
0000
0000
0000
,
0001
0000
0001
0100
0000
0100
1000
0000
1000
0001
0000
0001
,
0010
0000
0010
1000
0000
1000
0001
0000
0000
1001
0000
0000
,
1000
0000
1000
0100
0000
0100
0001
0000
0001
1000
0000
1000
,
0010
0000
0010
0001
0000
0001
1000
0000
0000
1100
0000
0010
,
0001
0000
0000
0101
0000
0010
1000
0000
0000
1100
0000
0001
,
0010
0000
0000
0101
0000
1000
0010
0000
0000
0000
0000
0100
,
0001
0000
0010
0000
0000
1010
0000
0000
1100
0000
0000
0101
,
0000
0000
0100
0002
0000
0000
0023
0000
0000
0230
0000
0000
,
1300
0000
1000
0010
0000
0010
0001
0000
0001
1000
0000
1000
,
0100
0000
0100
0001
0000
0001
1000
0000
0000
1001
0000
0000
,
0001
0000
0001
0010
0000
0010
1000
0000
1000
0001
0000
0001
,
0100
0000
0100
1000
0000
1000
0001
0000
0000
0011
0000
0100
,
1000
0000
0000
1010
0000
0100
0001
0000
0000
0011
0000
1000
,
0100
0000
0000
1010
0000
0001
0100
0000
0000
0000
0000
0010
,
1000
0000
0100
0000
0000
0101
0000
0000
0011
0000
0000
1010
,
0000
0000
0010
2000
0000
0000
3200
0000
0000
0310
0000
0000
,
1001
0000
0000
0000
0000
0000
0110
0000
0000
0000
0000
1001
,
0000
0000
0001
0100
,
0110
0000
0000
0000
0000
0010
1000
0000
0000
0010
0000
0001
,
0000
0000
0001
0001
,
1100
0000
0000
0000
0000
0000
1010
0000
0000
0000
0000
0101
,
0000
0000
0001
1000
,
0010
0000
0000
0000
0000
0000
0100
0000
0000
0000
0000
1001
,
0000
0000
0000
0000
;
#NOTES:
     dance-double:
     :
     Easy:
     7:
     :
00000000
00000000
00000000
00000000
,
00000000
00000000
00000000
00000000
,
00000000
00000000
00000000
00000000
,
00000000
00000000
00000000
00000000
,
00000000
00000000
00000000
00000000
,
00000001
00000100
00000001
00000000
,
00001000
00000010
00001000
00000000
,
00000100
00010000
00000100
00000000
,
00100000
00001000
00100000
00000000
,
00010000
01000000
00010000
00000000
,
10000000
00100000
10000000
00000000
,
01000000
00100000
01000000
00000000
,
00010000
00001000
00010000
00000000
,
00000001
00000000
00000100
00000000
,
00000010
00001000
00000100
00000000
,
00000010
00000000
00000100
00000000
,
00010000
00001000
00010000
00000000
,
00001000
00000000
01000000
00000000
,
00100000
10000000
00100000
00000000
,
01000000
00000000
00100000
00000000
,
00010000
00001000
00010000
00000000
,
00001000
00000010
00000001
00000000
,
00000001
00000100
00001000
00000000
,
00000010
00000100
00001000
00000000
,
00010000
00100000
01000000
00000000
,
00010000
01000000
10000000
00000000
,
10000000
00100000
00010000
00000000
,
00100000
01000000
00010000
00000000
,
00001000
00000010
00000100
00000000
,
00000002
00000000
00000100
00000000
,
00000100
00000000
00000103
00000000
,
00000001
00000000
00000100
00000000
,
00010000
00000000
00000000
00000000
,
00000100
00000000
00010000
00000000
,
01000000
00000000
00000000
00000000
,
10100000
00000000
01010000
00000000
,
00011000
00000000
00000000
00000000
,
00011000
00000000
00001100
00000000
,
00000011
00000000
00000000
00000000
,
00000001
00000000
00000010
00000000
,
00010000
00000000
00000000
00000000
,
00000010
00000000
00010000
00000000
,
00100000
00000000
00000000
00000000
,
11000000
00000000
00110000
00000000
,
00011000
00000000
00000000
00000000
,
00011000
00000000
00001010
00000000
,
00000101
00000000
00000000
00000000
,
00001000
00000000
00010000
00000000
,
10000000
00000000
00000000
00000000
,
10000000
00000000
00010000
00000000
,
00001000
00000000
00000001
00000000
,
00000100
00000000
00010000
00000000
,
01000000
00000000
00100000
00000000
,
00001000
00000000
00000010
00000000
,
00000100
00000000
00000001
00000000
,
00001000
00000000
00010000
00000000
,
10000000
00000000
00010000
00000000
,
20000000
00000000
30000000
00000000
,
02000000
00000000
03000000
00000000
,
00020000
00000000
00030000
00000000
,
00002000
00000000
00003000
00000000
,
00000020
00000000
00000030
00000000
,
00000002
00000000
00000003
00000000
,
00000200
00000000
00000300
00000000
,
00002000
00000000
00003000
00000000
,
00010000
00000000
00010000
00000000
,
00100000
00000000
00100000
00000000
,
10000000
00000000
10000000
00000000
,
01000000
00000000
00010000
00000000
,
00001000
00000000
00001000
00000000
,
00000010
00000000
00000010
00000000
,
00000001
00000000
00000100
00000000
,
00011000
00000000
00000000
00000000
,
01100000
00000000
00000000
00000000
,
10000000
01000000
00010000
00000000
,
00001000
00000010
00000001
00000000
,
00000001
00000100
00001000
00000000
,
00010000
00100000
10000000
00000000
,
10100000
00000000
01100000
00000000
,
01010000
00000000
00000000
00000000
,
00001010
00000000
00000110
00000000
,
00000101
00000000
00000000
00000000
,
00000001
00000010
00001000
00000000
,
00010000
01000000
10000000
00000000
,
10000000
00100000
00010000
00000000
,
00001000
00000100
00000001
00000000
,
00000011
00000000
00000110
00000000
,
00001100
00000000
00000000
00000000
,
00110000
00000000
01100000
00000000
,
11000000
00000000
00000000
00000000
,
10000000
00000000
00010000
00000000
,
00011000
00000000
00000000
00000000
,
00010000
00000000
00001000
00000000
,
00001001
00000000
00000000
00000000
,
00000001
00000000
00001000
00000000
,
00011000
00000000
00000000
00000000
,
00001000
00000000
00010000
00000000
,
10010000
00000000
00000000
00000000
,
00000000
00000000
00000000
00000000
;
#NOTES:
     dance-double:
     :
     Medium:
     9:
     :
00000000
00000000
00000000
00000000
,
00000000
00000000
00000000
00000000
,
00000000
00000000
00000000
00000000
,
00000000
00000000
00000000
00000000
,
00000000
00000000
00000000
00000000
,
00000001
00000010
00000001
00000000
,
00000001
00000100
00001000
00000000
,
00010000
00100000
10000000
00000000
,
10000000
00100000
10000000
00000000
,
10000000
01000000
10000000
00000000
,
10000000
01000000
00010000
00000000
,
00001000
00000010
00000001
00000000
,
00000001
00000100
00000001
00000000
,
00000001
00000100
00001000
00000100
,
00000010
00010000
00001000
00010000
,
01000000
00010000
01000000
10000000
,
00100000
01000000
01100000
00000000
,
10000000
01000000
00010000
01000000
,
00100000
00001000
00010000
00001000
,
00000100
00001000
00000100
00000001
,
00000010
00000100
00000110
00000000
,
00001000
00000000
00010000
00001000
00000000
00000000
00010000
00000000
00100000
01000000
00000000
00000000
,
00100000
10000000
01000000
00010000
,
00010000
00000000
00001000
00010000
00000000
00000000
00001000
00000000
00000100
00000010
00000000
00000000
,
00000100
00000001
00000010
00001000
,
00001000
00000000
00010000
00001000
00000000
00000000
00010000
00000000
01000000
00100000
00000000
00000000
,
01000000
10000000
00100000
00010000
,
00010000
00000000
00001000
00010000
00000000
00000000
00001000
00000000
00000010
00000100
00000000
00000000
,
00000010
00000001
00000100
00001000
,
00010000
00000000
00001000
00000000
,
00022000
00000000
00033000
00000000
,
00010000
01000000
00010000
00001000
,
00010000
00000000
00000000
00100000
00000000
00000000
00010000
00000000
00001000
00010000
00000000
00000000
,
00001000
00000100
00001000
00010000
,
00001000
00000000
00000000
00000010
00000000
00000000
00001000
00000000
00010000
00001000
00000000
00000000
,
00010000
00001000
00000100
00001000
,
00010000
01000000
00010000
00001000
,
00000010
00001000
00010000
00100000
,
00010000
00001000
00011000
00000000
,
00001000
00000010
00001000
00010000
,
00001000
00000000
00000000
00000100
00000000
00000000
00001000
00000000
00010000
00001000
00000000
00000000
,
00010000
00100000
00010000
00001000
,
00010000
00000000
00000000
01000000
00000000
00000000
00010000
00000000
00001000
00010000
00000000
00000000
,
00001000
00010000
00100000
00010000
,
00001000
00000010
00001000
00010000
,
01000000
00010000
00001000
00000100
,
00001000
00010000
00011000
00000000
,
00010000
00000000
00000000
00000000
00000000
00000000
00001000
00000000
00000000
00000000
00000000
00000001
,
00000000
00000000
00000000
00000000
,
00000001
00000100
00000001
00000100
,
00000010
00000000
00000000
00001000
00000000
00000000
00000100
00000000
00010000
00001000
00000000
00000000
,
01000000
00100000
10000000
00010000
,
00100000
00000000
01000000
00100000
00000000
00000000
01000000
00000000
00100000
01000000
00000000
00000000
,
10000000
00100000
01000000
00010000
,
01000000
00000000
00000000
00001000
00000000
00000000
00010000
00000000
00001000
00010000
00000000
00000000
,
00001000
00010000
00000010
00000100
,
00000001
00000000
00000010
00000001
00000000
00000000
00001000
00000000
00000100
00001000
00000000
00000000
,
00000200
00000000
00000000
00000300
,
00020000
00000000
00000000
00030000
,
00200000
00000000
00000000
00300000
,
00020000
00000000
00000000
00030000
,
00000020
00000000
00000000
00000030
,
00002000
00000000
00000000
00003000
,
00020000
00000000
00000000
00030000
,
00002000
00000000
00000000
00003000
,
00000001
00000000
00000101
00000000
,
00001000
00000000
00010000
00000000
,
00100000
00000000
10100000
00000000
,
01000000
00000000
00010000
00000000
,
00001000
00001000
00000010
00000010
,
00000100
00000100
00010000
00010000
,
00100000
00100000
10000000
10000000
,
10010000
00000000
00000000
00000000
,
00011000
00000000
00000000
00000000
,
00001000
00000010
00000100
00000010
,
00001000
00000000
00000000
00010000
00000000
00000000
00001000
00000000
00000100
00001000
00000000
00000000
,
00010000
00100000
01000000
00100000
,
00010000
00000000
00000000
00001000
00000000
00000000
00010000
00000000
01000000
00010000
00000000
00000000
,
01000000
10000000
00100000
00010000
,
00001000
00000100
00000001
00000010
,
00001000
00010000
01000000
00010000
,
00002000
00003200
00002300
00013000
,
00001000
00000100
00000010
00000100
,
00001000
00000000
00000000
00010000
00000000
00000000
00001000
00000000
00000010
00001000
00000000
00000000
,
00010000
01000000
00100000
01000000
,
00010000
00000000
00000000
00001000
00000000
00000000
00010000
00000000
00100000
00010000
00000000
00000000
,
00100000
10000000
01000000
00010000
,
00001000
00000010
00000001
00000100
,
00001000
00010000
00100000
00010000
,
00002000
00003020
00002030
00013000
,
00110000
00000000
00000000
00000000
00000000
00000000
11000000
00000000
00000000
00000000
00000000
10010000
,
00000000
00000000
00100000
00010000
,
00001000
00000000
00000000
00000000
00000000
00000100
00000010
00000000
00000000
00000100
00000000
00000010
,
00000000
00000000
00001000
00000100
,
00000110
00000000
00000000
00000000
00000000
00000010
00001000
00000000
00000000
00010000
00000000
00001000
,
00000000
00000000
00010000
00100000
,
10000000
00000000
00000000
00000000
00000000
00000000
00010000
00000000
00000000
00000000
00000000
00001000
,
00000000
00000000
00000000
00000000
;
#NOTES:
     dance-double:
     :
     Hard:
     13:
     :
00000000
00000000
00000000
00000000
,
00000000
00000000
00000000
00000000
,
00000000
00000000
00000000
00000000
,
00000000
00000000
00000000
00000000
,
00000000
00000000
00000000
00000000
,
00000001
00001000
00000001
00001000
,
00000010
00000100
00000010
00000100
,
00001000
00010000
00001000
00000010
,
00001000
00010000
01000000
10000000
,
00010000
10000000
00010000
10000000
,
00100000
01000000
00100000
01000000
,
00100000
00010000
00001000
00010000
,
00001000
00000100
00000001
00000000
,
00000001
00000100
00000010
00000100
,
00000001
00000000
00000000
00001000
00000000
00000000
00000100
00000000
00000010
00000100
00000000
00000000
,
00000010
00001000
00010000
00100000
,
10000000
00000000
00000000
00100000
00000000
00100000
01000000
00000000
01000000
00010000
00000000
00000000
,
10000000
00100000
01000000
00100000
,
10000000
00000000
00000000
00010000
00000000
00000000
00100000
00000000
01000000
00100000
00000000
00000000
,
01000000
00010000
00001000
00000100
,
00000001
00000000
00000000
00000100
00000000
00000100
00000010
00000000
00000010
00001000
00000000
00000000
,
00000100
00000000
00000100
00000010
00000000
00000010
00000100
00000000
00000100
00000010
00000000
00000010
,
00000100
00000010
00001000
00010000
,
00100000
00000000
00100000
01000000
00000000
01000000
00100000
00000000
00100000
01000000
00000000
01000000
,
00100000
00000000
01000000
00000000
00000000
00100000
00010000
00000000
00000000
00001000
00000000
00000000
,
00000100
00000000
00000100
00000010
00000000
00000010
00000100
00000000
00000100
00000010
00000000
00000010
,
00000100
00000010
00001000
00010000
,
00100000
00000000
00100000
01000000
00000000
01000000
00100000
00000000
00100000
01000000
00000000
01000000
,
00100000
00000000
01000000
00000000
00000000
00100000
00010000
00000000
00001000
00000000
00000000
00000000
,
00000002
00000000
00000103
00000000
,
00001000
00000000
00010000
00000000
00000000
00022000
00000000
00000000
00000000
00033000
00000000
00000000
,
00001000
00000000
00001000
00100000
00000000
00100000
00010000
00000000
00010000
10000000
00000000
10000000
,
00100000
00000000
00100000
01000000
00000000
01000000
00001000
00000000
00000000
00011000
00000000
00000000
,
00001000
00000000
00001000
00000010
00000000
00000010
00001000
00000000
00001000
00010000
00000000
00010000
,
00001000
00000000
00001000
00000100
00000000
00000100
00001000
00000000
00000000
00011000
00000000
00001000
,
01000000
00000000
00000000
01010000
00000000
00100000
10000000
00000000
00000000
10000000
00000000
11000000
,
00000000
00000000
00010000
00001000
00000000
00010000
00001000
00000000
00000000
00011000
00000000
00000000
,
00001000
00000000
00000100
00000000
00000000
00001000
00000000
00000000
00010000
00000000
00000000
01000000
,
00000000
00000000
00100000
00001000
00000000
00000000
00010000
00000000
00000000
00011000
00000000
00000000
,
00010000
00000000
00010000
00000010
00000000
00000010
00001000
00000000
00001000
00000001
00000000
00000001
,
00000010
00000000
00000010
00000100
00000000
00000100
00010000
00000000
00000000
00011000
00000000
00000000
,
00010000
00000000
00010000
00100000
00000000
00100000
00010000
00000000
00010000
00001000
00000000
00001000
,
00010000
00000000
00010000
01000000
00000000
01000000
00010000
00000000
00000000
00011000
00000000
00010000
,
00000100
00000000
00000000
00001100
00000000
00000010
00000001
00000000
00000000
00000001
00000000
00000101
,
00000000
00000000
00001000
00010000
00000000
00001000
00010000
00000000
00000000
00011000
00000000
00000000
,
00010000
00000000
01000000
00000000
00000000
00010000
00000000
00000000
00001000
00000000
00000000
00000100
,
00000000
00000000
00000010
00010000
00000000
00000000
00001000
00000000
00000000
00011000
00000000
00000000
,
00010000
00000000
00000000
00000000
00000000
00000000
01000000
00000000
00000000
00000000
00000000
01100000
,
00000000
00000000
00000000
00000000
,
00000001
00000000
00000010
00000001
00000000
00000010
00000001
00000000
00000010
00000001
00000000
00000000
,
00001000
00000000
00000010
00001000
00000000
00000010
00001000
00000000
00000010
00001000
00000000
00000000
,
00000100
00000000
00010000
00000100
00000000
00010000
00000100
00000000
00010000
00000100
00000000
00000000
,
00100000
00000000
00001000
00100000
00000000
00001000
00100000
00000000
00001000
00100000
00000000
00000000
,
00010000
00000000
01000000
00010000
00000000
01000000
00010000
00000000
01000000
00010000
00000000
00000000
,
10000000
00000000
00100000
10000000
00000000
00100000
10000000
00000000
00100000
10000000
00000000
00000000
,
01000000
00000000
00100000
01000000
00000000
00100000
01000000
00000000
00100000
01000000
00000000
00000000
,
00010000
00000000
00001000
00010000
00000000
00001000
00010000
00000000
00001000
00010000
00000000
00000000
,
00020000
00000000
00000000
00000000
,
01000000
00000000
00000000
00000000
,
00032000
00000000
00000000
00000000
,
00000100
00000000
00000000
00000000
,
00023000
00000000
00000000
00000000
,
00100000
00000000
00000000
00000000
,
00032000
00000000
00000000
00000000
,
00000010
00000000
00000000
00003000
,
00011000
00000000
01010000
00000000
,
00011000
00000000
01010000
00000000
,
00011000
00000000
00001100
00000000
,
00011000
00000000
00001100
00000000
,
00000001
00000100
00001000
00000000
,
00010000
01000000
10000000
00000000
,
10000000
00000000
00100000
00000000
00000000
00010000
00000000
00000000
00001000
00000000
00000000
00011000
,
00000000
00000000
00000000
00000000
00000000
00000000
00000000
00000000
00000000
00000000
00000000
00011000
,
00000000
00000000
00000000
00000000
,
00001000
00000000
00001000
01000000
00000000
01000000
00010000
00000000
00010000
10000000
00000000
10000000
,
01000000
00000000
01000000
00100000
00000000
00100000
00001000
00000000
00000000
00011000
00000000
00000000
,
00001000
00000000
00001000
00000100
00000000
00000100
00001000
00000000
00001000
00010000
00000000
00010000
,
00001000
00000000
00001000
00000010
00000000
00000010
00001000
00000000
00000000
00011000
00000000
00001000
,
00100000
00000000
00000000
00110000
00000000
01000000
10000000
00000000
00000000
10000000
00000000
10100000
,
00000000
00000000
00010000
00001000
00000000
00010000
00001000
00000000
00000000
00011000
00000000
00000000
,
00001000
00000000
00000010
00000000
00000000
00001000
00000000
00000000
00010000
00000000
00000000
00100000
,
00000000
00000000
01000000
00001000
00000000
00000000
00010000
00000000
00000000
00011000
00000000
00000000
,
00010000
00000000
00010000
00000100
00000000
00000100
00001000
00000000
00001000
00000001
00000000
00000001
,
00000100
00000000
00000100
00000010
00000000
00000010
00010000
00000000
00000000
00011000
00000000
00000000
,
00010000
00000000
00010000
01000000
00000000
01000000
00010000
00000000
00010000
00001000
00000000
00001000
,
00010000
00000000
00010000
00100000
00000000
00100000
00010000
00000000
00000000
00011000
00000000
00010000
,
00000010
00000000
00000000
00001010
00000000
00000100
00000001
00000000
00000000
00000001
00000000
00000011
,
00000000
00000000
00001000
00010000
00000000
00001000
00010000
00000000
00000000
00011000
00000000
00000000
,
00010000
00000000
00100000
00000000
00000000
00010000
00000000
00000000
00001000
00000000
00000000
00000010
,
00000000
00000000
00000100
00010000
00000000
00000000
00001000
00000000
00000000
00011000
00000000
00000000
,
01000000
00000000
00000000
00000000
00000000
00000000
10100000
00000000
00000000
00000000
00000000
10010000
,
00000000
00000000
00001000
00000010
,
00000001
00000000
00000000
00000000
00000000
00000100
00001000
00000000
00000000
00000100
00000000
00001000
,
00000000
00000000
00100000
00100000
,
01100000
00000000
00000000
00000000
00000000
00000000
10100000
00000000
00000000
00000000
00000000
10010000
,
00000000
00000000
00001000
00000100
,
00000001
00000000
00000000
00000000
00000000
00000000
00000010
00000000
00000000
00000000
00000000
00000010
,
00000000
00000000
00000000
00000000
;
