
//----- song ID: lach -----//
#TITLE:Lachryma《Re\:Queen’M》;
#ARTIST:かねこちはる;
#ARTISTTRANSLIT:Kaneko Chiharu;
#BANNER:Lachryma (Re-Queen'M).png;
#BACKGROUND:Lachryma (Re-Queen'M)-bg.png;
#CDTITLE:./CDTitles/SDVX III GRAVITY WARS.png;
#MUSIC:Lachryma (Re-Queen'M).ogg;
#SAMPLESTART:99.145;
#SAMPLELENGTH:15;
#BPMS:0=236;
#TIMESIGNATURES:0=6=8,84=4=4,264=6=8,318=4=4,390=6=8;
#NOTES:
     dance-single:
     :
     Beginner:
     5:
     :
0000
0000
0000
0000
,
0000
0000
0000
0000
,
0000
0000
0000
0000
,
0000
0000
0000
0000
,
0000
0000
0000
0000
,
0000
0000
0000
0000
,
0000
0000
0000
0000
,
0000
0000
0001
0000
,
0000
0001
0000
0000
,
1000
0000
0000
1000
,
0000
0000
0010
0000
,
0000
0010
0000
0000
,
0200
0000
0000
0300
,
0000
0000
0100
0000
,
0000
0100
0000
0000
,
1001
0000
0000
0000
,
0000
0000
1001
0000
,
0000
0000
0000
0000
,
1001
0000
0000
0000
,
0000
0000
0010
0000
,
0000
0010
0000
0000
,
0001
0000
0001
0000
,
0010
0000
0010
0000
,
0100
0000
0100
0000
,
2000
0000
3000
0000
,
1000
0000
0000
0000
,
0001
0000
0000
0000
,
1000
0000
0001
0000
,
1001
0000
0000
0000
,
1000
0000
1000
0000
,
0010
0000
0010
0000
,
0100
0000
0100
0000
,
0002
0000
0003
0000
,
0001
0000
0000
0000
,
1000
0000
0000
0000
,
0001
0000
0010
0000
,
0100
0000
1000
0000
,
0002
0000
0000
0000
,
0003
0000
0000
0000
,
1001
0000
0000
0000
,
0110
0000
0000
0000
,
1001
0000
0000
0000
,
0000
0000
0000
0000
,
0001
0000
0000
0000
,
1000
0000
0000
0000
,
0002
0000
0000
0000
,
0003
0000
0001
0000
,
2000
0000
0000
0000
,
3000
0000
1000
0000
,
0020
0000
0000
0000
,
0030
0000
0010
0000
,
0200
0000
0000
0000
,
0300
0000
0100
0000
,
0000
0100
0100
0000
,
0001
0000
1000
0000
,
0000
0010
0010
0000
,
1000
0000
0001
0000
,
0000
0010
0010
0000
,
0001
0000
1000
0000
,
0100
0000
0000
0001
,
0000
0000
0010
0000
,
0000
1000
0000
0000
,
2002
0000
0000
0000
,
0000
0000
0000
0000
,
3003
0000
0000
0000
,
0000
0000
0000
0000
,
0002
0000
0003
0200
,
0000
0300
0020
0000
,
0030
2000
0000
3000
,
2000
0000
3000
0200
,
0000
0300
0020
0000
,
0030
0002
0000
0003
,
2000
0000
3000
0002
,
0000
0003
2000
0000
,
0000
3000
0000
0000
,
0020
0000
0000
0030
,
0000
0000
0002
0000
,
0000
0003
0000
0000
,
0200
0000
0000
0300
,
0000
0000
1000
0000
,
0010
0000
0100
0100
,
0100
0000
0001
0000
,
0010
0000
0100
0100
,
0100
0000
1001
0000
,
0000
0000
0110
0000
,
0000
0000
0001
0000
,
1000
0000
1001
0000
,
0000
0000
0010
0000
,
0100
0000
0010
0000
,
0000
0000
1000
0000
,
0010
0000
0001
0000
,
0000
0000
1001
0000
,
0000
0000
0110
0000
,
0000
0000
0001
0001
,
0001
0000
1000
1000
,
1000
0000
2002
0000
,
0000
0000
3003
0000
,
0000
0000
0001
0000
,
0000
0010
0000
0000
,
1000
0000
0000
1000
,
0000
0000
0001
0000
,
0000
0100
0000
0000
,
1000
0000
0000
1000
,
0000
0000
1000
0000
,
0000
0010
0000
0000
,
0001
0000
0000
0001
,
0000
0000
1000
0000
,
0000
0100
0000
0000
,
0001
0000
0000
0001
,
0000
0000
2002
0000
,
0000
0000
3003
0000
,
0000
0000
1001
0000
,
0000
0000
0110
0000
,
0000
0000
0000
0000
,
2002
0000
0000
0000
,
0000
0000
0000
0000
,
0000
0000
0000
0000
,
3003
0000
0000
0000
,
0000
0000
0000
0000
;
#NOTES:
     dance-single:
     :
     Easy:
     9:
     :
0000
0000
0000
0000
,
0000
0000
0000
0000
,
0000
0000
0000
0000
,
0000
0000
0000
0000
,
0000
0000
0000
0000
,
0000
0000
0000
0000
,
0000
0000
0000
0000
,
0000
0000
0001
0100
,
0001
0100
0010
0100
,
0010
1000
0010
2000
,
0000
3000
1000
0100
,
1000
0100
0010
0100
,
0020
0000
0030
0200
,
0000
0300
0010
0001
,
0010
0001
1000
0001
,
2002
0000
0000
0000
,
0000
0000
0000
0000
,
0000
0000
0000
0000
,
0000
0000
0000
3003
,
0000
1000
0001
0100
,
1000
0100
0001
0000
,
1000
0000
0100
1000
0000
0000
0000
0000
,
0001
0000
0010
0001
0000
0000
0000
0000
,
1000
0001
1000
0001
,
2000
0000
3001
0000
,
0010
0000
0000
0010
0000
0000
0000
0000
,
0100
0000
0000
0100
0000
0000
0000
0000
,
0002
0003
2000
3000
,
1001
0000
0000
0000
,
0001
0000
0010
0001
0000
0000
0000
0000
,
1000
0000
0100
1000
0000
0000
0000
0000
,
0001
0001
1000
1000
,
0002
0000
1003
0000
,
0100
0000
0000
0100
0000
0000
0000
0000
,
0010
0000
0000
0010
0000
0000
0000
0000
,
1010
0000
0011
0000
,
1100
0000
0101
0000
,
0220
0000
0000
0000
,
0000
0000
0330
0000
,
1000
0000
0000
1000
0000
0000
0001
0000
,
0000
0001
0000
0000
1000
0000
0000
0000
,
2002
0000
0000
0000
,
0000
0000
3003
0000
,
0010
0000
0000
0010
0000
0000
0100
0000
,
0000
0100
0000
0000
0110
0000
0000
0000
,
0001
0010
0001
0010
,
0001
1000
0001
0000
,
1000
0010
1000
0010
,
1000
0001
1000
0000
,
0001
0100
0001
0100
,
0001
1000
0001
0000
,
1000
0100
1000
0100
,
1000
0001
1000
0100
,
0000
0000
0010
0000
0001
0000
0000
1001
,
0000
0100
0001
0000
,
0000
0000
0100
0000
0010
0000
0000
1001
,
0000
0010
1000
0100
,
0000
0000
1000
0000
0001
0000
0000
1001
,
0000
0100
1000
0000
,
1001
0000
0000
1000
0000
0000
0101
0000
,
0000
0001
0000
0000
1010
0000
0000
1000
,
0000
0000
0110
0000
0000
0100
0000
0000
,
2002
0000
0000
0000
,
0000
0000
0000
0000
,
0000
0000
0000
0000
,
0000
0000
3003
0000
,
0001
0000
0000
0001
0000
0000
0200
0000
,
0000
0000
0300
0000
1000
0000
0000
1000
,
0000
0020
0000
0030
,
0010
0001
0010
0002
,
0000
0003
0100
1000
,
0100
2000
0000
3000
,
0010
0100
0010
0200
,
0000
0300
2002
0000
,
0000
3003
0000
0000
,
0010
0000
0000
0100
,
0000
0000
0220
0000
,
0000
0330
0000
0001
,
1000
0001
0100
0001
,
2000
3000
0001
0010
,
0001
0100
0001
0010
,
0100
0000
1000
0010
,
0100
0001
0020
0000
,
0130
0000
0000
0000
0100
0000
0000
2200
,
0000
0000
3300
0000
0010
0000
0000
0022
,
0000
0033
0101
0000
,
1010
0000
0010
0010
,
0010
0000
1000
0100
,
0010
0001
1000
0001
,
1001
0000
1000
0100
,
0001
0100
1000
1000
,
1000
0000
0000
0000
0010
0000
0000
0110
,
0000
0000
0000
0000
0100
0000
0000
0110
,
0000
0000
0001
0010
,
0001
0001
1000
0100
,
1000
1000
2002
0000
,
0000
0000
3003
0000
,
0000
0000
1000
0100
,
0010
0100
0010
0001
,
0100
0001
0010
0100
,
1000
0010
0100
0001
,
0100
0010
0100
0010
,
1000
0001
0010
0001
,
1000
0010
1000
0100
,
0001
0100
1000
0001
,
0001
0100
1000
0100
,
0001
1000
0010
1000
,
0100
0010
0001
0100
,
0010
1000
0001
0010
,
0100
1000
2002
0000
,
0000
0000
0000
0000
,
3003
0000
0000
0000
0010
0000
0000
0010
,
0000
0000
0100
0000
0000
0100
0000
0000
,
0010
0100
0000
0000
,
2002
0000
0000
0000
,
0000
0000
0000
0000
,
0000
0000
0000
0000
,
3003
0000
0000
0000
,
0000
0000
0000
0000
;
#NOTES:
     dance-single:
     :
     Medium:
     14:
     :
0000
0000
0000
0000
,
0000
0000
0000
0000
,
0000
0000
0000
0000
,
0000
0000
0000
0000
,
0000
0000
0000
0000
,
0000
0000
0000
0000
,
0000
0000
0000
0000
,
0000
0000
0000
0000
0001
0010
0100
0000
,
1000
0000
0010
1000
0001
0000
0100
0000
,
0020
0000
0000
1030
0100
1000
0200
0000
,
0300
0000
0010
0001
0010
0000
0100
0000
,
1000
0010
0100
0001
,
2000
0000
0000
0200
,
3300
0000
0100
0010
0001
0000
0100
0000
,
0001
0010
0100
1000
,
2002
0000
0000
0000
,
0000
0000
0000
0000
,
0000
0000
0000
0000
,
0000
0000
0000
0000
,
3003
0002
0203
0320
,
2030
3001
1001
0000
,
0001
0000
0100
0020
0000
0030
1000
0100
,
1000
0000
0010
0200
0000
0300
0001
0010
,
0100
1000
0100
0010
0001
0100
0010
0100
,
0002
0000
1000
1003
,
1100
0000
0000
1000
0000
0000
2002
0000
0000
0000
0000
0000
3003
0000
0000
0000
,
0101
0000
0000
0001
0000
0000
2002
0000
0000
0000
0000
0000
3003
0000
0000
0000
,
0010
0000
0000
0000
0100
0000
0000
0000
0001
0000
0000
1000
0000
0000
0001
0000
,
1000
2002
0000
3003
,
1000
0000
0001
0200
0000
0300
0010
1000
,
0010
0000
0100
0002
0000
0003
1000
0100
,
0010
0000
0000
0001
0000
0000
0010
0000
0001
0000
0000
0100
0000
0000
0001
0000
,
1000
0001
1000
0001
1000
0001
1000
0000
,
1010
0000
0000
1000
0000
0000
2002
0000
0000
0000
0000
0000
3003
0000
0000
0000
,
0011
0000
0000
0001
0000
0000
2002
0000
0000
0000
0000
0000
3003
0000
0000
0000
,
1010
1000
1001
0010
,
0110
0100
0101
1000
,
2002
0000
0000
0000
,
0000
0000
0000
3003
,
0010
0001
0010
0100
1000
0010
0100
0001
,
0100
0010
1000
0100
0010
0001
0010
0000
,
0002
0000
0023
0000
,
0230
0000
2300
0000
,
3001
0100
0000
0001
0100
0000
0010
1000
,
0000
0010
1000
0000
1010
0000
1001
0000
,
0001
0100
0001
0100
0010
1000
0010
1000
,
0100
0010
0001
0010
0001
0100
0010
0000
,
0100
0001
0100
0001
0010
0100
0010
0001
,
1000
0100
0010
0100
1000
0010
0100
0000
,
0010
1000
0010
1000
0100
0010
0100
0010
,
0001
0100
0010
1000
0010
0100
0001
0000
,
1000
0100
1000
0100
0010
0001
0100
0010
,
1000
0010
1000
0010
1000
0100
0010
0001
,
0000
0000
0011
0000
0001
0100
0000
0101
,
0000
0100
0010
0100
0000
0100
1000
0100
,
1000
0000
1100
0000
0100
0010
0000
0110
,
0000
0010
0100
0010
0000
1000
0001
1000
,
0001
0000
1001
0000
0001
1000
0000
1100
,
0000
1000
0100
1000
0000
0100
0010
0100
,
0020
0001
0100
0032
,
1000
0100
2003
0100
,
0001
3200
0010
1000
,
0320
0000
0001
0000
,
1000
0000
0001
0000
,
0200
0000
0000
0000
,
0000
0000
0000
0330
,
1000
0000
0010
0100
0000
0010
1000
0000
,
1010
0000
1010
0000
0002
0000
0003
0001
,
0010
0100
2000
0000
0000
0000
3010
0100
,
0001
0010
0011
0001
,
0100
0000
0010
1000
0010
0000
1000
0000
,
0100
0000
0002
0000
0203
0000
1300
0100
,
0010
0001
1001
0010
,
0100
0110
1001
0100
,
1000
0100
1000
0100
,
1001
0100
0001
0100
,
0001
0100
1001
0010
,
1000
0000
0010
0000
1000
0000
0010
1000
,
0100
0010
0100
0010
0001
0010
0001
0000
,
1001
0000
0100
0001
0100
0000
0001
0010
,
0000
0001
0100
0001
0100
0000
0010
1000
,
0000
0100
1000
0100
1000
0010
1000
0000
,
0001
0100
0001
0000
2002
0000
3003
0000
,
0010
0000
0100
0000
0010
0000
0100
0000
0010
0000
0000
0100
0000
0000
0220
0000
,
0000
0000
0000
0000
0330
0000
0000
0000
1000
0000
0000
0001
0000
0000
2002
0000
,
0000
3003
0001
1001
,
0001
0000
0000
0000
0000
0000
0000
0000
0000
1000
0000
0000
0000
0000
0000
0000
0000
0000
0001
0000
0000
0000
0000
0000
0010
0000
0000
0000
0000
0000
0000
0000
0010
0000
0000
0000
0100
0000
0000
0000
0000
0000
0000
0000
0100
0000
0000
0000
,
1000
0000
1000
0001
0000
0000
0011
0000
0000
0110
0000
0000
,
1010
0000
0110
0000
0001
0010
0001
1000
,
0001
0000
0100
0000
0001
0000
0000
0000
0010
0000
0000
0001
0000
0000
0100
0000
,
0010
0000
0000
1000
0000
0000
0100
0000
1000
0000
0001
0000
1000
0000
0001
0000
,
1000
0000
0001
0000
1000
0000
0000
0000
0001
0000
0000
1000
0000
0000
0220
0000
,
0000
0000
0000
0000
0330
0000
0000
0000
1000
0000
0000
0001
0000
0000
0220
0000
,
0000
0000
0330
0000
1001
0000
0010
1000
,
0010
1000
0100
0010
0100
0010
0001
0010
,
0001
0100
0010
1000
0002
0000
0000
0000
,
0000
0000
0000
0000
0003
0000
0000
0000
1000
0000
0000
1000
0000
0000
1000
0000
,
0000
1000
0000
0000
1000
0000
0000
0000
0001
0000
0010
0000
0001
0000
0100
0000
,
0010
1000
0100
0010
0001
0010
0100
1000
,
0001
0100
0010
1000
0100
0010
0001
0100
,
0010
0100
0001
1000
0010
0100
0001
1000
,
0100
0010
0001
0010
1000
0001
0100
1000
,
0001
0101
1001
1000
,
1100
0000
1001
0000
1000
0100
1000
0010
,
0100
0001
0010
0100
1000
0001
0100
0010
,
1000
0001
0100
0010
0100
0001
0010
0100
,
0010
0001
1000
0100
0010
0001
0100
0010
,
1000
0001
1000
0010
0001
1000
0100
0001
,
1000
1010
1001
0001
,
0011
0110
2002
0000
,
0000
0000
0000
0000
,
0000
0000
3003
0000
0001
0100
0001
0010
,
0100
0010
0100
1000
0100
1000
0010
1000
,
0010
0100
0001
1000
0000
0000
0000
0000
,
0220
0000
0000
0000
,
0000
0000
0000
0000
,
0000
0000
0000
0000
,
0330
0000
0000
0000
,
0000
0000
0000
0000
;
#NOTES:
     dance-single:
     :
     Hard:
     18:
     :
0000
0000
0000
0000
,
0000
0000
0000
0000
,
0000
0000
0000
0000
,
0000
0000
0000
0000
,
0000
0000
0000
0000
,
0000
0000
0000
0000
,
0000
0000
0000
0000
,
0000
0000
0000
0000
1000
0100
0010
0001
,
0100
0010
0001
0010
0100
1000
0001
0010
,
0100
0001
0010
0100
1000
0010
0100
1000
,
0001
0010
0100
1000
0001
0010
0100
0001
,
0010
0100
1000
0001
0010
0100
1000
0100
,
0010
0001
1000
0100
0010
0000
0001
0010
,
0100
1000
0001
0000
1000
0100
0010
0001
,
0010
0100
1000
0001
0010
0100
1000
0100
,
0010
0001
0100
0010
1000
0100
1100
0000
,
1001
0000
1100
0000
1000
0010
0100
0001
,
0010
0100
1100
0000
1001
0000
1100
0000
,
0100
1000
0010
0100
0001
0010
0100
1000
,
0001
0000
0000
0100
0000
0000
0001
0000
0010
0000
0001
0000
1000
0000
0010
0000
0100
0000
0001
0000
1000
0000
0001
0000
,
0010
0000
0000
0000
0100
0000
0000
0000
1000
0000
0000
0000
0001
0000
0000
0000
0000
0000
0000
0000
0000
0000
0000
0000
1001
0000
0000
0000
0000
0000
0000
0000
0000
0000
0000
0000
0001
0000
0000
0010
0000
0000
0100
0000
0000
1000
0000
0000
,
0001
0000
0000
0000
0100
0000
0220
0000
0000
0000
0330
0000
1000
0100
0010
0001
,
1000
0000
0000
0000
0100
0000
0220
0000
0000
0000
0330
0000
0001
0010
0100
1000
,
0010
1000
0100
1000
0010
0100
0010
2000
,
0002
0000
0000
0000
3003
0000
0000
0000
0001
1000
0001
1000
0001
0000
1000
0100
,
0010
0000
0000
0011
0000
0000
1001
0000
0000
0000
0001
0000
0100
0000
1000
0000
,
0100
0000
0000
0110
0000
0000
2020
0000
0000
0000
0000
0000
3030
0000
0001
0100
,
0001
0000
0000
0000
1001
0000
0000
0000
0010
0000
0000
0100
0000
0000
0010
0000
,
0100
0000
0000
0000
2002
0000
0000
0000
3003
0000
0000
0000
0100
1000
0100
1000
,
0001
0000
0000
0000
1000
0000
1010
0000
0000
0000
0000
0000
0100
0001
0100
0001
,
1000
0000
0000
0000
0001
0000
0011
0000
0000
0000
0000
0000
0010
0100
0010
0100
,
1000
0000
0000
0010
0000
0000
0100
0000
0001
0000
0000
1000
0000
0000
0100
0000
,
1000
0001
1000
0001
1000
0001
1000
0001
1000
0001
1000
0001
1000
0000
0000
0000
,
0001
0000
0000
0100
0000
0000
0110
0000
0000
0000
1000
0000
0010
0000
0100
0000
,
0010
0000
0000
1000
0000
0000
1100
0000
0000
0000
0010
0000
0001
0000
1000
0000
,
0100
0000
0000
0000
1000
0000
0010
0100
0010
0000
0000
0000
1000
0000
0001
0010
,
0001
0000
0000
0000
0100
0000
0001
1000
0001
0000
0010
0000
0100
0000
0010
0000
,
2002
0000
0000
0000
,
0000
0000
0000
3003
,
0011
0001
1000
1100
0001
0100
0110
0010
,
1000
1010
0100
0001
1000
0100
0001
0100
,
2000
0000
3200
0000
,
0320
0000
0032
0000
,
1003
1100
0000
0001
0011
0000
0001
0101
,
0000
1000
1010
0000
0001
1000
0001
0000
,
1000
0100
1000
0000
0001
0000
0010
0000
0100
1000
0100
0000
0010
0000
0001
0000
,
0100
0001
0100
0000
0010
0000
1000
0000
0001
0100
0001
0000
1000
0100
1000
0000
,
0001
1000
0001
0000
0100
0000
0010
0000
1000
0100
1000
0000
0100
0000
0010
0000
,
0001
0100
0001
0000
1000
0000
0010
0000
0100
0010
0100
0000
0001
0100
0001
0000
,
1000
0100
0010
0000
0001
0000
0100
0000
0010
1000
0001
0000
0010
0000
0100
0000
,
1000
0001
0100
0000
0001
0000
0010
0000
0100
1000
0001
0000
0010
0100
1000
0000
,
0010
1000
0100
0000
0010
0000
0001
0000
0100
0010
1000
0000
0001
0000
0010
0000
,
0100
1000
0010
0000
0100
0000
0001
0000
1000
0100
1000
0100
0010
0001
0010
0001
,
0000
0000
1001
0000
1000
0100
0000
0110
,
0000
0010
0001
0100
0000
0010
1000
0010
,
1000
0000
1001
0000
0001
0100
0000
0110
,
0000
0010
1000
0010
0100
1000
0100
0001
,
0100
0000
0110
0000
0010
1000
0000
1001
,
0000
0001
0010
1000
0001
0100
1000
0001
,
1000
0001
1000
0001
1001
0000
0010
0100
,
0010
0100
0110
0000
0001
1000
0001
1000
,
1001
0000
0100
0010
0100
0010
0110
0000
,
1000
0001
1000
0001
1000
0001
1000
0001
1000
0001
1000
0001
1000
0001
1000
0001
,
1000
0001
1000
0001
1000
0001
1000
0001
1000
0001
1000
0001
1000
0001
1000
0001
,
1000
0001
1000
0001
1000
0001
1000
0001
1000
0001
1000
0001
1000
0001
1000
0001
,
1000
0001
1000
0001
1000
0001
1000
0001
1000
0001
1000
0001
1000
0001
1000
0001
,
1000
0010
1000
0100
0010
0001
0101
0000
,
1100
0000
1001
0000
0020
0000
1030
0010
,
0001
0010
2000
0000
3000
0000
0001
0010
,
0100
1100
1010
0100
,
0011
0000
0001
0010
0100
0000
0110
0000
,
1001
0000
0000
0000
0000
0000
0100
0000
0010
0000
0001
0000
1000
0000
0000
0000
0000
0000
0100
0000
0000
0001
0000
0000
,
0100
1000
0010
0100
0010
0000
1000
0001
,
0010
0100
1000
0000
0001
0100
0010
0100
,
0001
0100
1000
0100
0001
0100
0010
0000
,
1000
0100
0010
0100
1000
0100
0001
0100
,
1000
0100
0010
0000
0001
0100
0010
0100
,
0001
0000
0000
0100
0000
0000
1000
0000
0000
0100
0000
0000
0001
0000
0000
0100
0000
0000
0001
0000
0010
0000
0001
0000
,
0010
0100
0010
0100
1000
0100
1000
0001
1000
0001
0000
0000
,
1001
0000
0000
0000
0000
0000
0000
0000
0000
0000
0000
0000
0000
0000
0000
0000
0001
0000
0000
0000
0010
0000
0000
0000
0100
0000
0000
0000
1000
0000
0000
0000
0002
0003
0000
0000
0000
0000
0000
0000
0000
0000
0000
0000
0000
0000
0000
0000
1001
0000
0000
0000
0000
0000
0000
0000
1000
0000
0000
0000
0000
0000
0000
0000
,
0010
0000
0100
0000
0001
0010
0100
0010
0001
0000
1000
0000
0010
0000
0100
0000
,
0010
0000
1000
0000
0100
0010
0100
0010
0001
0000
0100
0000
1000
0000
0100
0000
,
0010
1000
0100
0010
0200
0000
0310
0000
,
1000
0001
1000
0001
1000
0000
1000
0100
0010
0000
0000
0011
0000
0000
0101
0000
,
0000
0000
0010
0000
0001
0000
0010
0000
1000
0000
0000
1100
0000
0000
2002
0000
,
0000
0000
0000
0000
3003
0000
0001
0100
0001
0000
0000
0000
1001
0000
0000
0000
,
0010
0000
0000
0000
0000
0000
0000
0000
0000
0001
0000
0000
0000
0000
0000
0000
0000
0000
1000
0000
0000
0000
0000
0000
0100
0000
0000
0000
1000
0000
0000
0000
0100
0000
0000
0000
1000
0000
0000
0000
0010
0000
0000
0000
1000
0000
0000
0000
,
0010
0100
0010
1000
0000
0000
0101
0000
0000
1010
0000
0000
,
1100
0000
0000
0000
0011
0000
0000
0000
1000
0100
0010
0000
0001
0100
0010
0000
,
1000
0001
1000
0001
1000
0000
0000
0000
0010
0000
0000
1000
0000
0000
1100
0000
,
0010
0000
0000
0001
0000
0000
0101
0000
0001
1000
0001
1000
0001
1000
0001
1000
,
0001
1000
0001
1000
0001
0000
0000
0000
1000
0000
0000
0100
0000
0000
0110
0000
,
0000
0000
1000
0000
0001
0000
1000
0000
0001
0000
0000
0100
0000
0000
0110
0000
,
0000
0000
0000
0001
0000
0000
0010
0000
0000
0100
0000
0000
1000
0000
0000
0000
0000
0000
0010
0000
0100
0000
1000
0000
,
0001
0010
0100
0001
0010
0100
0001
1000
0010
0001
1000
0010
,
0001
1000
0100
0010
1000
0100
0020
0000
0000
0000
0000
0000
,
0000
0000
0000
0000
0030
0000
0000
0000
0001
0000
0000
0001
0000
0000
1000
0000
,
0000
0000
0000
1000
0000
0000
0000
0000
0000
0000
0000
0000
0001
0000
0000
0000
0000
0000
1000
0000
0000
0000
0000
0000
0001
0000
0000
0000
0010
0000
0000
0000
0100
0000
0000
0000
1000
0000
0000
0000
0010
0000
0000
0000
0100
0000
0000
0000
,
0001
1000
0100
1000
0010
0100
0001
0010
0100
1000
0000
0000
,
0100
0010
0001
1000
0010
0100
0001
1000
0100
0010
0001
0100
,
0010
1000
0100
0010
0000
0000
1000
0010
0001
1000
0010
0100
,
1000
0100
0010
1000
0100
0010
0001
0100
1000
0100
0000
0000
,
0010
0100
1000
0100
0010
1000
0100
0010
0001
0010
0000
0000
,
0101
0000
0000
1100
0000
0000
1000
0100
0010
0001
0010
0100
,
1000
0010
0100
0001
1000
0100
0001
0100
1000
0010
0100
0001
,
0010
1000
0010
0001
0100
0010
1000
0001
0100
1000
0100
0010
,
1000
0100
0010
1000
0010
0100
1000
0001
0010
0100
0001
0100
,
0010
0001
1000
0010
0100
0001
0010
0100
1000
0010
0100
0001
,
0010
0011
1001
0100
,
1100
1010
2002
0000
,
0000
0000
0000
0000
,
0000
0000
3003
0000
1010
1000
0001
0101
,
1000
0100
0110
0010
0001
0011
0100
1000
,
0001
0100
1000
0100
0000
0000
0000
0000
,
0001
1000
0001
1000
0001
1000
0001
1000
0001
1000
0001
1000
0001
1000
0001
1000
,
0001
1000
0001
1000
0001
1000
0001
1000
0001
1000
0001
1000
0001
1000
0001
1000
,
0001
1000
0001
1000
0001
1000
0001
1000
0001
1000
0001
1000
0001
1000
0001
1000
,
0001
0000
0000
0000
,
0000
0000
0000
0000
;
#NOTES:
     dance-single:
     :
     Challenge:
     19:
     :
0000
0000
0000
0000
,
0000
0000
0000
0000
,
0000
0000
0000
0000
,
0000
0000
0000
0000
,
0000
0000
0000
0000
,
0000
0000
0000
0000
,
0000
0000
0000
0000
,
0000
0000
0000
0000
0000
0000
0001
0010
0100
1000
0001
0010
,
0100
1000
0100
0010
0001
1000
0100
0010
0001
1000
0001
0100
,
0010
1000
0001
0100
0010
1000
0001
0100
0010
0100
0001
1000
,
0010
0100
0001
1000
0010
0100
0001
0010
0100
1000
0010
0100
,
0001
1000
0100
0010
0001
1000
0001
0100
0010
1000
0100
0010
,
0001
0010
0100
0010
0100
1000
0001
0000
0000
1000
0010
0100
,
0010
0100
0001
1000
0000
0000
0010
0100
0001
1000
0100
0010
,
0001
0100
0010
1000
0100
1000
0010
0100
0001
1000
0001
1000
,
2002
0000
0000
0000
,
0000
0000
0000
0000
,
0000
0000
0000
0000
,
0000
0000
0000
0000
,
3003
0000
0000
0001
0010
0100
0001
0100
1000
0010
0100
1000
,
0100
0000
0000
0000
0001
0000
0000
0000
1000
0000
0000
0000
0010
0000
0000
0000
0000
0000
0000
0000
0000
0000
0000
0000
1001
0000
0000
0000
0000
0000
0000
0000
0000
0000
0000
0000
0001
0000
0000
0010
0000
0000
0001
0000
0000
0010
0000
0000
,
0100
0000
1000
0000
0010
0000
0100
0000
0001
0000
1000
0000
0100
0010
0100
0010
,
0001
0000
0100
0000
1000
0000
0100
0000
0010
0000
1000
0000
0010
1000
0010
1000
,
0100
0010
0011
0001
1001
1000
1010
0010
,
0100
0000
1000
0000
0100
0000
0001
0000
0010
0100
0010
0100
1000
0001
1000
0001
,
1000
0000
0000
0010
0000
0000
0110
0000
0001
0100
0001
0100
0010
1000
0010
1000
,
0010
0000
0000
1000
0000
0000
1001
0000
0001
0010
0001
0010
0100
1000
0100
0010
,
0001
0000
1000
0000
0100
0000
1000
0000
0010
0000
0000
0100
0000
0000
0010
0000
,
0100
0000
0000
0000
2002
0000
0000
0000
3003
0000
0000
0000
0100
1000
0100
1000
,
0001
0000
0100
0000
0010
0000
1000
0000
0100
0000
0010
0000
0001
0100
0001
0100
,
0010
0000
1000
0000
0010
0000
0100
0000
0010
0000
1000
0000
0100
0010
0100
0010
,
0001
0000
0000
0101
0000
0000
1010
0000
1000
0000
0000
1100
0000
0000
0011
0000
,
0001
0010
0100
1000
0001
0010
0100
1000
0001
0010
0100
1000
0001
0000
1000
0100
,
0010
0000
0000
0011
0000
0000
0101
0000
0000
0000
0010
1000
0100
0000
0001
0100
,
1000
0000
0000
1100
0000
0000
1010
0000
0000
0000
0010
1000
0100
0000
0010
0001
,
0100
0000
0000
0000
0001
0010
0100
1000
0010
0000
0000
0000
1000
0010
0100
0001
,
0010
0000
0000
0000
0001
0010
0100
1000
0010
0000
0100
0000
0010
0000
1000
0002
,
2000
0000
0000
0000
,
0000
0000
0000
3003
,
0011
0100
1000
0110
1000
0001
1100
0010
,
0001
1010
0100
0001
0110
1000
0001
0010
,
2002
0000
0000
0000
,
0000
0000
0000
3003
,
0010
0101
0000
0010
1100
0000
0010
0101
,
0000
0010
1100
0000
0001
1000
1001
0000
,
0001
0010
0100
1000
0001
0010
0100
1000
0001
0000
0100
0000
0010
0000
1000
0000
,
0010
1000
0001
0100
0010
1000
0001
0100
0010
0000
1000
0000
0100
0000
0010
0000
,
0001
1000
0010
0100
0001
1000
0010
0100
0001
0000
0010
0000
0100
0000
1000
0000
,
0100
0010
0001
1000
0100
0010
0001
1000
0100
0000
1000
0000
0001
0000
0000
0000
,
1000
0010
0100
0001
1000
0010
0100
0010
1000
0000
0100
0000
0010
0000
0001
0000
,
0010
0001
1000
0100
0010
0001
0010
0100
0010
0000
0001
0000
0100
0000
0010
0000
,
1000
0001
0010
0100
1000
0001
0010
0001
1000
0000
0010
0000
0100
0000
0001
0000
,
0100
0010
1000
0001
0100
0001
1000
0001
1000
0100
0010
0001
1000
0001
0010
0100
,
0000
0000
1001
0000
0010
0100
0000
0110
,
0000
0000
0010
1000
0100
0000
0010
0000
0001
0010
0100
1000
0100
0000
0010
0000
,
0001
0000
1001
0000
0010
0100
0000
0110
,
0000
0000
0010
1000
0100
0000
0001
0000
0100
1000
0100
0010
0100
0000
1000
0000
,
0001
0000
1001
0000
0010
0100
0000
0110
,
0000
0000
0010
1000
0001
0000
0100
0000
0010
1000
0010
0100
0001
0000
1000
0000
,
1100
1000
1010
1000
1001
0000
0101
0001
,
0011
0001
1001
0000
1001
1000
1100
1000
,
1010
0000
1001
0001
0101
0001
0011
0000
,
0001
0010
0100
1000
0001
0010
0100
1000
0001
0010
0100
1000
0001
0010
0100
1000
,
0001
0010
0100
1000
0001
0010
0100
1000
0001
0010
0100
1000
0001
0010
0100
1000
,
0001
0100
0010
1000
0001
0100
0010
1000
0001
0100
0010
1000
0001
0100
0010
1000
,
0001
0100
0010
1000
0001
0100
0010
1000
0001
0100
0010
1000
0001
0100
0010
1000
,
0001
0000
1000
0100
1000
0100
0020
0000
,
0000
0031
0101
1001
,
1000
0010
1000
0010
0200
0000
0000
0000
0300
0000
0000
0000
0001
0100
0001
0100
,
0010
0000
0000
0000
1010
0000
0000
0000
1000
0100
1000
0100
0010
0000
0000
0000
,
0011
0000
0000
0000
0001
0100
0001
0100
0010
0000
0000
0000
1010
0000
0000
0000
,
1001
0000
0000
0010
0001
0100
0010
0000
0000
0110
0000
0000
,
1000
0011
1001
0010
,
1010
0110
2002
0000
,
0000
0000
0000
0000
,
0000
0000
0000
0000
,
0000
0000
3003
0000
,
0000
0000
0000
0000
0000
0000
0000
0000
0000
0001
0010
1000
,
0001
0100
1000
0010
0001
1000
0100
0001
1000
0001
0000
0000
,
1001
0000
0000
0000
0000
0000
0000
0000
0000
0000
0000
0000
0000
0000
0000
0000
0001
0000
0000
0000
0010
0000
0000
0000
0100
0000
0000
0000
1000
0000
0000
0000
0002
0003
0000
0000
0000
0000
0000
0000
0100
0000
0000
0000
0000
0000
0000
0000
0010
0000
0000
0000
1000
0000
0000
0000
0001
0000
0000
0000
0000
0000
0000
0000
,
0010
0100
1000
0000
0001
0010
0100
0010
0001
0000
1000
0000
0010
0100
0001
0000
,
1000
0001
1000
0000
0100
1000
0001
1000
0100
0000
0010
0000
0011
0000
0001
0000
,
0101
0000
0100
0000
0110
0000
0010
0000
1010
0000
1000
0000
0001
0010
0100
0000
,
0110
0000
0100
0000
0001
0100
1000
0000
1100
0000
0000
1010
0000
0000
1001
0000
,
0100
0001
0100
0001
1000
0100
1000
0100
0010
0000
0000
0011
0000
0000
0101
0000
,
0010
1000
0010
1000
0001
0010
0001
0010
0200
0000
0000
0000
1000
0000
0000
0000
,
0320
0000
0000
0000
0000
0000
0000
0000
0000
0001
0000
0000
0000
0000
0000
0000
0000
0000
0031
0000
0000
0000
0000
0000
1000
0000
0000
0000
0010
0000
0000
0000
0100
0000
0000
0000
1000
0000
0000
0000
0001
0000
0000
0000
0010
0000
0000
0000
,
0100
0001
0010
0001
0000
0000
0101
0000
0000
1010
0000
0000
,
1100
0000
0000
0000
0011
0000
0000
0000
1000
0001
1000
0001
1000
0001
1000
0001
,
1000
0001
1000
0001
1000
0000
0100
0010
0001
0000
0000
0101
0000
0000
1010
0000
,
1000
0000
0000
1100
0000
0000
0011
0000
0001
0010
0001
0100
0001
0010
0001
0100
,
0001
0010
0001
0100
0001
0000
0100
0010
1000
0000
0000
0110
0000
0000
1001
0000
,
0000
0000
0100
0001
0010
0000
0100
1000
0010
0000
0000
1001
0000
0000
0110
0000
,
0000
0000
0000
0000
0000
0000
1000
0000
0000
0010
0000
0000
0100
0000
0000
0000
0000
0000
0001
0000
0000
0010
0000
0000
0100
0000
0000
0000
0000
0000
0000
0000
0000
0000
0000
0000
0100
0000
0000
0000
1000
0000
0000
0000
0010
0000
0000
0000
,
0100
0001
0010
0100
1000
0001
1000
0100
0010
0001
0100
1000
,
0100
0001
0010
0100
1000
0001
2002
0000
0000
0000
0000
0000
,
0000
0000
0000
0000
3003
0000
0000
0000
0110
0000
0000
1001
0000
0000
0011
0000
,
0000
0000
0000
1010
0000
0000
0000
0000
0000
0000
0000
0000
0101
0000
0000
0000
0000
0000
1100
0000
0000
0000
0000
0000
0011
0000
0000
0000
0010
0000
0000
0000
0100
0000
0000
0000
0010
0000
0000
0000
0001
0000
0000
0000
1000
0000
0000
0000
,
0010
0100
0001
0010
0100
1000
0010
0100
0010
1000
0001
0100
,
0110
0010
1000
0100
0010
0001
1000
0010
0100
0001
1000
0010
,
0100
0010
1000
0100
0010
0001
1001
1000
0001
0010
0100
1000
,
0001
1000
0100
1000
0010
0100
0001
0100
0010
1000
0100
0010
,
0011
0001
0010
0001
0100
0010
1000
0010
0100
0001
0100
1000
,
0100
0001
1000
1001
0000
0000
0110
0010
0001
0100
0010
0001
,
1000
0100
0001
0010
0100
0001
1000
0010
0100
1000
0001
0100
,
1100
1000
0001
0010
0100
0001
0010
1000
0001
0100
1000
0100
,
0001
1000
0010
0100
1000
0010
0110
0100
1000
0001
0010
0100
,
0001
0010
0100
0001
1000
0010
0001
1000
0100
0010
0001
1000
,
0001
0010
1000
0001
0100
1000
0001
0010
1000
1001
1000
0010
,
0001
1000
0100
0001
1000
0010
2002
0000
0000
0000
0000
0000
,
0000
0000
0000
0000
,
0000
0000
3003
0000
1001
0101
1010
0011
,
0110
1001
0101
0011
1100
0101
1001
0110
,
1010
0000
0101
0000
0011
0000
1100
0000
0000
0000
0000
0000
0000
0000
0010
0100
,
0001
0010
0100
1000
0001
1000
0100
0010
0001
0010
0100
1000
0001
1000
0100
0010
,
0001
0010
0100
1000
0001
1000
0100
0010
0001
0010
0100
1000
0001
1000
0100
0010
,
0001
0010
0100
1000
0001
1000
0100
0010
0001
0010
0100
1000
0001
1000
0100
0010
,
0001
0000
0000
0000
,
0000
0000
0000
0000
;
#NOTES:
     dance-double:
     :
     Easy:
     9:
     :
00000000
00000000
00000000
00000000
,
00000000
00000000
00000000
00000000
,
00000000
00000000
00000000
00000000
,
00000000
00000000
00000000
00000000
,
00000000
00000000
00000000
00000000
,
00000000
00000000
00000000
00000000
,
00000000
00000000
00000000
00000000
,
00000000
00000000
10000000
01000000
,
10000000
01000000
00100000
00001000
,
00010000
00001000
00000100
00000020
,
00000000
00000030
00000010
00000100
,
00000010
00000100
00000001
00000100
,
00000002
00000000
00000003
00000020
,
00000000
00000030
00001000
00010000
,
00001000
00010000
01000000
10000000
,
00020000
00000000
00000000
00000000
,
00000000
00000000
00000000
00000000
,
00000000
00000000
00000000
00000000
,
00000000
00000000
00000000
00030000
,
00000000
10000000
00100000
00010000
,
00001000
00000100
00000001
00000000
,
00000001
00000000
00000010
00000100
00000000
00000000
00000000
00000000
,
00010000
00000000
00001000
00010000
00000000
00000000
00000000
00000000
,
01000000
00100000
01000000
10000000
,
00020000
00000000
01030000
00000000
,
00100000
00000000
00000000
00100000
00000000
00000000
00000000
00000000
,
00001000
00000000
00000000
00001000
00000000
00000000
00000000
00000000
,
00020000
00030000
00000200
00000300
,
00001000
00000000
00000000
00000000
,
00000100
00000000
00010000
00001000
00000000
00000000
00000000
00000000
,
01000000
00000000
00100000
10000000
00000000
00000000
00000000
00000000
,
01000000
00010000
00001000
00000010
,
00002000
00000000
00013000
00000000
,
00000100
00000000
00000000
00000100
00000000
00000000
00000000
00000000
,
00000010
00000000
00000000
00000010
00000000
00000000
00000000
00000000
,
00001010
00000000
00001100
00000000
,
00011000
00000000
00110000
00000000
,
02020000
00000000
00000000
00000000
,
00000000
00000000
03030000
00000000
,
10000000
01000000
10000000
01000000
,
00100000
00010000
00001000
00000000
,
00000200
00000000
00000000
00000000
,
00000020
00000000
00000330
00000000
,
00000001
00000000
00000000
00000100
00000000
00000000
00000010
00000000
,
00000000
00010000
00000000
00000000
00011000
00000000
00000000
00000000
,
00001000
01000000
00001000
01000000
,
00100000
10000000
01000000
00000000
,
01000000
00010000
01000000
00010000
,
00001000
00010000
00001000
00000000
,
00001000
00000010
00001000
00000010
,
00000001
00001000
00000001
00000000
,
00000001
00000100
00000001
00000100
,
00001000
00010000
00100000
10000000
,
00000000
00000000
00010000
00000000
10000000
00000000
00000000
10010000
,
00000000
01000000
00010000
00000000
,
00000000
00000000
00100000
00000000
00001000
00000000
00000000
00011000
,
00000000
00010000
00000100
00001000
,
00000000
00000000
00000001
00000000
00000100
00000000
00000000
00000110
,
00000000
00000100
00000010
00000000
,
00010000
00000000
00000000
00010000
00000000
00000000
00001000
00000000
,
00000000
00001000
00000000
00000000
01000000
00000000
00000000
01000000
,
00000000
00000000
00100000
00000000
00000000
00100000
00000000
00000000
,
02200000
00000000
00000000
00000000
,
00000000
00000000
00000000
00000000
,
00000000
00000000
00000000
00000000
,
00000000
00000000
03300000
00000000
,
10000000
00000000
00000000
01000000
00000000
00000000
00200000
00000000
,
00000000
00000000
00300000
00000000
00001000
00000000
00000000
00010000
,
00000000
00002000
00000000
00003000
,
00010000
00000010
00001000
00000020
,
00000000
00000030
00000100
00000001
,
00000100
00000020
00000000
00000030
,
00001000
00000100
00001000
00000100
,
00010000
00001000
00020000
00000000
,
00000000
00000010
00030010
00000000
,
00002000
00000000
00000000
00100000
,
00103000
00000000
00020000
00000000
,
00000000
00000100
00030100
00000000
,
00002000
00000000
00000000
01000000
,
01003000
00000000
00010000
01000000
,
00010000
01000000
00100000
00010000
,
00100000
00001000
00010000
00000100
,
00001000
00000100
00000020
00000000
,
00000031
00000000
00000000
00000000
00000100
00000000
00000000
00000200
,
00000000
00000000
00000300
00000000
00001000
00000000
00000000
00002000
,
00000000
00003000
00010000
00100000
,
00010000
00000000
00001000
00010000
,
01000000
00000000
10000000
00100000
,
01000000
00001000
00010000
00000010
,
00001000
00000000
00000001
00000010
,
00000100
00010000
00001000
00010000
,
00001000
00000000
00000000
00000000
01000000
00000000
00000000
00010000
,
00000000
00000000
00000000
00000000
00000100
00000000
00000000
00001000
,
00000000
00000000
01000000
00100000
,
00010000
00001000
00000010
00000100
,
00010000
00001000
00020000
00000000
,
00000000
00000000
00031000
00000000
,
00000000
00000000
00100000
00010000
,
01000000
00100000
10000000
01000000
,
00100000
00001000
00010000
00001000
,
00000010
00000100
00001000
00000010
,
00000100
00000001
00000010
00000100
,
00000001
00000100
00001000
00000020
,
00000000
00000030
00000100
00001000
,
00010000
00100000
01000000
00010000
,
00100000
01000000
00010000
00001000
,
00100000
00010000
10000000
01000000
,
00010000
00001000
00000010
00000100
,
00001000
00000100
00000010
00000001
,
00000100
00001000
00022000
00000000
,
00000000
00000000
00000000
00000000
,
00033000
00000000
00000000
00000000
00100000
00000000
00000000
00010000
,
00000000
00000000
00000010
00000000
00000000
00001000
00000000
00000000
,
00010000
00001000
00000000
00000000
,
00022000
00000000
00000000
00000000
,
00000000
00000000
00000000
00000000
,
00000000
00000000
00000000
00000000
,
00033000
00000000
00000000
00000000
,
00000000
00000000
00000000
00000000
;
#NOTES:
     dance-double:
     :
     Medium:
     14:
     :
00000000
00000000
00000000
00000000
,
00000000
00000000
00000000
00000000
,
00000000
00000000
00000000
00000000
,
00000000
00000000
00000000
00000000
,
00000000
00000000
00000000
00000000
,
00000000
00000000
00000000
00000000
,
00000000
00000000
00000000
00000000
,
00000000
00000000
10000000
01000000
,
00100000
00010000
01000000
00010000
,
00200000
00000000
00000000
00301000
00010000
00001000
00020000
00000000
,
00030000
00000000
00000100
00001000
00000100
00000000
00000010
00000000
,
00000001
00000100
00001000
00000100
,
00002000
00000000
00000000
00020000
,
00033000
00000000
00010000
00100000
00010000
00000000
00100000
00000000
,
01000000
00100000
10000000
00010000
,
20020000
00000000
00000000
00000000
,
00000000
00000000
00000000
00000000
,
00000000
00000000
00000000
00000000
,
00000000
00000000
00000000
00000000
,
30030000
20000000
30020000
00032000
,
00003002
00001003
00001001
00000000
,
00000010
00000000
00000100
00001000
00000000
00000100
00010000
00001000
,
00010000
00000000
01000000
00100000
00000000
01000000
10000000
01000000
,
00100000
00010000
00100000
00001000
00010000
00000100
00001000
00000100
,
00000020
00000000
00000000
00000030
,
00000001
00000000
00000000
00000100
00000000
00000000
00000220
00000000
00000000
00000000
00000000
00000000
00000330
00000000
00000000
00000000
,
00001000
00000000
00000000
00010000
00000000
00000000
00022000
00000000
00000000
00000000
00000000
00000000
00033000
00000000
00000000
00000000
,
00100000
00000000
00000000
00000000
01000000
00000000
00000000
00000000
00010000
00000000
00000000
00100000
00000000
00000000
00001000
00000000
,
00010000
00022000
00000000
00033000
,
00001000
00000000
00000010
00001000
00000000
00010000
00001000
00010000
,
00001000
00000000
00000100
00001000
00000000
00000000
00010000
00100000
,
10000000
00000000
00000000
01000000
00000000
00000000
00100000
00000000
00010000
00000000
00000000
00001000
00000000
00000000
00000100
00000000
,
00000010
00000100
00000010
00000100
00000010
00000100
00000010
00000000
,
00001000
00000000
00000000
00010000
00000000
00000000
00022000
00000000
00000000
00000000
00000000
00000000
00033000
00000000
00000000
00000000
,
00100000
00000000
00000000
00010000
00000000
00000000
02020000
00000000
00000000
00000000
00000000
00000000
03030000
00000000
00000000
00000000
,
10010000
00000000
01000000
00100000
00010000
00000000
00100000
00001000
,
00010000
00000000
00000100
00000010
00000001
00000000
00001000
00000000
,
00002002
00000000
00000000
00000000
,
00000000
00000000
00000000
00003003
,
00000001
00000100
00000000
00000010
00001000
00000000
00010000
01000000
,
00000000
00100000
10000000
00000000
00010000
00100000
01000000
10000000
,
00020000
00000000
02030000
00000000
,
03002000
00000000
00003200
00000000
,
00000301
00000010
00000000
00000100
00001000
00000000
00010000
00100000
,
00000000
01000000
10000000
00000000
10010000
00000000
00000000
00000000
,
10000000
01000000
10000000
01000000
00100000
00010000
00100000
00001000
,
00010000
00001000
00010000
00000010
00001000
00000010
00000100
00000000
,
00000001
00000100
00000001
00000100
00000010
00001000
00000010
00010000
,
00001000
00010000
00001000
00100000
00010000
00100000
01000000
00000000
,
10000000
01000000
00100000
01000000
00100000
00001000
00010000
00001000
,
00000010
00001000
00000010
00000001
00000100
00000010
00001000
00000000
,
00000001
00000100
00000010
00000100
00000010
00010000
00001000
00010000
,
00100000
00010000
00100000
10000000
01000000
00100000
00010000
00001000
,
00000000
00000000
00000110
00000000
00000001
00000100
00000000
00000110
,
00000000
00000100
00001000
00000100
00000000
00001000
00010000
00001000
,
00010000
00000000
00011000
00000000
00001000
00100000
00000000
00110000
,
00000000
00010000
01000000
00010000
00000000
10000000
00100000
10000000
,
01000000
00000000
01100000
00000000
00100000
00001000
00000000
00011000
,
00000000
00010000
00000010
00001000
00000000
00000010
00000100
00000000
,
00000002
00000000
00000000
00001000
00000000
00000000
00000203
00000000
,
00000000
00010000
00000000
00000000
00002300
00000000
00000000
00100000
,
00000000
00000000
00023000
00000000
00000000
01030000
00000000
00000000
,
20000000
00000000
30200000
00000000
,
00320000
00000000
00031000
00000000
,
00022000
00000000
00000000
00000000
,
00000000
00000000
00000000
00033000
,
00001000
00000000
00000100
00000001
00000000
00000100
00000001
00000000
,
00001000
00000100
00000010
00001000
,
00010000
01000000
00100000
00000000
00010000
00000000
10000000
01000000
,
00100000
00001000
00010000
00100000
,
00010000
00000000
00001000
00000010
00000001
00000000
00000100
00000000
,
00001000
00000000
00020000
00000000
02030000
00000000
03010000
00001000
,
00010000
00100000
10000000
01000000
,
00010000
00001000
00011000
00000100
,
00000010
00000100
00000010
00000100
,
00011000
01000000
00100000
01000000
,
00100000
01000000
00011000
00000010
,
00000100
00000000
00000010
00000000
00000100
00000000
00001000
00010000
,
01000000
10000000
01000000
00100000
00001000
00010000
00000010
00000000
,
00000220
00000000
00000330
00000000
00000100
00000000
00000010
00001000
,
00000000
00000010
00010000
00001000
00010000
00000000
00100000
01000000
,
00000000
00100000
10000000
00100000
01000000
00010000
01000000
00001000
,
00010000
00000010
00001000
00000010
00000200
00000000
00000300
00000000
,
00000001
00000000
00000010
00000000
00000100
00000000
00001000
00000000
00000001
00000000
00000000
00000010
00000000
00000000
00000220
00000000
,
00000000
00000000
00000000
00000000
00000330
00000000
00000000
00000000
00001000
00000000
00000000
00010000
00000000
00000000
00022000
00000000
,
00000000
00033000
01000000
00100000
,
00010000
00000000
00000000
00000000
00000000
00000000
00000000
00000000
00000000
01000000
00000000
00000000
00000000
00000000
00000000
00000000
00000000
00000000
00001000
00000000
00000000
00000000
00000000
00000000
00010000
00000000
00000000
00000000
00000000
00000000
00000000
00000000
00010000
00000000
00000000
00000000
00000100
00000000
00000000
00000000
00000000
00000000
00000000
00000000
00000100
00000000
00000000
00000000
,
00000010
00000000
00000010
00000001
00000000
00000000
00000011
00000000
00000000
00000101
00000000
00000000
,
00001100
00000000
00011000
00000000
00010000
00001000
00010000
00001000
,
00010000
00000000
00001000
00000000
00010000
00000000
00000000
00000000
00001000
00000000
00000000
00100000
00000000
00000000
01000000
00000000
,
00010000
00000000
00000000
00001000
00000000
00000000
00000010
00000000
00000001
00000000
00000100
00000000
00001000
00000000
00000100
00000000
,
00000001
00000000
00000100
00000000
00001000
00000000
00000000
00000000
00010000
00000000
00000000
00001000
00000000
00000000
00022000
00000000
,
00000000
00000000
00000000
00000000
00033000
00000000
00000000
00000000
01000000
00000000
00000000
00010000
00000000
00000000
00220000
00000000
,
00000000
00000000
00330000
00000000
10010000
00000000
10000000
01000000
,
00100000
00010000
00100000
00010000
00001000
00000100
00001000
00000100
,
00000010
00000001
00000010
00000000
00002002
00000000
00000000
00000000
,
00000000
00000000
00000000
00000000
00003003
00000000
00000000
00000000
00000001
00000000
00000000
00001000
00000000
00000000
00000001
00000000
,
00000000
00001000
00000000
00000000
00000001
00000000
00000000
00000000
00000001
00000000
00000010
00000000
00000100
00000000
00010000
00000000
,
00001000
00100000
00010000
01000000
00100000
10000000
01000000
00100000
,
00001000
00010000
00000100
00001000
00000010
00000100
00000001
00000100
,
00000010
00001000
00000100
00000010
00001000
00010000
01000000
00100000
,
00010000
01000000
00001000
00010000
00000010
00010000
00001000
01000000
,
00100000
10100000
00110000
00011000
,
01010000
00000000
10010000
00000000
10000000
01000000
00100000
00001000
,
00010000
00000100
00001000
00000010
00000100
00000001
00000010
00000100
,
00010000
00001000
00100000
00010000
01000000
00100000
10000000
00100000
,
01000000
00010000
00100000
01000000
00010000
00001000
00000010
00000100
,
00001000
00000010
00010000
00001000
01000000
00001000
00010000
00000010
,
00000100
00000101
00001100
00011000
,
00001010
00001001
00000220
00000000
,
00000000
00000000
00000000
00000000
,
00000000
00000000
00000330
00000000
00000001
00000100
00000000
00000010
,
00001000
00000000
00010000
01000000
00000000
00100000
10000000
00000000
,
01000000
00010000
00001000
00000010
00000000
00000000
00000000
00000000
,
00000220
00000000
00000000
00000000
,
00000000
00000000
00000000
00000000
,
00000000
00000000
00000000
00000000
,
00000330
00000000
00000000
00000000
,
00000000
00000000
00000000
00000000
;
#NOTES:
     dance-double:
     :
     Hard:
     18:
     :
00000000
00000000
00000000
00000000
,
00000000
00000000
00000000
00000000
,
00000000
00000000
00000000
00000000
,
00000000
00000000
00000000
00000000
,
00000000
00000000
00000000
00000000
,
00000000
00000000
00000000
00000000
,
00000000
00000000
00000000
00000000
,
00000000
00000000
00000000
00000000
00000001
00000010
00000100
00001000
,
00010000
00100000
01000000
10000000
01000000
00100000
00010000
00001000
,
00000100
00000010
00000001
00000100
00001000
00000100
00001000
00010000
,
00001000
00010000
00100000
00000000
10000000
01000000
00100000
00010000
,
00001000
00000100
00000010
00000001
00000010
00000100
00001000
00010000
,
00100000
01000000
10000000
00100000
00010000
00100000
00010000
00001000
,
00010000
00001000
00000100
00000000
00000001
00000010
00000100
00001000
,
00010000
00100000
01000000
10000000
00100000
00010000
00001000
00000100
,
00000001
00000010
00000100
00000010
00000001
00000100
00001000
00000000
,
00011000
00000000
00110000
00000000
10000000
00100000
01000000
00100000
,
10000000
01000000
00010000
00000000
00011000
00000000
00001010
00000000
,
00000001
00000100
00000010
00000100
00000001
00000010
00001000
00000000
,
00011000
00000000
00000000
00010000
00100000
10000000
00010000
00100000
01000000
00010000
00001000
00000010
,
00000001
00000000
00000000
00000000
00000100
00000000
00000000
00000000
00000010
00000000
00000000
00000000
00001000
00000000
00000000
00000000
00000000
00000000
00000000
00000000
00000000
00000000
00000000
00000000
00001001
00000000
00000000
00000000
00000000
00000000
00000000
00000000
00000000
00000000
00000000
00000000
00000001
00000000
00000000
00000010
00000000
00000000
00000001
00000000
00000000
00000010
00000000
00000000
,
00000100
00000000
00000000
00000000
00001000
00000000
00000100
00000000
00000000
00000000
00000100
00000000
00010000
00001000
00010000
00001000
,
00010000
00000000
00000000
00000000
00001000
00000000
00100000
00000000
00000000
00000000
00100000
00000000
00010000
01000000
00010000
01000000
,
00100000
10000000
01000000
00100000
00001000
00010000
00000100
00001000
,
00000002
00000000
00000000
00000000
00000003
00000000
00000000
00000000
00001000
00000001
00001000
00000001
00001000
00000000
00000010
00001000
,
00000010
00000000
00000000
00000100
00000000
00000000
00001100
00000000
00000000
00000000
00001000
00000000
00010000
00000000
00100000
00000000
,
10000000
00000000
00000000
00010000
00000000
00000000
20020000
00000000
00000000
00000000
00000000
00000000
30030000
00000000
10000000
01000000
,
10000000
00000000
01000000
00000000
00100000
00000000
00010000
00000000
00100000
00000000
00000000
00001000
00000000
00000000
00010000
00000000
,
00001000
00000000
00000000
00000000
00022000
00000000
00000000
00000000
00033000
00000000
00000000
00000000
00000010
00001000
00000010
00001000
,
00000001
00000000
00000000
00000000
00000100
00000000
00000010
00000000
00000000
00000000
00000100
00000000
00001000
00010000
00001000
00010000
,
00001000
00000000
00000000
00000000
01000000
00000000
00010000
00000000
00000000
00000000
00100000
00000000
01000000
10000000
01000000
10000000
,
00010000
00000000
00000000
00100000
00000000
00000000
01000000
00000000
00010000
00000000
00000000
00001000
00000000
00000000
00000010
00000000
,
00001000
00010000
00001000
00010000
00001000
00010000
00001000
00010000
00001000
00010000
00001000
00010000
00001000
00000000
00000000
00000000
,
00000100
00000000
00000000
00000001
00000000
00000000
00000011
00000000
00000000
00000000
00000100
00000000
00010000
00000000
00001000
00000000
,
00010000
00000000
00000000
01000000
00000000
00000000
01100000
00000000
00000000
00000000
10000000
00000000
01000000
00000000
00100000
00000000
,
00010000
00000000
00000000
00000000
00100000
00000000
00001000
00010000
00001000
00000000
00000000
00000000
00000100
00000000
00001000
00010000
,
00001000
00000000
00000000
00000000
01000000
00000000
00001000
00010000
00001000
00000000
00000010
00000000
00000100
00000000
00000010
00000000
,
00002002
00000000
00000000
00000000
,
00000000
00000000
00000000
00003003
,
00000011
00000001
00000100
00001000
00010000
00100000
10100000
10000000
,
01000000
00010000
00001000
00000010
00000110
00000100
00000001
00000100
,
00020000
00000000
00000000
00000000
,
00002000
00000000
00000000
00000000
00000000
00000000
00000000
00033000
,
00010000
00110000
00000000
00010000
01010000
00000000
00001000
00001100
,
00000000
00001000
00001010
00000000
00000100
00000010
00000100
00000000
,
00000001
00000010
00000001
00000000
00000100
00000000
00000010
00000000
00010000
00000000
00001000
00000000
00100000
00000000
00010000
00000000
,
01000000
00100000
01000000
00000000
00010000
00000000
00100000
00000000
01000000
00000000
10000000
00000000
01000000
00000000
00010000
00000000
,
00001000
00010000
00001000
00000000
00000010
00000000
00000001
00000000
00000100
00000000
00001000
00000000
00000100
00000000
00000010
00000000
,
00001000
00000100
00001000
00000000
00000100
00000000
00000010
00000000
00001000
00010000
00001000
00000000
01000000
00000000
00100000
00000000
,
10000000
00100000
10000000
00000000
01000000
00000000
00010000
00000000
00001000
00000000
00010000
00000000
00001000
00000000
00000010
00000000
,
00000001
00001000
00000001
00000000
00000100
00000000
00001000
00000000
00010000
00000000
00000100
00000000
00001000
00000000
00000100
00000000
,
00010000
00001000
00010000
00000000
00001000
00000000
00100000
00000000
00010000
00000000
01000000
00000000
10000000
00000000
01000000
00000000
,
00100000
10000000
00100000
00000000
10000000
00000000
01000000
00000000
00100000
00010000
00100000
00000000
00001000
00010000
00001000
00010000
,
00000000
00000000
00011000
00000000
00001000
00000100
00000000
00000110
,
00000000
00000100
00000001
00000010
00001000
00010000
00001000
00010000
,
00001000
00000000
00011000
00000000
00010000
01000000
00000000
01100000
,
00000000
01000000
10000000
00100000
00010000
00001000
00010000
00001000
,
00010000
00000000
00011000
00000000
00001000
00000010
00000000
00000110
,
00000000
00000010
00000001
00000100
00001000
00010000
00001000
00010000
,
00100000
10000000
00010000
10010000
00000000
00000000
01000000
00010000
,
00001000
00011000
00000000
00000000
00000010
00000001
00000100
00000110
,
00000000
00000000
00001000
00010000
00001000
00011000
00000000
00000000
,
00001000
00010000
00001000
00010000
00001000
00010000
00001000
00010000
00001000
00010000
00001000
00010000
00001000
00010000
00001000
00010000
,
00001000
00010000
00001000
00010000
00001000
00010000
00001000
00010000
00001000
00010000
00001000
00010000
00001000
00010000
00001000
00010000
,
00001000
00010000
00001000
00010000
00001000
00010000
00001000
00010000
00001000
00010000
00001000
00010000
00001000
00010000
00001000
00010000
,
00001000
00010000
00001000
00010000
00001000
00010000
00001000
00010000
00001000
00010000
00001000
00010000
00001000
00000000
00000000
00000000
,
00010000
01000000
10000000
01000000
00100000
00001000
00010000
00000000
,
00010100
00000000
00001100
00000000
00000110
00000000
00000000
00000001
,
00000100
00001000
00020000
00000000
00030000
00000000
00100000
10000000
,
01000000
01010000
00011000
00000010
,
00000011
00000000
00000001
00000100
00001000
00000000
00011000
00000000
,
00001010
00000000
00000000
00000000
00000000
00000000
00000010
00000000
00000100
00000000
00001000
00000000
00010000
00000000
00000000
00000000
00000000
00000000
01000000
00000000
00000000
10000000
00000000
00000000
,
01000000
01100000
00101000
00011000
,
00010100
00000000
00000110
00000000
00000001
00000100
00000010
00000100
,
00001000
00000100
00001000
00010000
00001000
00000000
01100000
00000000
,
10000000
01000000
00100000
01000000
00010000
01000000
00010000
00001000
,
00010000
00000000
00000110
00000000
00000001
00000100
00000010
00000100
,
00001000
00000000
00000000
00000100
00000000
00000000
00001000
00000000
00000000
00010000
00000000
00000000
00001000
00000000
00000000
00100000
00000000
00000000
00010000
00000000
10000000
00000000
00100000
00000000
,
01000000
00100000
00010000
00001000
00000100
00000010
00001000
00000100
00000010
00000001
00000000
00000000
,
00001001
00000000
00000000
00000000
00000000
00000000
00000000
00000000
00000000
00000000
00000000
00000000
00000000
00000000
00000000
00000000
00001000
00000000
00000000
00000000
00000100
00000000
00000000
00000000
00001000
00000000
00000000
00000000
00000100
00000000
00000000
00000000
00000020
00000030
00000000
00000000
00000000
00000000
00000000
00000000
00000000
00000000
00000000
00000000
00000000
00000000
00000000
00000000
00001001
00000000
00000000
00000000
00000000
00000000
00000000
00000000
00000001
00000000
00000000
00000000
00000000
00000000
00000000
00000000
,
00000100
00000000
00000010
00000000
00001000
00000100
00001000
00000100
00010000
00000000
00001000
00000000
00100000
00000000
00010000
00000000
,
01000000
00000000
00100000
00000000
10000000
01000000
10000000
01000000
00100000
00000000
00001000
00000000
00010000
00000000
00001000
00000000
,
00000010
00000100
00001000
00000010
00000200
00000000
00000300
00000000
,
00000001
00001000
00000001
00001000
00000001
00000000
00001000
00000100
00001000
00000000
00000000
00001100
00000000
00000000
00011000
00000000
,
00000000
00000000
00010000
00000000
00001000
00000000
00100000
00000000
00010000
00000000
00000000
01010000
00000000
00000000
20020000
00000000
,
00000000
00000000
00000000
00000000
30030000
00000000
10000000
00100000
10000000
00000000
00000000
00000000
10010000
00000000
00000000
00000000
,
00100000
00000000
00000000
00000000
00000000
00000000
00000000
00000000
00000000
00010000
00000000
00000000
00000000
00000000
00000000
00000000
00000000
00000000
00001000
00000000
00000000
00000000
00000000
00000000
00000010
00000000
00000000
00000000
00000001
00000000
00000000
00000000
00000100
00000000
00000000
00000000
00001000
00000000
00000000
00000000
00010000
00000000
00000000
00000000
01000000
00000000
00000000
00000000
,
10000000
00100000
00010000
00001000
00000000
00000000
00000011
00000000
00000000
00001100
00000000
00000000
,
00110000
00000000
00000000
00000000
11000000
00000000
00000000
00000000
10000000
01000000
00100000
00000000
00001000
00010000
00000100
00000000
,
00000010
00000100
00001000
00000000
00000001
00000000
00000000
00000000
00000100
00000000
00000000
00001000
00000000
00000000
00010000
00000000
,
01000000
00000000
00000000
00010000
00000000
00000000
00001000
00000000
00010000
00001000
00010000
00001000
00010000
00001000
00010000
00001000
,
00010000
00001000
00010000
00001000
00010000
00000000
00000000
00000000
00000010
00000000
00000000
00001000
00000000
00000000
00001001
00000000
,
00000000
00000000
00000001
00000000
00000100
00000000
00001000
00000000
00010000
00000000
00000000
00001000
00000000
00000000
00011000
00000000
,
00000000
00000000
00000000
00100000
00000000
00000000
00010000
00000000
00000000
10000000
00000000
00000000
01000000
00000000
00000000
00000000
00000000
00000000
00100000
00000000
01000000
00000000
10000000
00000000
,
00100000
00010000
00001000
00100000
00010000
00001000
00000100
00000010
00000001
00000100
00000010
00000001
,
00001000
00000100
00000010
00001000
00000100
00000010
00000002
00000000
00000000
00000000
00000000
00000000
,
00000000
00000000
00000000
00000000
00000003
00000000
00000000
00000000
00000100
00000000
00000000
00001000
00000000
00000000
00010000
00000000
,
00000000
00000000
00000000
00100000
00000000
00000000
00000000
00000000
00000000
00000000
00000000
00000000
01000000
00000000
00000000
00000000
00000000
00000000
00100000
00000000
00000000
00000000
00000000
00000000
10000000
00000000
00000000
00000000
01000000
00000000
00000000
00000000
00100000
00000000
00000000
00000000
00001000
00000000
00000000
00000000
00010000
00000000
00000000
00000000
00000100
00000000
00000000
00000000
,
00000010
00000001
00000100
00000010
00001000
00000100
00010000
00001000
00100000
00010000
00000000
00000000
,
10000000
00100000
01000000
00001000
00010000
00000010
00000100
00000001
00000010
00000100
00001000
00000010
,
00010000
00001000
01000000
00010000
00000000
00000000
10000000
00100000
00010000
00001000
00000100
00000010
,
00001000
00000100
00000010
00000001
00001000
00000001
00000100
00000001
00000010
00000100
00000000
00000000
,
00000010
00000001
00000100
00001000
00010000
00100000
10000000
00010000
01000000
00100000
00000000
00000000
,
01100000
00000000
00000000
10010000
00000000
00000000
00010000
01000000
10000000
01000000
00100000
10000000
,
01000000
00100000
00001000
00010000
00000010
00010000
00001000
00100000
00001000
00010000
00000100
00000010
,
00000001
00000010
00000001
00000100
00000010
00001000
00000100
00000010
00000001
00000010
00001000
00010000
,
01000000
00100000
00001000
00010000
01000000
10000000
00100000
00010000
00100000
10000000
01000000
00010000
,
00001000
00000010
00000001
00000100
00001000
00000100
00000001
00000010
00001000
00010000
01000000
10000000
,
00010000
00110000
01010000
00001000
,
00001010
00001100
00022000
00000000
,
00000000
00000000
00000000
00000000
,
00000000
00000000
00033000
00000000
10100000
10000000
01000000
00010000
,
00001000
00000010
00000011
00000001
00000100
00001000
00010000
00100000
,
01100000
01000000
10000000
01000000
00000000
00000000
00000000
00000000
,
00001000
00010000
00001000
00010000
00001000
00010000
00001000
00010000
00001000
00010000
00001000
00010000
00001000
00010000
00001000
00010000
,
00001000
00010000
00001000
00010000
00001000
00010000
00001000
00010000
00001000
00010000
00001000
00010000
00001000
00010000
00001000
00010000
,
00001000
00010000
00001000
00010000
00001000
00010000
00001000
00010000
00001000
00010000
00001000
00010000
00001000
00010000
00001000
00010000
,
00001000
00000000
00000000
00000000
,
00000000
00000000
00000000
00000000
;
#NOTES:
     dance-double:
     :
     Challenge:
     19:
     :
00000000
00000000
00000000
00000000
,
00000000
00000000
00000000
00000000
,
00000000
00000000
00000000
00000000
,
00000000
00000000
00000000
00000000
,
00000000
00000000
00000000
00000000
,
00000000
00000000
00000000
00000000
,
00000000
00000000
00000000
00000000
,
00000000
00000000
00000000
00000000
00000000
00000000
10000000
01000000
00100000
01000000
00100000
00010000
,
00100000
00001000
00010000
00000100
00001000
00000010
00000100
00000010
00001000
00000100
00000010
00000001
,
00001000
00000001
00000100
00000001
00000010
00000100
00001000
00000100
00010000
00001000
00100000
00010000
,
01000000
00010000
00100000
01000000
10000000
00010000
10000000
00010000
01000000
00010000
00100000
00001000
,
00010000
00000100
00001000
00000010
00001000
00000100
00000010
00000001
00001000
00000010
00000100
00000010
,
00000100
00000001
00000010
00000001
00000010
00000100
00001000
00000000
00000000
00010000
00100000
01000000
,
00100000
01000000
10000000
00010000
00000000
00000000
10000000
00100000
01000000
00010000
10000000
01000000
,
00100000
00001000
00010000
00000100
00001000
00000010
00001000
00000100
00010000
00001000
00010000
00001000
,
00022000
00000000
00000000
00000000
,
00000000
00000000
00000000
00000000
,
00000000
00000000
00000000
00000000
,
00000000
00000000
00000000
00000000
,
00033000
00000000
00000000
00001000
00000100
00000001
00000010
00001000
00010000
00001000
00010000
01000000
,
00010000
00000000
00000000
00000000
01000000
00000000
00000000
00000000
10000000
00000000
00000000
00000000
00010000
00000000
00000000
00000000
00000000
00000000
00000000
00000000
00000000
00000000
00000000
00000000
10010000
00000000
00000000
00000000
00000000
00000000
00000000
00000000
00000000
00000000
00000000
00000000
10000000
00000000
00000000
01000000
00000000
00000000
10000000
00000000
00000000
01000000
00000000
00000000
,
00100000
00000000
00010000
00000000
01000000
00000000
00010000
00000000
00100000
00000000
01000000
00000000
00100000
00001000
00100000
00001000
,
00010000
00000000
00000100
00000000
00001000
00000000
00000010
00000000
00001000
00000000
00000100
00000000
00000010
00000100
00000010
00000100
,
00000010
00000100
00001000
00000010
00001000
00000100
00010000
00001000
,
00010000
00000000
00000100
00000000
00001000
00000000
00000010
00000000
00000100
00000001
00000100
00000001
00000100
00000010
00000100
00000010
,
00000100
00000000
00000000
00000010
00000000
00000000
00001000
00000000
00000001
00000010
00000001
00000010
00000100
00001000
00000100
00000000
,
00010000
00000000
00000000
00001000
00000000
00000000
00100000
00000000
00010000
01000000
00010000
01000000
00100000
10000000
00100000
00000000
,
10000000
00000000
01000000
00000000
00100000
00000000
00001000
00000000
00010000
00000000
00000000
00001000
00000000
00000000
00010000
00000000
,
00001000
00000000
00000000
00000000
00022000
00000000
00000000
00000000
00033000
00000000
00000000
00000000
00000010
00001000
00000010
00001000
,
00000001
00000000
00000100
00000000
00000010
00000000
00001000
00000000
00000100
00000000
00000010
00000000
00000100
00010000
00000100
00010000
,
00001000
00000000
00010000
00000000
00001000
00000000
01000000
00000000
00100000
00000000
10000000
00000000
01000000
00100000
01000000
00100000
,
00010000
00000000
00000000
00100000
00000000
00000000
00001000
00000000
00010000
00000000
00000000
00001000
00000000
00000000
00100000
00000000
,
00001000
00000000
00010000
00000000
00001000
00000000
00010000
00000000
01000000
00000000
10000000
00000000
00010000
00000000
10000000
01000000
,
00100000
00000000
00000000
00001000
00000000
00000000
00011000
00000000
00000000
00000000
00000100
00000010
00001000
00000000
00000100
00010000
,
00001000
00000000
00000000
00100000
00000000
00000000
01100000
00000000
00000000
00000000
10000000
01000000
00010000
00000000
01000000
00010000
,
00001000
00000000
00000000
00000000
00000010
00000001
00000010
00000001
00000100
00000000
00000000
00000000
00000010
00001000
00000010
00001000
,
00000100
00000000
00000000
00000000
00000010
00001000
00000010
00001000
00010000
00000000
01000000
00000000
00100000
00000000
00000000
00000000
,
20020000
00000000
00000000
00000000
,
00000000
00000000
00000000
30030000
,
11000000
00100000
00100000
00011000
00001000
00001000
00010100
00001000
,
00001000
00000110
00000001
00000001
00000101
00000100
00001000
00000000
,
00022000
00000000
00000000
00000000
,
00000000
00000000
00000000
00033000
,
00100000
01100000
00000000
00100000
00011000
00000000
00010000
00001010
,
00000000
00000100
00000110
00000000
00002002
00000000
00003003
00000000
,
00000001
00000010
00000100
00001000
00000001
00000000
00000100
00000000
00000001
00000100
00000010
00001000
00000001
00000000
00000010
00000000
,
00001000
00010000
00001000
00010000
01000000
10000000
01000000
10000000
,
00100000
10000000
00010000
01000000
00100000
00000000
10000000
00000000
01000000
00100000
00010000
10000000
01000000
00000000
00100000
00000000
,
00001000
00010000
00001000
00010000
00000010
00001000
00000010
00000000
,
00001000
00000100
00000010
00000001
00001000
00000000
00000010
00000000
00000100
00000001
00001000
00000010
00000100
00000000
00000001
00000000
,
00000100
00001000
00000100
00001000
00010000
00100000
00010000
00100000
,
10000000
00100000
01000000
00010000
10000000
00000000
01000000
00000000
00100000
00010000
10000000
01000000
00100000
00000000
00001000
00000000
,
00010000
00000000
00000100
00000000
00001000
00000000
00000100
00000000
00001000
00000100
00010000
00000100
00010000
00001000
00100000
00001000
,
00000000
00000000
00011000
00000000
00010000
01000000
00000000
01100000
,
00000000
01000000
10000000
00100000
00010000
00001000
00000100
00000001
,
00000010
00000000
00001100
00000000
00001000
00000010
00000000
00000110
,
00000000
00000100
00000001
00000010
00001000
00010000
01000000
10000000
,
00100000
00000000
10010000
00000000
10000000
01000000
00000000
11000000
,
00000000
10000000
01000000
00010000
00001000
00000010
00000001
00000000
,
00000101
00000100
00001000
00000100
00001100
00000000
00011000
00010000
,
00100000
00010000
00110000
00000000
10100000
10000000
01000000
10000000
,
11000000
00000000
01010000
00010000
00001000
00010000
00011000
00000000
,
00001000
00010000
00001000
00010000
00001000
00010000
00001000
00010000
00000010
00001000
00000010
00001000
00000010
00001000
00000010
00001000
,
00000001
00000010
00000001
00000010
00000001
00000010
00000001
00000010
00000100
00010000
00000100
00010000
00000100
00010000
00000100
00010000
,
00001000
00010000
00001000
00010000
00001000
00010000
00001000
00010000
00001000
00010000
00001000
00010000
00001000
00010000
00001000
00010000
,
00001000
00010000
00001000
00010000
00001000
00010000
00001000
00010000
00001000
00010000
00001000
00010000
00001000
00010000
00001000
00010000
,
00001000
00000000
00100000
00010000
00000000
10000000
01000000
00000000
,
00100000
00001000
00010000
00000100
,
00000010
00000001
00000010
00000001
00002000
00000000
00000000
00000000
00003000
00000000
00000000
00000000
00000010
00001000
00000010
00001000
,
00000001
00000000
00000000
00000000
00000100
00000000
00000000
00000000
00001000
00010000
00001000
00010000
00001000
00000000
00000000
00000000
,
01000000
00000000
00000000
00000000
00100000
10000000
00100000
10000000
01000000
00000000
00000000
00000000
00010000
00000000
00000000
00000000
,
00001000
00000000
00000000
00000000
00000000
00000000
00010000
00000000
00001000
00000000
00010000
00000000
00001000
00000000
00000000
00000000
00000000
00000000
00001000
00000000
00000000
00000010
00000000
00000000
,
00000001
00000010
00001000
00010000
,
01000000
00010000
00022000
00000000
,
00000000
00000000
00000000
00000000
,
00000000
00000000
00000000
00000000
,
00000000
00000000
00033000
00000000
,
00000000
00000000
00000000
00000000
00000000
00000000
00000000
00000000
00000000
00010000
00100000
01000000
,
00010000
00100000
01000000
00100000
00001000
00010000
00001000
00000010
00000100
00001000
00000000
00000000
,
00001001
00000000
00000000
00000000
00000000
00000000
00000000
00000000
00000000
00000000
00000000
00000000
00000000
00000000
00000000
00000000
00000001
00000000
00000000
00000000
00001000
00000000
00000000
00000000
00000001
00000000
00000000
00000000
00001000
00000000
00000000
00000000
00000002
00000003
00000000
00000000
00000000
00000000
00000000
00000000
00000010
00000000
00000000
00000000
00000000
00000000
00000000
00000000
00000001
00000000
00000000
00000000
00000100
00000000
00000000
00000000
00000010
00000000
00000000
00000000
00000000
00000000
00000000
00000000
,
00001000
00000100
00010000
00000000
00001000
00100000
00010000
00100000
00001000
00000000
00010000
00000000
00001000
01000000
00010000
00000000
,
00100000
00010000
00100000
00000000
01000000
10000000
01000000
00100000
00010000
00000000
00100000
00000000
00101000
00000000
00001000
00000000
,
00010000
00000000
00000100
00000000
00001100
00000000
00001000
00000000
00000010
00000000
00001000
00000000
00000001
00000100
00000010
00000000
,
00001000
00000000
00000100
00000000
00000010
00000100
00000010
00000000
00000001
00000000
00000000
00000100
00000000
00000000
00001010
00000000
,
00000000
00000000
00000100
00010000
00001000
00010000
00001000
00100000
00010000
00000000
00000000
01000000
00000000
00000000
01100000
00000000
,
00000000
00000000
00010000
01000000
00100000
01000000
00100000
10000000
02000000
00000000
00000000
00000000
00100000
00000000
00000000
00000000
,
03020000
00000000
00000000
00000000
00000000
00000000
00000000
00000000
00000000
00001000
00000000
00000000
00000000
00000000
00000000
00000000
00000000
00000000
00031000
00000000
00000000
00000000
00000000
00000000
00010000
00000000
00000000
00000000
00001000
00000000
00000000
00000000
00000010
00000000
00000000
00000000
00001000
00000000
00000000
00000000
00000010
00000000
00000000
00000000
00000001
00000000
00000000
00000000
,
00000100
00001000
00000100
00000001
00000000
00000000
00000101
00000000
00000000
00001010
00000000
00000000
,
01010000
00000000
00000000
00000000
10100000
00000000
00000000
00000000
10000000
01000000
10000000
01000000
00100000
00001000
00010000
00001000
,
00010000
00000010
00001000
00000010
00000100
00000000
00000000
00000000
00000001
00000000
00000000
00000100
00000000
00000000
00001000
00000000
,
00010000
00000000
00000000
01000000
00000000
00000000
10000000
00000000
01000000
00100000
00010000
00100000
01000000
00100000
00010000
00100000
,
01000000
00100000
00010000
00100000
00001000
00000000
00010000
00000100
00001000
00000000
00000000
00000010
00000000
00000000
00001001
00000000
,
00000000
00000000
00000001
00000010
00000100
00000000
00001000
00000010
00000100
00000000
00000000
00001000
00000000
00000000
00011000
00000000
,
00000000
00000000
00000000
00000000
00000000
00000000
00100000
00000000
00000000
10000000
00000000
00000000
00010000
00000000
00000000
00000000
00000000
00000000
00100000
00000000
00000000
01000000
00000000
00000000
10000000
00000000
00000000
00000000
00000000
00000000
00000000
00000000
00000000
00000000
00000000
00000000
00100000
00000000
00000000
00000000
00010000
00000000
00000000
00000000
00100000
00000000
00000000
00000000
,
10000000
01000000
00100000
00001000
00010000
00000100
00000010
00001000
00000010
00000001
00000100
00000010
,
00010000
00001000
00100000
00010000
01000000
00100000
20020000
00000000
00000000
00000000
00000000
00000000
,
00000000
00000000
00000000
00000000
30030000
00000000
00000000
00000000
00100000
00000000
00000000
00100000
00000000
00000000
00100000
00000000
,
00000000
00000000
00000000
00100000
00000000
00000000
00000000
00000000
00000000
00000000
00000000
00000000
00100000
00000000
00000000
00000000
00000000
00000000
00000000
00000000
00000000
00000000
00000000
00000000
00010000
00000000
00000000
00000000
10000000
00000000
00000000
00000000
01000000
00000000
00000000
00000000
00100000
00000000
00000000
00000000
00010000
00000000
00000000
00000000
00001000
00000000
00000000
00000000
,
00000100
00000010
00000001
00000100
00001000
00000100
00000001
00000010
00000100
00001000
00000010
00001000
,
00000001
00000010
00000100
00001000
00010000
00100000
01000000
10000000
01000000
00010000
01000000
10000000
,
00100000
01000000
00010000
00100000
00010000
01000000
00010000
10000000
00100000
00010000
00001000
00100000
,
00010000
00001000
00000100
00000010
00000001
00001000
00000001
00000010
00001000
00000010
00000001
00000100
,
00000001
00000010
00000100
00001000
00000100
00010000
00001000
00100000
00001000
01000000
00100000
10000000
,
01000000
00100000
01000000
10000000
00000000
00000000
10000000
00100000
00010000
00100000
10000000
01000000
,
00010000
00001000
00100000
00001000
00010000
00001000
00000010
00000001
00000100
00001000
00000001
00000010
,
00001000
00000100
00000001
00000100
00001000
00000010
00000100
00001000
00010000
00100000
01000000
00010000
,
00100000
01000000
10000000
00100000
01000000
00010000
01000000
00100000
00010000
10000000
01000000
00010000
,
10000000
01000000
00010000
00001000
00000010
00000001
00001000
00000010
00000001
00000010
00001000
00000100
,
00000010
00001000
00010000
00001000
00100000
00010000
01000000
00100000
01000000
00100000
00010000
00001000
,
00010000
00000100
00001000
00000010
00001000
00000001
00002002
00000000
00000000
00000000
00000000
00000000
,
00000000
00000000
00000000
00000000
,
00000000
00000000
00003003
00000000
00001010
00001010
00010000
00011000
,
00011000
01000000
01010000
01010000
00001000
00011000
00011000
00000100
,
00001100
00000000
00000110
00000000
00000011
00000000
00001001
00000000
00000000
00000000
00000000
00000000
00000000
00000000
00000010
00000100
,
00000001
00000010
00000001
00000010
00000100
00000010
00000100
00000010
00000100
00001000
00000100
00001000
00000100
00010000
00000100
00010000
,
00001000
00010000
00001000
00010000
00001000
00100000
00001000
00100000
00010000
00100000
00010000
00100000
00010000
10000000
00010000
10000000
,
00100000
10000000
00100000
10000000
00100000
01000000
00100000
01000000
00010000
01000000
00010000
01000000
00001000
00010000
00001000
00010000
,
00001000
00000000
00000000
00000000
,
00000000
00000000
00000000
00000000
;
