
//----- song ID: long3 -----//
#TITLE:LONG TRAIN RUNNIN' (20th Anniversary Mix);
#ARTIST:Haruki Yamada (ATTIC INC.) with Bodhi Kenyon;
#BANNER:LONG TRAIN RUNNIN' (20th Anniversary Mix).png;
#BACKGROUND:LONG TRAIN RUNNIN' (20th Anniversary Mix)-bg.png;
#CDTITLE:./CDTitles/DDR A20.png;
#MUSIC:LONG TRAIN RUNNIN' (20th Anniversary Mix).ogg;
#SAMPLESTART:45.767;
#SAMPLELENGTH:15;
#BPMS:0=130;
#STAGE:4;
#NOTES:
     dance-single:
     :
     Beginner:
     3:
     :
0000
0000
0000
0000
,
0000
0000
0000
0000
,
0000
0000
0000
0000
,
0000
0000
0000
0000
,
0000
0000
0000
0000
,
0001
0000
0001
0000
,
0001
0000
0000
0000
,
0001
0000
0100
0000
,
0001
0000
0000
0000
,
0010
0000
1000
0000
,
0100
0000
1000
0000
,
0010
0000
0010
0000
,
1000
0000
0100
0000
,
1000
1000
1000
0000
,
1000
0000
0100
0000
,
1000
1000
1000
0000
,
1000
0000
0000
0000
,
0010
0000
0001
0000
,
0100
0000
0001
0000
,
0010
0000
0010
0000
,
0001
0000
0100
0000
,
0001
0001
0001
0000
,
0001
0000
0100
0000
,
0001
0001
0001
0000
,
0001
0000
0000
0000
,
1001
0000
0000
0000
,
0000
0000
0000
0000
,
1001
0000
0000
0000
,
0000
0000
0000
0000
,
1001
0000
0000
0000
,
0000
0000
0000
0000
,
1001
0000
0000
0000
,
0000
0000
0000
0000
,
0001
0001
0010
0000
,
0001
0000
0000
0000
,
0001
0001
0100
0000
,
0001
0000
0000
0000
,
1000
1000
0010
0000
,
1000
0000
0000
0000
,
1000
1000
0100
0000
,
1000
0000
0000
0000
,
0002
0000
0000
0000
,
0003
0000
0000
0000
,
2000
0000
0000
0000
,
3000
0000
0000
0000
,
0002
0000
0000
0000
,
0003
0000
0000
0000
,
2000
0000
0000
0000
,
3000
0000
0000
0000
,
0001
0010
0001
0000
,
0010
0010
0001
0000
,
0001
0000
0000
0000
,
0000
0000
0000
0000
,
0001
0100
0001
0000
,
0100
0100
0001
0000
,
0001
0000
0000
0000
,
0000
0000
0000
0000
,
1000
1000
0100
0000
,
1000
0000
0000
0000
,
1000
1000
0010
0000
,
1000
0000
0000
0000
,
1000
1000
0100
0000
,
1000
0000
0000
0000
,
1001
0000
0000
0000
,
1001
0000
0000
0000
,
0000
0000
0000
0000
;
#NOTES:
     dance-single:
     :
     Easy:
     6:
     :
0000
0000
0000
0000
,
0000
0000
0000
0000
,
0000
0000
0000
0000
,
0000
0000
0000
0000
,
0000
0000
0000
0000
,
0001
0100
0000
0000
,
0000
0010
1000
0000
,
1000
0100
0000
0000
,
0000
1000
0010
0000
,
0010
0010
0010
0000
,
1000
1000
1000
0000
,
0100
0100
0100
0000
,
0001
0001
0001
0000
,
0010
0000
0010
0000
,
0100
0000
0100
0000
,
1001
0000
0000
0000
,
0000
0000
0000
0000
,
0010
1000
0010
1010
,
0100
0001
0100
0101
,
1000
1000
0001
0001
,
0100
0100
0010
0110
,
1000
0010
1000
1000
,
0001
0010
0001
0001
,
1000
0100
1000
1000
,
0001
0100
0001
0001
,
2002
0000
0000
0000
,
0000
3003
0110
0000
,
1001
0000
0000
0000
,
0000
0000
0000
0000
,
0020
0000
0000
0000
,
0100
0000
0100
0030
,
0100
0100
0100
0100
,
0100
0100
0100
0100
,
0001
0010
0100
0000
,
1000
0010
0100
0000
,
0100
0010
1000
0000
,
0100
0010
0001
0000
,
0001
1000
0100
0000
,
1000
0001
0100
0000
,
0001
1000
0010
0000
,
1000
0001
0010
0000
,
0010
0010
0000
0000
,
0100
0100
0000
0000
,
1000
0010
0001
0000
,
0001
0010
1000
0000
,
0001
0000
1000
0000
,
1000
0100
0001
0000
,
1000
0000
1000
0000
,
0001
0000
0001
0000
,
1000
1000
0001
0001
,
1000
1000
0100
0110
,
0001
0001
1000
1000
,
0001
0001
0100
0110
,
1000
1000
0001
0001
,
1000
1000
0010
0110
,
0001
0001
1000
1000
,
0001
0001
0010
0110
,
1000
0100
0100
0000
,
1000
0100
0001
0000
,
0001
0100
0100
0000
,
0001
0100
1000
0000
,
0010
1000
0100
0000
,
0010
0001
0100
0000
,
1001
0000
0110
0000
,
1001
0000
0000
0000
,
0000
0000
0000
0000
;
#NOTES:
     dance-single:
     :
     Medium:
     9:
     :
0000
0000
0000
0000
,
0000
0000
0000
0000
,
0000
0000
0000
0000
,
0000
0000
0000
0000
,
0000
0000
0000
0000
,
0100
1000
0010
1000
,
0100
0010
1001
0000
,
0100
0001
0010
0001
,
2002
0000
0000
3003
,
0010
0001
0010
0000
,
0100
1000
0100
0000
,
1000
0010
1000
0000
,
0001
0100
0001
0000
,
0100
1010
0000
1000
,
0100
0011
0000
0001
,
0100
1010
0000
1000
,
0100
0011
0000
0001
,
1000
0100
0010
0000
,
0001
0100
0010
0000
,
0100
0010
1000
0000
,
0100
0010
0001
0000
,
0001
1010
0000
0100
,
1000
0011
0000
0001
,
0100
1010
0000
1000
,
0100
0011
1001
0000
,
0220
0000
0000
0000
,
0000
0330
1001
0000
,
0110
1000
0001
0000
,
0110
0001
1000
0000
,
0210
0000
0000
0000
,
0001
0000
0010
0000
,
1300
0100
0010
0100
,
0010
0010
0010
0000
,
0001
0000
1000
0000
0100
0010
0000
0110
,
0000
0001
0000
1000
0100
0000
0000
0000
,
0001
0000
0100
0000
0010
1000
0000
0110
,
0000
1001
0000
0110
0000
0000
0000
0000
,
1000
0000
0001
0000
0010
0100
0000
0110
,
0000
1000
0000
0001
0010
0000
0000
0000
,
1000
0000
0010
0000
0100
0001
0000
0110
,
0000
1001
0000
0110
0000
0000
0000
0000
,
0100
1000
0001
0100
0010
0000
0010
0000
,
0100
0001
1000
0100
0010
0000
0010
0000
,
0100
0100
0100
0100
,
1010
1100
1001
0101
,
0001
1000
0100
0000
0010
0001
1000
0000
,
0010
0100
0001
0000
1000
0100
0010
0000
,
0001
1000
0001
1000
0001
1000
0001
1000
,
0010
0010
0010
1001
,
0010
0000
0000
0010
0000
0000
0010
0000
0000
0010
0000
0000
1001
0000
0000
0000
,
1000
0000
0000
1000
0000
0000
1000
0000
0000
1000
0000
0000
0110
0000
0000
0000
,
0100
0000
0000
0100
0000
0000
0100
0000
0000
0100
0000
0000
1001
0000
0000
0000
,
0001
0000
0000
0001
0000
0000
0001
0000
0000
0001
0000
0000
0110
0000
0000
0000
,
0011
0000
0000
0011
0000
0000
0011
0000
0000
0011
0000
0000
0100
0000
0000
0000
,
1100
0000
0000
1100
0000
0000
1100
0000
0000
1100
0000
0000
0001
0000
0000
0000
,
0101
0000
0000
0101
0000
0000
0101
0000
0000
0101
0000
0000
0010
0000
0000
0000
,
1010
0000
0000
1010
0000
0000
1010
0000
0000
1010
0000
0000
1001
0000
0000
0000
,
0100
1010
0100
0001
,
0100
0011
0100
1000
,
0100
1010
0100
0001
,
0100
0011
0100
1000
,
0100
1001
0010
1000
,
0100
1001
0010
0001
,
0100
0000
0100
0000
0100
0000
0000
0010
,
0000
1000
0000
0001
0000
0000
0000
0000
,
0000
0000
0000
0000
;
#NOTES:
     dance-single:
     :
     Hard:
     12:
     :
0000
0000
0000
0000
,
0000
0000
0000
0000
,
0000
0000
0000
0000
,
0000
0000
0000
0000
,
0000
0000
0000
0000
,
0010
0000
1010
0000
0001
0010
0000
1010
,
0000
0001
0000
1000
0010
0000
0000
0000
,
0100
0000
0101
0000
1000
0100
0000
0101
,
0000
1100
0000
1001
0000
0000
0000
0000
,
1000
0000
0010
1000
0000
0010
0000
1000
0000
0000
0000
0000
0000
0000
0000
0000
,
0001
0000
0010
0001
0000
0010
0000
0001
0000
0000
0000
0000
0000
0000
0000
0000
,
1000
0000
0010
0000
0001
0000
0010
0000
1000
0000
0000
0000
0000
0010
0000
0100
,
0001
0000
0100
0000
0010
1000
0000
0100
0000
0000
0000
0000
0000
0000
0001
0000
,
1000
0000
0000
0000
0010
0000
0000
0000
0000
0000
1000
0010
0100
0001
0000
0000
,
0001
0000
0000
0000
0010
0000
0000
0000
0000
0000
0001
0010
0100
2000
0000
0000
,
0100
0000
0000
0000
3010
0000
0000
0000
0000
0000
1000
0010
0100
0002
0000
0000
,
0100
0000
0000
0000
0013
0000
0000
0000
0000
0000
0001
0010
0100
1000
0000
0000
,
0010
0000
0100
0000
0010
0000
1000
0010
0000
0000
0000
0000
0000
0000
0100
0000
,
0001
0000
0010
0000
0100
0000
0010
0001
0000
0000
0000
0000
0000
0000
0100
0000
,
0010
0000
1000
0000
0100
0000
0001
0100
0000
1000
0000
0000
0000
0000
0000
0000
,
0001
0000
0100
0000
0010
1000
0000
0001
0000
0000
0000
0000
0000
0010
1000
0000
,
0102
0000
0000
0000
0013
0000
0000
0000
0000
0000
0001
0010
0100
0001
0000
0000
,
1200
0000
0000
0000
0301
0000
0000
0000
0000
0000
0100
0001
1000
0100
0000
0000
,
2010
0000
0000
0000
3100
0000
0000
0000
0000
0000
1000
0100
0010
1000
0000
0000
,
0021
0000
0000
0000
1000
0000
0000
0000
0130
0000
0000
0000
0000
0001
1000
0100
,
0020
0000
0000
0000
,
1000
0000
0100
0000
,
0031
0100
0100
0100
,
0100
0000
0000
0000
0100
0000
0000
0000
0100
0000
0000
0000
0000
0100
1000
0100
,
0020
0001
0100
1000
,
0100
0001
1030
0000
,
0001
1000
0001
1000
0100
0010
0100
0010
,
0001
1000
0001
0000
1000
0001
1000
0000
0010
0000
0000
0000
0110
0000
0010
0000
,
0100
0000
0000
0010
0000
0000
0100
0000
0000
1000
0000
0000
0100
0000
0001
0000
,
0100
0000
0000
0010
0000
0000
1000
0000
0000
0001
0000
0000
1000
0000
1000
0000
,
0100
0000
0000
0010
0000
0000
0100
0000
0000
0001
0000
0000
0100
0000
1000
0000
,
0100
0000
0000
0010
0000
0000
0001
0000
0000
1000
0000
0000
0001
0000
0001
0000
,
0100
0000
0000
0010
0000
0000
0100
0000
0000
1000
0000
0000
0100
0000
0001
0000
,
0100
0000
0000
0010
0000
0000
0100
0000
0000
1000
0000
0000
0001
0000
0001
0000
,
0100
0000
0011
0000
0100
0001
0000
1010
,
0000
0110
0000
1001
0000
0000
0000
0000
,
0100
0000
1000
0000
0001
0000
0100
0000
0010
0000
0000
0000
0000
0000
1000
0001
,
0100
0000
0001
0000
1000
0000
0100
0000
0010
0000
0000
0000
0000
0000
0100
0010
,
0100
0000
0100
0000
0100
0000
0100
1000
,
0100
0000
0001
0000
0010
0000
0100
0000
1000
0000
0000
0000
0000
1000
0010
0100
,
0001
0010
0001
0000
0100
0001
0100
0000
,
0010
1000
0010
0000
1000
0100
1000
0000
,
0010
0100
0001
0100
0010
1000
0100
1000
,
0100
0010
0110
1001
,
0010
0000
0000
0010
0000
0000
1000
0000
0000
0100
0000
0000
0101
0000
0000
0000
,
0100
0000
0000
0100
0000
0000
1000
0000
0000
0100
0000
0000
1100
0000
0000
0000
,
0010
0000
0000
0010
0000
0000
0001
0000
0000
0100
0000
0000
1100
0000
0000
0000
,
0100
0000
0000
0100
0000
0000
0001
0000
0000
0100
0000
0000
0001
0100
0010
0100
,
0001
0000
0000
0001
0000
0000
0010
0000
0000
1000
0000
0000
1100
0000
0000
0000
,
1000
0000
0000
1000
0000
0000
0010
0000
0000
0001
0000
0000
0011
0000
0000
0000
,
0001
0000
0000
0001
0000
0000
0100
0000
0000
1000
0000
0000
1010
0000
0000
0000
,
1000
0000
0000
1000
0000
0000
0100
0000
0000
0001
0000
0000
0101
0000
0000
0000
,
0001
0000
0000
0100
0000
0000
0010
0000
0000
0001
0000
0000
1000
0000
0100
0010
,
0001
0000
0000
0010
0000
0000
0100
0000
0000
0001
0000
0000
1000
0000
0001
0000
,
1000
0000
0000
0010
0000
0000
0100
0000
0000
1000
0000
0000
0001
0000
0010
0100
,
1000
0000
0000
0100
0000
0000
0010
0000
0000
1000
0000
0000
0001
0000
0100
0000
,
0001
0000
0000
1000
0000
0000
0010
0000
0000
0100
0000
0000
0001
0000
0010
0100
,
1000
0000
0000
0010
0000
0000
0100
0000
0000
0001
0000
0000
1000
0000
0100
0000
,
0110
0000
0010
0000
0100
1000
0000
1000
,
0000
0100
0000
0001
0000
0000
0000
0000
,
0000
0000
0000
0000
;
#NOTES:
     dance-single:
     :
     Challenge:
     15:
     :
0000
0000
0000
0000
,
0000
0000
0000
0000
,
0000
0000
0000
0000
,
0000
0000
0000
0000
,
0000
0000
0000
0000
,
1000
0001
0100
0001
1000
0010
0001
0010
,
1000
0000
0001
0000
1000
0000
0100
0000
0010
0001
1000
0000
1001
0000
0000
0000
,
0001
1000
0100
1000
0001
0010
1000
0010
,
0001
0000
1000
0000
0001
0000
0100
0000
0010
1000
0001
0000
1001
0000
0000
0000
,
1000
0000
0001
1000
0010
0000
0100
0001
1000
0100
0010
0000
0001
1000
0000
0000
,
0001
0000
1000
0001
0010
0000
0100
1000
0001
0100
0010
0000
1000
0001
0000
0000
,
1000
0000
0001
1000
0100
0000
1000
0001
0100
0010
1000
0000
0100
0010
0000
0001
,
1000
0000
0100
1000
0010
0001
0010
1000
0001
0000
1000
0100
1000
0100
0010
0000
,
0001
0000
1000
0010
0100
0000
0001
1000
0100
0010
0001
0000
1000
0001
0000
0000
,
1000
0000
0001
0010
0100
0000
1000
0001
0100
0010
1000
0000
0001
0010
0000
0000
,
0100
0000
1000
0001
0100
0000
0010
1000
0001
0010
0100
0000
1000
0010
0000
0000
,
0100
0000
0001
1000
0100
0000
0010
0001
1000
0010
0100
0000
0001
0010
0000
0000
,
0001
0000
1000
0010
0100
0000
1000
0100
0010
1000
0001
0000
1000
0001
0010
0100
,
1000
0000
0001
0100
0010
0000
0001
0010
0100
0001
1000
0000
0100
0010
0100
1000
,
0001
0000
1001
0000
1000
0000
0010
0100
0010
1000
0001
0000
0100
0010
0000
1000
,
0001
0000
0100
0001
0010
1000
0010
0001
1000
0000
0001
0100
0001
0100
0010
0000
,
1000
0000
0001
0010
0100
0000
1000
0001
0100
0010
1000
0000
0001
1000
0000
0000
,
0001
0000
1000
0010
0100
0000
0001
1000
0100
0010
0001
0000
1000
0010
0000
0000
,
0100
0000
0001
1000
0100
0000
0010
0001
1000
0010
0100
0000
0001
1000
0000
0000
,
0010
0000
0010
0000
0100
0000
0100
0000
0010
1000
0001
0010
0100
1000
0001
0100
,
0020
1000
0100
0001
,
0230
0010
0302
0010
,
1003
0000
0001
0000
0100
0010
1000
0001
,
0000
0000
0010
0000
0000
0000
0100
0000
0000
0000
0000
0000
0000
1000
0100
0010
,
0001
1000
0001
1000
0010
0100
0010
0100
0001
0010
0001
1000
0100
0010
0001
1000
,
0010
0001
0010
0100
0010
0001
0010
1000
0100
0010
0100
0001
0100
0010
0100
1000
,
0001
1000
0010
0100
0001
1000
0100
1000
0001
0100
0010
1000
0100
0010
0001
1000
,
0010
0100
0001
0010
0001
0100
0010
1000
0100
0001
0100
1000
0001
0000
1001
0000
,
1000
0000
0000
0010
1000
0000
0100
0000
0010
0001
1000
0000
0100
0000
1000
0001
,
0100
0000
0000
0010
1000
0000
0001
0000
0010
0100
1000
0000
1010
0000
1100
0000
,
0100
0000
0000
1000
0001
0000
0100
0000
0001
1000
0100
0000
0010
0000
0100
1000
,
0001
0000
0000
0100
0010
0000
1000
0000
0001
0010
1000
0000
0110
0000
1001
0000
,
0001
0000
0000
0010
0001
0000
0100
0000
0010
1000
0001
0000
0100
0000
0001
1000
,
0100
0000
0000
0010
0001
0000
1000
0000
0010
0100
0001
0000
0011
0000
1000
0000
,
1010
0000
1100
0000
0001
0101
0010
1001
,
0000
0000
0000
0011
0000
0000
0000
0000
0000
1100
0000
0000
0000
0000
0000
1000
0010
0100
0001
0000
0000
0000
0000
0000
,
0100
0000
0001
0000
1000
0000
0100
0000
0010
0000
0000
0000
0000
0000
0001
1000
,
0100
0000
1000
0000
0001
0000
0100
0000
0010
0000
0000
0000
0000
0000
0100
0010
,
0100
0000
0001
0000
1000
0000
0100
0010
0100
0000
1000
0000
0001
0000
0100
0010
,
1000
0000
0001
0000
0010
0000
0100
0000
1000
0000
0000
0000
0000
0001
0100
0010
,
1000
0001
1000
0001
0010
0100
0010
0100
1000
0010
1000
0001
0100
0010
1000
0001
,
0010
1000
0010
0100
0010
1000
0010
0001
0100
0010
0100
1000
0100
0010
0100
0001
,
1000
0001
0010
0100
1000
0001
0100
0010
1000
0100
0010
0001
0100
1000
0100
0001
,
0010
0000
0000
0000
0110
0000
0000
0000
1001
0000
0000
0001
1000
0000
0001
0000
,
1000
0100
0001
0100
1000
0010
0001
0010
1000
0100
0001
0100
1000
0010
0001
0010
,
1000
0100
0001
1000
0010
0001
1000
0010
0001
0010
1000
0001
0010
1000
0001
0100
,
1000
0000
0000
0001
0000
0000
1000
0000
0000
0010
0000
0000
0100
0000
0100
0000
,
0010
0000
0000
1000
0000
0000
0001
0000
0000
0010
0000
0000
0001
0000
1000
0000
,
0001
0100
1000
0100
0001
0010
1000
0010
0001
0100
1000
0100
0001
0010
1000
0010
,
0001
0100
1000
0001
0010
1000
0001
0010
1000
0010
0001
1000
0010
0001
1000
0100
,
0001
0000
0000
1000
0000
0000
0100
0000
0000
0010
0000
0000
0001
0100
0010
1000
,
0001
0000
0000
0110
0000
0000
1000
0000
0000
0110
0000
1000
0001
0000
1001
0000
,
1000
0000
0000
0010
1000
0000
0100
0000
0010
0001
1000
0000
0100
0000
1000
0001
,
0100
0000
0000
0010
1000
0000
0001
0000
0010
0100
1000
0000
1010
0000
1100
0000
,
0100
0000
0000
1000
0001
0000
0100
0000
0001
1000
0100
0000
0010
0000
0100
1000
,
0001
0000
0000
0100
0010
0000
1000
0000
0001
0010
1000
0000
0110
0000
1001
0000
,
0001
0000
0000
0010
0001
0000
0100
0000
0010
1000
0001
0000
0100
0000
0001
1000
,
0100
0000
0000
0010
0001
0000
1000
0000
0010
0100
0001
0000
0011
0000
1000
0000
,
0001
1000
0001
1000
0010
0100
0010
0100
0001
0010
0100
1000
0001
0100
2000
0000
,
0000
3200
0000
0002
0303
0000
0000
0000
,
0000
0000
0000
0000
;
#NOTES:
     dance-double:
     :
     Easy:
     6:
     :
00000000
00000000
00000000
00000000
,
00000000
00000000
00000000
00000000
,
00000000
00000000
00000000
00000000
,
00000000
00000000
00000000
00000000
,
00000000
00000000
00000000
00000000
,
00000000
00000000
00000000
00000000
,
00000000
00000000
00000000
00000000
,
00000000
00000000
00000000
00000000
,
00000000
00000000
00000000
00000000
,
00100000
00100000
00100000
00000000
,
01000000
01000000
01000000
00000000
,
00000100
00000100
00000100
00000000
,
00000010
00000010
00000010
00000000
,
00001000
01000000
00100000
00000000
,
00001000
00000100
00000010
00000000
,
00010000
00001000
00010000
00000000
,
00001000
00010000
00001000
00000000
,
00000100
00001010
00000000
00010000
,
01000000
00110000
00000000
00001000
,
00000100
00001010
00000000
00010000
,
01000000
00110000
00000000
00001000
,
00010000
00001000
00000100
00000001
,
00000010
00000001
00000100
00001000
,
00010000
01100000
00000000
00010000
,
00001000
00000110
00000000
00000000
,
00021000
00000000
00000000
00000000
,
00100000
00000000
00000000
00000000
,
00032000
00000000
00000000
00000000
,
00003010
00000000
00000000
00000000
,
00000020
00000000
00000000
00000000
,
00000100
00000000
00000100
00000000
,
00000200
00000000
00000000
00000000
,
00000330
00000000
00000000
00000000
,
00000001
00000001
00000001
00000001
,
00000100
00000100
00000100
00000100
,
00001000
00001000
00010000
00010000
,
00100000
00100000
01000000
01100000
,
10000000
10000000
01000000
01000000
,
00010000
00010000
00001000
00011000
,
00000010
00000010
00000001
00000001
,
00000100
00000100
00001000
00011000
,
00000010
00000000
00001000
00000000
,
00100000
00000000
00010000
00000000
,
00010000
00001000
00000110
00000000
,
00001000
00010000
01100000
00000000
,
00010000
00000010
00000100
00000000
,
00010000
00100000
00001000
00000000
,
00000100
00000100
00000001
00000001
,
00000010
00001000
00010000
00000000
,
00001000
00010000
01000000
10000000
,
00100000
10000000
01000000
00010000
,
00001000
00011000
00000000
00000000
,
00010000
00011000
00000000
00000000
,
00010000
00001000
00000100
00000001
,
00000010
00000001
00000100
00001000
,
00010000
00011000
00000000
00001000
,
00011000
00000000
00000000
00000000
,
00000001
00000100
00000010
00010000
,
00001000
01000000
00100000
00000000
,
10000000
01000000
00010000
00001000
,
00000010
00000100
00001000
00000000
,
00000001
00000100
00000010
00010000
,
00001000
01000000
00100000
00000000
,
01000000
00000000
00010000
00000000
,
00000000
00100000
00000000
00001000
00000000
00000000
00000000
00000000
,
00000000
00000000
00000000
00000000
;
#NOTES:
     dance-double:
     :
     Medium:
     9:
     :
00000000
00000000
00000000
00000000
,
00000000
00000000
00000000
00000000
,
00000000
00000000
00000000
00000000
,
00000000
00000000
00000000
00000000
,
00000000
00000000
00000000
00000000
,
00000001
00000100
00000010
00010000
,
00001000
01000000
00100000
00000000
,
10000000
01000000
00010000
00001000
,
00000010
00000100
00001000
00000000
,
00000001
00001000
00000110
00000001
,
00000001
00000100
00011000
00010000
,
00100000
00010000
01100000
10000000
,
10000000
01000000
00011000
00000000
,
00010000
00001010
00000000
00000001
,
00000100
00001100
00000000
00001000
,
00010000
00110000
00000000
10000000
,
01000000
01010000
00000000
00010000
,
00100000
10000000
00100000
00000000
01000000
00000000
00100000
10000000
,
01000000
00010000
01000000
00000000
00010000
00000000
00001000
00010000
,
00000010
00000100
00000001
00000000
00000010
00000100
00010000
00000000
,
00001000
00001000
00010000
00011000
,
00010000
00011000
00000010
00000100
,
00000010
00000010
00001000
00001000
,
00000100
00000100
00000001
00000001
,
00000010
00011000
01000000
10000000
,
02200000
00000000
00000000
00000000
,
00000000
03300000
00010000
00011000
,
00000110
00000001
00000010
00000100
,
00001000
00010000
01000000
00001000
,
00020000
00000000
00000000
00000000
,
00001000
00000000
00000010
00000000
,
00030100
00000010
00000010
00000010
,
00000001
00000001
00000001
00000001
,
00000100
00001010
00010000
00001000
,
00100000
10010000
01000000
00010000
,
10000000
01100000
00001000
00010000
,
00000100
00000011
00001000
00000010
,
00000100
00001001
00000010
00000100
,
00001000
01010000
10000000
01000000
,
00100000
00011000
00000100
00000010
,
00000001
00000100
00001000
00000000
,
00010000
00100000
10000000
01010000
,
00010000
00001000
00000100
00000101
,
00000100
00001100
00000100
00000110
,
00000100
00010000
00100000
10010000
,
00100000
10000000
00100000
00000000
01000000
00000000
01000000
00000000
,
00010000
01000000
00010000
00000000
00001000
00000000
00001000
00000000
,
00000010
00000001
00000010
00000000
00000100
00000000
00000100
00000000
,
00001100
00010100
00011000
00000000
,
00001000
00000000
00000000
00000010
00000000
00000000
00001000
00000000
00000000
00010000
00000000
00000000
00011000
00000000
00000000
00000000
,
00010000
00000000
00000000
00100000
00000000
00000000
10000000
00000000
00000000
01000000
00000000
00000000
00010000
00000000
00000000
00000000
,
00001000
00000000
00000000
00000010
00000000
00000000
00000100
00000000
00000000
00000001
00000000
00000000
00001000
00000000
00000000
00000000
,
00010000
00000000
00000000
01000000
00000000
00000000
00100000
00000000
00000000
10000000
00000000
00000000
00010000
00000000
00000000
00000000
,
00010000
00000000
00000000
00100000
00000000
00000000
00010000
00000000
00000000
00001000
00000000
00000000
00011000
00000000
00000000
00000000
,
00001000
00000000
00000000
00000010
00000000
00000000
00000001
00000000
00000000
00000100
00000000
00000000
00001000
00000000
00000000
00000000
,
00010000
00000000
00000000
00100000
00000000
00000000
01000000
00000000
00000000
10000000
00000000
00000000
00010000
00000000
00000000
00000000
,
00001000
00000000
00000000
00000100
00000000
00000000
00000010
00000000
00000000
00000001
00000000
00000000
00001000
00000000
00000000
00000000
,
00010000
00000000
00001000
00000000
00000010
00000001
00000000
00000100
,
00000000
00000010
00000000
00010000
00001000
00000000
00000000
00000000
,
00001000
00000000
00010000
00000000
00100000
10000000
00000000
01000000
,
00000000
00010000
00000000
00011000
00000000
00000000
00000000
00000000
,
00010000
00000000
01000000
00000000
10000000
00100000
00000000
00010000
,
00000000
00001000
00000000
00000100
00000001
00000000
00000000
00000000
,
00000001
00000000
00000100
00000000
00001000
00000000
00000000
00010000
,
00000000
00001000
00000000
00000100
00000000
00000000
00000000
00000000
,
00000000
00000000
00000000
00000000
;
#NOTES:
     dance-double:
     :
     Hard:
     13:
     :
00000000
00000000
00000000
00000000
,
00000000
00000000
00000000
00000000
,
00000000
00000000
00000000
00000000
,
00000000
00000000
00000000
00000000
,
00000000
00000000
00000000
00000000
,
00001000
00000000
00010000
00000000
01000000
10000000
00000000
00100000
,
00000000
01000000
00000000
00001000
00010000
00000000
00000000
00000000
,
00010000
00000000
00001000
00000000
00000100
00000001
00000000
00000010
,
00000000
00001000
00000000
00011000
00000000
00000000
00000000
00000000
,
00010000
00000000
01000000
10000000
00000000
01000000
00000000
00010000
00000000
00000000
00000000
00000000
00000000
00000000
00000000
00000000
,
00001000
00000000
00000010
00000001
00000000
00000010
00000000
00001000
00000000
00000000
00000000
00000000
00000000
00000000
00000000
00000000
,
00000001
00000000
00000010
00000000
00001000
00000000
00010000
00000000
00100000
00000000
00000000
00000000
00000000
00100000
00000000
01000000
,
00010000
00000000
01000000
00000000
00100000
01000000
00000000
00010000
00000000
00000000
00000000
00000000
00000000
10000000
01000000
00100000
,
00020000
00000000
00000000
00000000
01030000
00000000
00000000
00000000
00000000
00000000
10000000
01000000
00100000
00010000
00000000
00000000
,
00102000
00000000
00000000
00000000
00003010
00000000
00000000
00000000
00000000
00000000
00000010
00000001
00001000
00000010
00000000
00000000
,
00000102
00000000
00000000
00000000
00000013
00000000
00000000
00000000
00000000
00000000
00000001
00000010
00000100
00001000
00000000
00000000
,
00020100
00000000
00000000
00000000
01030000
00000000
00000000
00000000
00000000
00000000
01000000
10000000
00010000
01000000
00000000
00000000
,
00001000
00000000
00010000
00000000
00001000
00000000
01000000
00100000
00000000
00000000
00000000
00000000
00000000
00000000
10000000
00000000
,
01000000
00000000
00010000
00000000
00001000
00000000
00000010
00000100
00000000
00000000
00000000
00000000
00000000
00000000
00000010
00000000
,
00000001
00000000
00000100
00000000
00000010
00000000
00001000
00000100
00000000
00010000
00000000
00000000
00000000
00000000
00001000
00000000
,
00100000
00000000
01000000
00000000
10000000
01000000
00000000
00010000
00000000
00000000
00000000
00000000
00000000
00001000
00000010
00000000
,
00000012
00000000
00000000
00000000
00000103
00000000
00000000
00000000
00000000
00000000
00000001
00000010
00000100
00001000
00000000
00000000
,
00020100
00000000
00000000
00000000
01030000
00000000
00000000
00000000
00000000
00000000
01000000
10000000
00010000
01000000
00000000
00000000
,
21000000
00000000
00000000
00000000
30100000
00000000
00000000
00000000
00000000
00000000
10000000
01000000
00100000
00010000
00000000
00000000
,
00102000
00000000
00000000
00000000
00003010
00000000
00000000
00000000
00001000
00000000
00000000
00000000
00000000
01000000
00010000
01000000
,
00002000
00010000
00100000
00023000
,
00000010
00001000
01030000
10000000
,
00100000
00010000
00001000
00000100
,
00000010
00001000
00000100
00010000
,
00200000
00000000
00000000
00000000
,
10000000
00000000
01000000
00300000
,
01000000
10000000
00100000
01000000
00010000
00100000
00001000
00010000
,
00000100
00001000
00000010
00000100
00000001
00000000
00001001
00000000
,
00000001
00000000
00000000
00000100
00000000
00000000
00000010
00000000
00000000
00001000
00000000
00000000
00000100
00000000
00000100
00000000
,
00010000
00000000
00000000
01000000
00000000
00000000
00100000
00000000
00000000
00010000
00000000
00000000
10000000
00000000
10000000
00000000
,
00100000
00000000
00000000
00010000
00000000
00000000
00001000
00000000
00000000
00000100
00000000
00000000
00000010
00000000
00000010
00000000
,
00001000
00000000
00000000
00000100
00000000
00000000
00000010
00000000
00000000
00000001
00000000
00000000
00000100
00000000
00000100
00000000
,
00000010
00000000
00000000
00010000
00000000
00000000
00100000
00000000
00000000
01000000
00000000
00000000
00010000
00000000
00010000
00000000
,
10000000
00000000
00000000
01000000
00000000
00000000
00100000
00000000
00000000
00001000
00000000
00000000
00000010
00000000
00000010
00000000
,
00000011
00000000
00001100
00000000
00000100
00001000
00000000
00011000
,
00000000
00110000
00000000
10010000
00000000
00000000
00000000
00000000
,
01000000
00000000
10000000
00000000
00010000
00000000
01000000
00000000
00100000
00000000
00000000
00000000
00000000
00000000
00010000
00001000
,
00000100
00000000
00000001
00000000
00001000
00000000
00000100
00000000
00000010
00000000
00000000
00000000
00000000
00000000
00000100
00001000
,
00000010
00000000
00000000
00000000
00000010
00000000
00000000
00000000
00000010
00000000
00000000
00000000
00000010
00000000
00001000
00000001
,
00000100
00000000
00001000
00000000
00010000
00000000
01000000
00000000
00100000
00000000
00000000
00000000
00000000
00010000
00001000
00000100
,
00000001
00000100
00000001
00000000
00000100
00001000
00000100
00000000
,
00001000
00010000
00001000
00000000
01000000
00100000
01100000
00000000
,
00010000
01000000
01010000
00000000
00001000
00010000
00011000
00000000
,
00001010
00000011
00000110
00001001
,
00000010
00000000
00000000
00001010
00000000
00000000
00000001
00000000
00000000
00000100
00000000
00000000
00010100
00000000
00000000
00000000
,
00011000
00000000
00000000
01000000
00000000
00000000
11000000
00000000
00000000
00100000
00000000
00000000
00011000
00000000
00000000
00000000
,
00000100
00000000
00000000
00001100
00000000
00000000
00000001
00000000
00000000
00000010
00000000
00000000
00010010
00000000
00000000
00000000
,
00011000
00000000
00000000
00100000
00000000
00000000
10100000
00000000
00000000
01000000
00000000
00000000
00011000
00000000
00000000
00000000
,
00000100
00000000
00000000
00000101
00000000
00000000
00000010
00000000
00000000
00000100
00000000
00000000
00010100
00000000
00000000
00000000
,
00011000
00000000
00000000
01000000
00000000
00000000
11000000
00000000
00000000
00010000
00000000
00000000
00011000
00000000
00000000
00000000
,
00000010
00000000
00000000
00000011
00000000
00000000
00000100
00000000
00000000
00000010
00000000
00000000
00010010
00000000
00000000
00000000
,
00011000
00000000
00000000
00100000
00000000
00000000
10100000
00000000
00000000
00010000
00000000
00000000
00011000
00000000
00000000
00000000
,
00001000
00000000
00000000
00000100
00000000
00000000
00000001
00000000
00000000
00000010
00000000
00000000
00000100
00000000
00000010
00000001
,
00001000
00000000
00000000
00000010
00000000
00000000
00000100
00000000
00000000
00001000
00000000
00000000
00010000
00000000
00010000
00100000
,
10000000
00000000
00000000
01000000
00000000
00000000
00010000
00000000
00000000
01000000
00000000
00000000
00100000
00000000
00010000
10000000
,
01000000
00000000
00000000
00010000
00000000
00000000
00001000
00000000
00000000
00000010
00000000
00000000
00000100
00000000
00000100
00010000
,
00001000
00000000
00000000
00010000
00000000
00000000
00100000
00000000
00000000
01000000
00000000
00000000
00001000
00000000
00001000
00010000
,
00000100
00000000
00000000
00000010
00000000
00000000
00001000
00000000
00000000
00010000
00000000
00000000
00001000
00000000
00000000
00000000
,
00010000
00000000
00001000
00000000
00000100
00001000
00000000
00010000
,
00000000
01000000
00000000
10000000
00000000
00000000
00000000
00000000
,
00000000
00000000
00000000
00000000
;
#NOTES:
     dance-double:
     :
     Challenge:
     15:
     :
00000000
00000000
00000000
00000000
,
00000000
00000000
00000000
00000000
,
00000000
00000000
00000000
00000000
,
00000000
00000000
00000000
00000000
,
00000000
00000000
00000000
00000000
,
00001000
00010000
00100000
00010000
00001000
00100000
00010000
00001000
,
00010000
00000010
00001000
00010000
00000010
00001000
00001010
00000000
,
00010000
00001000
00000010
00001000
00010000
00000010
00001000
00010000
,
00001000
00100000
00010000
00001000
00100000
00010000
00110000
00000000
,
10000000
00000000
01000000
00100000
00010000
00000000
00100000
00001000
00010000
00001000
00000010
00000000
00000001
00000010
00000000
00000000
,
00000001
00000000
00000100
00000010
00001000
00000000
00000010
00010000
00001000
00010000
00100000
00000000
10000000
00100000
00000000
00000000
,
01000000
00000000
00100000
00000000
00010000
00000000
00001000
00000000
00000100
00000010
00001000
00000000
00000001
00000010
00000000
00000000
,
00000100
00000000
00010000
00000000
00001000
00010000
00000000
00100000
01000000
00000000
00000000
00000000
00010000
00000000
10000000
00000000
,
00100000
00000000
01000000
00010000
00100000
00000000
00001000
00000000
00010000
00000100
00000010
00000000
00000001
00001000
00000000
00000000
,
00000010
00000000
00001000
00000100
00000010
00000000
00001000
00000000
00010000
00001000
01000000
00000000
00100000
10000000
00000000
00000000
,
00010000
00000000
01000000
00100000
00010000
00000000
00001000
00000000
00010000
00000100
00000010
00000000
00001000
00000001
00000000
00000000
,
00000100
00000000
00001000
00000010
00010000
00000000
00001000
00000000
01000000
00100000
00010000
00000000
10000000
00000000
01000000
00000000
,
00010000
00000000
00100000
01000000
10000000
00000000
00010000
01000000
00010000
01000000
00001000
00000000
00010000
00000100
00000000
00000000
,
00001000
00000000
00000010
00000100
00000010
00000000
00001000
00000001
00000010
00000100
00001000
00000000
00000001
00000100
00000000
00000000
,
00000001
00000000
00000010
00000100
00001000
00000000
00000000
00000001
00000100
00000010
00010000
00000000
00100000
10000000
00000000
00000000
,
10000000
00000000
01000000
00100000
00010000
00000000
00000000
10000000
01000000
00100000
00001000
00000000
00000010
00000001
00000000
00000000
,
00000010
00000000
00000100
00001000
00000010
00000000
00000000
00000000
00010000
00000000
00001000
00010000
00100000
01000000
00000000
00000000
,
00100000
00000000
10000000
00010000
00100000
00000000
00000000
00000000
00001000
00000000
00010000
00001000
00000010
00000100
00000000
00000000
,
00010000
00000000
00001000
00010000
00000100
00000000
00010000
00000000
00001000
00000000
00000100
00001000
00010000
00100000
00000000
00000000
,
00010000
00000000
00001000
00000000
01000000
00000000
00010000
00000000
00100000
01000000
10000000
00010000
01000000
00000000
00200000
00000000
,
00020000
00000000
00000000
00300000
,
00002000
00030000
00000020
00003000
,
00000031
00000000
00000010
00000000
00000100
00001000
00000000
00000010
,
00000000
00000000
00010000
00000000
00000000
00000000
00001000
00000000
00000000
00000000
00000000
00000000
00000000
00001000
00010000
00000000
,
00001000
00010000
00001000
00010000
00001000
00010000
00001000
00010000
00100000
10000000
00100000
10000000
00100000
10000000
00100000
10000000
,
01000000
00010000
01000000
00010000
01000000
00010000
01000000
00010000
00001000
00000010
00001000
00000010
00001000
00000010
00001000
00000010
,
00000001
00000100
00000001
00000100
00001000
00010000
00001000
00010000
00100000
10000000
00100000
10000000
00010000
01000000
00010000
01000000
,
00200000
00000000
00000000
00000000
00000000
00300000
10000000
10100000
,
00100000
00000000
00000000
00010000
00000100
00000000
00000010
00000000
00000001
00001000
00000010
00000000
00000100
00000000
00000010
00001000
,
00000001
00000000
00000000
00000100
00001000
00000000
00010000
00000000
00001000
00010000
00001000
00000000
00100000
00000000
01000000
00000000
,
10000000
00000000
00000000
10000000
00100000
00000000
00010000
00000000
00001000
00100000
00010000
00000000
10000000
00000000
00010000
01000000
,
00001000
00000000
00000000
00010000
00000100
00000000
00000010
00000000
00000001
00000100
00000010
00000000
00001000
00000000
00001001
00000000
,
00000001
00000000
00000000
00000100
00001000
00000000
00010000
00000000
00000100
00001000
00000010
00000000
00000001
00000000
00000010
00001000
,
00000100
00000000
00000000
00010000
00001000
00000000
01000000
00000000
00010000
00100000
10000000
00000000
00100000
00000000
00001000
00000000
,
00011000
00000000
00010100
00000000
00000010
00000011
00000100
00001001
,
00000000
00000000
00000000
00011000
00000000
00000000
00000000
00000000
00000000
10010000
00000000
00000000
00000000
00000000
00000000
10000000
01000000
00100000
00010000
00000000
00000000
00000000
00000000
00000000
,
10000000
00100000
10000000
00100000
00010000
00100000
00010000
00100000
,
00010000
00001000
00010000
00001000
00000010
00001000
00000010
00001000
,
00000010
00000001
00000010
00000001
00000100
00000001
00000100
00000001
,
00000100
00001000
00000100
00001000
00010000
00001000
00010000
00001000
,
00010000
00001000
00010000
00001000
00010000
00100000
00010000
00100000
10000000
00100000
10000000
00100000
10000000
00010000
10000000
00010000
,
10000000
01000000
10000000
01000000
00010000
01000000
00010000
01000000
00010000
00001000
00010000
00001000
00000010
00001000
00000010
00001000
,
00000010
00000001
00000100
00000010
00001000
00000100
00010000
00001000
00100000
00010000
01000000
00100000
10000000
00010000
10000000
01000000
,
00010000
00000000
00000000
00000000
00012000
00000000
00000000
00000000
01000000
00000000
00003000
00000010
00000001
00000000
00000000
00000000
,
00000001
00000100
00000001
00000100
00000001
00000100
00000001
00000100
00000001
00000100
00000001
00000100
00000001
00000100
00000001
00000100
,
00001000
00010000
00001000
00010000
00001000
00010000
00001000
00010000
01000000
10000000
01000000
10000000
01000000
10000000
01000000
10000000
,
00010000
00000000
00000000
00100000
00000000
00000000
01000000
00000000
00000000
10000000
00000000
00000000
00100000
00000000
00010000
00000000
,
00000100
00000000
00000000
00001000
00000000
00000000
00000010
00000000
00000000
00010000
00000000
00000000
01000000
00000000
00000000
00000000
,
10000000
01000000
10000000
01000000
10000000
01000000
10000000
01000000
10000000
01000000
10000000
01000000
10000000
01000000
10000000
01000000
,
00010000
00001000
00010000
00001000
00010000
00001000
00010000
00001000
00000100
00000001
00000100
00000001
00000100
00000001
00000100
00000001
,
00000010
00000000
00000000
00000100
00000000
00000000
00001000
00000000
00000000
00000010
00000000
00000000
00010000
00000000
00000100
00000000
,
00001100
00000000
00000000
00001010
00000000
00000000
00010100
00000000
00000000
00011000
00000000
00010000
00001000
00000000
01000000
00000000
,
00010000
00000000
00000000
00100000
01000000
00000000
10000000
00000000
00010000
01000000
00100000
00000000
00010000
00000000
00100000
01000000
,
00010000
00000000
00000000
10000000
01000000
00000000
00010000
00000000
00001000
00010000
00001000
00000000
00000010
00000000
00000001
00000000
,
00001000
00000000
00000000
00000010
00000100
00000000
00000001
00000000
00001000
00000100
00000010
00000000
00010000
00000000
00000010
00000100
,
00001000
00000000
00000000
00000001
00000100
00000000
00001000
00000000
00010000
00001000
00010000
00000000
00100000
00000000
10000000
00000000
,
00100000
00000000
00000000
00010000
00001000
00000000
00000010
00000000
00000001
00000010
00000100
00000000
00001000
00000000
00000010
00010000
,
00001000
00000000
00000000
00000100
00000001
00000000
00000010
00000000
00000100
00001000
00000010
00000000
00010000
00000000
00001000
00000000
,
01000000
00010000
10000000
01000000
10000000
00010000
01000000
00100000
10000000
00010000
10000000
01000000
00010000
00000000
00002000
00000000
,
00000000
00003200
00000000
00000002
00000303
00000000
00000000
00000000
,
00000000
00000000
00000000
00000000
;
