
//----- song ID: levu -----//
#TITLE:LEVEL UP;
#ARTIST:TORIENA;
#BANNER:LEVEL UP.png;
#BACKGROUND:LEVEL UP-bg.png;
#CDTITLE:./CDTitles/DDR A20.png;
#MUSIC:LEVEL UP.ogg;
#SAMPLESTART:61.34;
#SAMPLELENGTH:15;
#BPMS:0=180;
#NOTES:
     dance-single:
     :
     Beginner:
     4:
     :
0000
0000
0000
0000
,
0000
0000
0000
0000
,
0000
0000
0000
0000
,
0000
0000
0000
0000
,
0000
0000
0000
0000
,
1000
0000
0000
0000
,
0001
0000
0000
0000
,
0100
0000
0000
0000
,
0020
0000
0030
0000
,
1000
0000
1000
0000
,
0001
0000
0001
0000
,
0100
0000
0100
0000
,
0010
0000
0000
0000
,
0100
0000
0100
0000
,
0001
0000
0001
0000
,
1000
0000
1000
0000
,
0100
0000
0000
0000
,
0010
0010
0010
0000
,
0010
0010
0010
0000
,
1000
0000
0000
0000
,
0001
0000
0000
0000
,
0010
0000
0010
0000
,
0100
0000
0100
0000
,
0020
0000
0030
0000
,
1001
0000
0000
0000
,
0001
0000
0001
0000
,
1000
0000
1000
0000
,
0001
0000
0001
0000
,
1000
0000
1000
0000
,
0010
0000
0010
0000
,
0100
0000
0100
0000
,
0010
0000
0010
0000
,
0100
0000
0100
0000
,
0001
0000
0001
0000
,
1000
0000
1000
0000
,
0001
0000
0001
0000
,
0200
0000
0300
0000
,
1001
0000
0000
0000
,
0100
0100
0100
0000
,
0001
0000
1000
0000
,
0010
0010
0010
0000
,
0200
0000
0300
0000
,
0020
0000
0030
0000
,
2000
0000
3000
0000
,
0002
0000
0003
0000
,
1001
0000
0000
0000
,
1000
0000
1000
0000
,
0001
0000
0001
0000
,
1000
0000
1000
0000
,
0001
0000
0001
0000
,
0010
0000
0010
0000
,
0100
0000
0100
0000
,
0010
0000
0010
0000
,
0100
0000
0100
0000
,
0000
0000
1001
0000
,
0000
0000
1001
0000
,
0100
0000
0100
0000
,
0100
0100
0100
0000
,
0001
0000
1000
0000
,
0001
0000
1000
0000
,
0010
0000
0100
0000
,
0010
0000
0100
0000
,
0001
0000
0001
0000
,
1000
0000
1000
0000
,
0010
0000
0010
0000
,
0100
0000
0100
0000
,
0001
0000
0001
0000
,
0010
0000
0010
0000
,
0100
0000
0100
0000
,
1000
0000
1000
0000
,
1001
0000
0000
0000
,
1001
0000
0000
0000
,
0000
1001
0000
0000
,
0000
0000
0000
0000
;
#NOTES:
     dance-single:
     :
     Easy:
     7:
     :
0000
0000
0000
0000
,
0000
0000
0000
0000
,
0000
0000
0000
0000
,
0000
0000
0000
0000
,
0000
0000
0000
0000
,
0001
0000
1000
0000
,
0010
0000
0100
0000
0010
0000
0000
1000
,
0002
0000
0000
0000
,
1003
0010
0100
0001
,
1000
1000
0100
0010
,
0001
0001
0010
0100
,
0010
0010
0001
1000
,
0010
1000
1001
0000
,
0001
0001
1000
0100
,
0010
0010
0001
0100
,
0002
0000
2003
0000
,
3010
0100
0010
0100
,
0010
1001
0110
0000
,
0100
1001
0110
0000
,
1000
0100
1000
0100
,
0010
0100
0100
0000
,
1000
0010
0001
0110
,
0001
0010
1000
0110
,
1000
0000
0002
0000
,
0000
1003
0001
1000
0001
0000
0000
0000
,
0001
0010
0001
0010
,
1000
0100
1000
0100
,
0010
0010
0100
0100
,
1000
0010
0100
0001
,
1000
1000
0001
0001
,
0010
0010
0100
0100
,
1000
1000
0010
0010
,
1000
0100
0010
0001
,
0001
0001
1000
1000
,
0100
0100
0010
0010
,
0001
0001
0100
0100
,
0010
0010
1000
1000
,
1001
1000
0001
0010
,
0001
0010
0100
0000
,
1000
0100
0010
0100
,
0010
0001
0001
0000
,
1000
0001
1001
0000
,
0100
0010
0110
0000
,
1000
0000
0001
0000
,
0100
0000
0000
0010
0000
1000
0000
0001
,
0200
0000
0320
0000
,
1030
1000
0001
0001
,
0010
0010
0100
0100
,
1000
0100
0010
0001
,
1000
0001
1000
0000
0110
0000
0000
0000
,
0001
0001
1000
1000
,
0100
0100
0010
0010
,
0002
0000
2003
0000
,
3001
1000
0010
0100
,
0010
1001
0200
0000
,
0301
0110
2000
0000
,
3001
1000
0010
0100
,
0001
0001
0001
0000
,
1000
0001
0001
1001
,
0010
0100
0100
0110
,
2000
0000
3002
0000
,
0000
1003
0001
1000
0001
0000
0000
0000
,
0100
0001
1000
1000
,
0001
0010
0100
0100
,
0010
0001
0001
0010
,
0001
0100
1000
0100
,
0001
1000
0010
0010
,
1000
0001
0010
0010
,
0001
0100
0100
0001
,
1000
0100
0001
0100
,
1000
0000
1000
0000
0010
0100
0010
0000
,
0110
1001
0110
1001
,
0000
0110
0000
0000
,
0000
0000
0000
0000
;
#NOTES:
     dance-single:
     :
     Medium:
     10:
     :
0000
0000
0000
0000
,
0000
0000
0000
0000
,
0000
0000
0000
0000
,
0000
0000
0000
0000
,
0000
0000
0000
0000
,
0010
0000
0000
0001
0100
0000
0000
0010
,
1000
0000
0010
0000
0100
0000
0000
0001
,
2000
0000
0000
0000
,
3010
1000
0100
0110
,
1000
0000
1000
0000
0001
0010
0001
0000
,
0010
0000
0010
0000
0100
1000
0100
0000
,
1000
0000
1000
0000
0010
0100
0001
0000
,
1000
0001
1001
0000
,
0001
0000
0001
0000
1000
0100
1000
0000
,
0100
0000
0100
0000
0010
0001
0010
0000
,
0002
0000
0203
0000
,
0310
1000
0100
0010
,
0001
0101
2020
3030
,
0100
1010
0022
0033
,
1000
0000
1000
0000
0010
0000
1000
0001
,
0100
0001
1001
0000
,
1000
0100
1000
0000
0001
0000
1000
0000
,
0001
0100
0001
0000
1000
0000
0001
0000
,
0010
0000
0000
0001
2000
0000
0000
0000
,
0000
3100
0010
0001
1000
0000
1100
0000
,
1000
0001
0000
0100
0000
0010
0000
1000
,
0100
1000
0000
0010
0000
0100
0001
0100
,
0000
0010
0000
1000
0000
0100
0000
0010
,
0001
0100
0001
0000
0100
0010
1000
0010
,
0100
0000
0001
0000
1000
0100
0010
0000
,
0001
0000
0010
0000
0100
1000
0001
0000
,
0100
0000
0010
0000
1000
0001
0100
0000
,
0001
1000
0010
1001
,
0100
0000
0100
0000
0010
1000
0010
0000
,
0100
0000
0100
0000
0001
0010
0001
0000
,
0010
0000
0100
1000
0000
0000
0000
0001
,
0100
0000
0010
1000
0000
0000
0001
0000
,
0110
0000
0000
0100
0010
0000
0000
0000
,
1010
0101
0110
0000
,
1000
0000
1000
0000
0001
0100
0001
0000
,
0010
0000
0100
1000
0100
0000
0000
0000
,
0010
0000
0100
1000
0000
1100
0000
0000
,
0010
0000
0100
0001
0000
0101
0000
1000
,
1000
0000
0000
0001
0001
0000
0000
1000
,
0001
0010
0000
1010
0000
0011
0000
0001
,
1000
0001
0000
0000
1000
0001
0000
0000
,
1000
0000
0100
0000
1000
0100
0001
0000
,
0100
0000
1000
0000
0001
0100
1000
0000
,
0100
0000
0001
0000
0010
0100
1000
0000
,
0001
1000
0001
0000
0011
0000
1100
0000
,
0100
0000
0100
0000
1000
0001
0010
0000
,
0100
0000
0100
0000
0010
0001
1000
0000
,
0010
0000
0000
0100
0001
0000
0000
2000
,
0000
3010
0100
0000
0001
0000
0010
0000
,
0100
1100
0202
0303
,
0001
0110
2020
3030
,
0001
0000
1000
0000
0010
1000
0010
0000
,
0100
0000
0000
0100
0000
0000
0100
0000
0001
0000
0000
0000
0101
0000
0000
0000
,
0010
1000
0001
0000
0100
0000
0100
0000
,
0001
0100
0010
0000
1000
0000
0001
0000
,
0110
0000
0000
0010
0100
0000
0000
0000
,
0000
0001
0100
0010
1000
0000
0000
0000
,
0010
0000
1000
0000
0001
1000
0100
0000
,
0010
0000
0001
0000
1000
0001
0100
0000
,
0010
0010
1000
1000
,
0001
0100
1000
0000
1000
0100
0001
0000
,
0010
0000
0001
0000
1000
0001
0100
0000
,
0010
0000
1000
0000
0001
1000
0100
0000
,
1000
1000
0001
0001
,
1000
0100
0001
0000
0001
0100
1000
0000
,
0010
0000
0100
0000
0001
1000
0100
0000
,
1000
0000
0010
0000
0100
0001
0100
0001
,
0000
1010
0000
0000
,
0000
0000
0000
0000
;
#NOTES:
     dance-single:
     :
     Hard:
     13:
     :
0000
0000
0000
0000
,
0000
0000
0000
0000
,
0000
0000
0000
0000
,
0000
0000
0000
0000
,
0000
0000
0000
0000
,
0010
0000
0000
1000
0100
0000
0000
0010
,
0001
0000
0100
0000
0010
0000
0000
1000
,
0020
0000
0000
0000
0000
0000
0000
0130
,
0001
1000
0001
1001
,
0000
0000
1000
0000
0100
0000
1000
0000
0010
0000
0000
0100
0000
0000
0001
0000
,
0000
0000
0001
0000
0100
0000
0001
0000
0010
0000
0000
0100
0000
0000
1000
0000
,
0000
0000
1000
0000
0010
0000
0100
0000
0001
0000
0010
0100
0000
0100
0010
0000
,
0001
0100
0010
1000
0001
0000
0000
0000
,
0000
0000
0001
0000
0010
0000
1000
0000
0010
0000
0000
0001
0000
0000
1000
0000
,
0000
0000
1000
0000
0010
0000
0001
0000
0010
0000
0000
1000
0000
0000
0001
0000
,
0200
0000
0000
0301
2000
0000
0000
3002
,
0000
1003
0010
0100
0001
0000
0010
0000
,
0100
1010
0202
0303
,
0100
0000
0011
0000
1200
0000
0000
1300
,
0010
0001
0010
0100
0002
0000
0013
0100
,
1000
0000
0000
0001
0000
0000
0100
0000
0010
0000
0000
0000
0000
0000
0000
0000
,
1000
0100
0010
0001
1000
0000
0110
0000
,
0001
0100
0010
1000
0001
0000
0110
0000
,
1001
0000
0000
0010
0200
0000
0000
0000
,
0000
0310
1000
0001
0100
0000
1001
0000
,
1000
0100
0010
0001
1000
0001
0100
0010
,
0001
1000
0001
0100
0010
1000
0100
0010
,
1000
0100
0010
0001
0100
0010
1000
0100
,
0001
0000
1000
0000
0100
0000
0000
0000
1000
0001
1000
0001
0000
0000
1001
0000
,
0000
0000
0100
0000
0001
0000
0010
0000
1000
0000
0000
0011
0000
0000
0101
0000
,
0000
0000
1000
0000
0010
0000
0001
0000
0010
0000
0000
1010
0000
0000
1100
0000
,
0000
0000
0001
0000
0010
0000
0100
0000
1000
0000
0000
0110
0000
0000
1001
0000
,
0001
0010
1000
0010
0100
0001
0100
1000
,
0010
0000
0100
0000
0001
0000
0010
0000
0100
0000
0000
0101
0000
0000
1100
0000
,
0000
0000
0100
0000
1000
0000
0010
0000
0100
0000
0000
1100
0000
0000
0101
0000
,
0101
0000
1100
1100
0000
0000
0000
1000
,
0100
0010
0001
2000
0000
0000
3001
0000
,
0110
0000
0000
0100
0010
0000
0000
0001
,
0100
1000
0001
0010
1000
0000
0000
0001
,
0010
1000
0001
0100
1000
0010
0100
1000
,
0100
0001
1000
0010
0001
0000
0000
0010
,
0100
0000
0001
0000
0010
0000
1000
0010
0000
0000
0011
0000
0000
0000
0100
0000
,
0010
0000
1000
0000
0010
0000
0001
0010
0000
0000
1010
0000
0000
0000
0100
0000
,
0100
0000
0000
0010
0010
0000
0000
1000
,
0100
0010
0000
0101
0000
1010
0000
0001
,
0101
0101
0000
0000
1100
1100
0000
0000
,
0000
0000
0001
0000
0010
0000
0001
0000
0100
0000
0000
0010
0000
0000
1000
0000
,
0000
0000
1000
0000
0010
0000
1000
0000
0100
0000
0000
0010
0000
0000
0001
0000
,
0000
0000
0001
0000
0100
0000
0010
0000
1000
0000
0100
0010
0000
0010
0100
0000
,
1000
0010
0100
0001
1000
0000
0000
0000
,
0000
0000
1000
0000
0100
0000
0001
0000
0100
0000
0000
1000
0000
0000
0001
0000
,
0000
0000
0001
0000
0100
0000
1000
0000
0100
0000
0000
0001
0000
0000
1000
0000
,
0020
0000
0000
1030
0002
0000
0000
2003
,
0000
3001
0100
0010
1000
0000
0100
0000
,
0010
0101
2020
3030
,
0010
0000
1100
0000
0021
0000
0000
0031
,
0100
1000
0100
0010
2000
0000
3100
0010
,
0011
0000
0000
0110
0000
0000
1100
0000
1001
0000
0000
0000
0110
0000
0000
0000
,
0001
0010
0100
1000
0001
0000
0110
0000
,
1000
0010
0100
0001
1000
0000
0110
0000
,
1001
0000
0000
0010
0100
0000
0000
0000
,
0000
0010
0010
0010
0010
0000
1001
0000
,
0001
0010
0100
0010
1000
0001
0100
1000
,
0010
0100
0010
0001
1000
0100
0001
0010
,
0100
0000
1000
0001
0000
0000
0100
0000
1000
0000
0001
0000
1000
0000
0100
0000
,
0010
0001
0010
1000
0010
0001
0010
1000
,
0100
0001
1000
0010
0001
0100
0010
1000
,
0010
0001
1000
0100
0001
0010
1000
0010
,
0001
0000
1000
0001
0000
0000
0100
0000
0001
0000
0001
0000
1000
0000
1000
0000
,
0001
0100
1000
0100
0001
0100
1000
0100
,
0001
0010
0100
0000
0100
1000
0001
0100
,
0010
1000
0100
0001
0010
1000
0100
0002
,
0000
1003
0000
0000
,
0000
0000
0000
0000
;
#NOTES:
     dance-double:
     :
     Easy:
     7:
     :
00000000
00000000
00000000
00000000
,
00000000
00000000
00000000
00000000
,
00000000
00000000
00000000
00000000
,
00000000
00000000
00000000
00000000
,
00000000
00000000
00000000
00000000
,
00001000
00000000
00010000
00000000
,
00001000
00000000
00010000
00000000
00001000
00000000
00000000
00000100
,
00000020
00000000
00000000
00000000
,
00000130
00000001
00000100
00000001
,
00001000
00001000
00000010
00000100
,
00000001
00000001
00000100
00001000
,
00010000
00010000
00001000
01000000
,
00010000
00100000
10010000
00000000
,
00010000
00010000
10000000
01000000
,
00100000
00100000
00001000
00010000
,
00002000
00000000
00023000
00000000
,
00030100
00000010
00000100
00001000
,
00000001
00001000
00000110
00000000
,
00001000
00010000
00011000
00000000
,
00010000
00001000
00100000
00010000
,
01000000
00010000
10000000
00000000
,
00100000
01000000
00010000
00011000
,
00001000
00010000
00000010
00001010
,
00000001
00000000
00002000
00000000
,
00000000
00003100
00000010
00000100
00000010
00000000
00000000
00000000
,
00000100
00000001
00000010
00000001
,
00000100
00001000
00010000
00001000
,
00010000
01000000
10000000
01000000
,
10000000
00100000
01000000
00010000
,
10000000
10000000
01000000
01000000
,
00100000
00100000
00001000
00001000
,
00010000
00010000
00000010
00000010
,
00001000
00000100
00000010
00000001
,
00000010
00000010
00000001
00000001
,
00000100
00000100
00001000
00001000
,
00010000
00010000
00001000
00001000
,
00100000
00100000
00010000
01000000
,
01010000
00100000
10000000
01000000
,
10000000
00100000
01000000
00000000
,
00001000
00010000
00001000
00010000
,
00000100
00001000
00000010
00000000
,
00001000
00000001
00001001
00000000
,
00000010
00000100
00000110
00000000
,
00010000
00000000
00001000
00000000
,
00010000
00000000
00000000
01000000
00000000
10000000
00000000
00100000
,
02000000
00000000
03020000
00000000
,
00130000
00001000
00010000
00010000
,
00001000
00000100
00000001
00000001
,
00000010
00000100
00001000
00000100
,
00010000
00001000
00010000
00000000
00011000
00000000
00011000
00000000
,
00001000
01000000
00010000
01000000
,
00100000
10000000
00010000
10000000
,
02000000
00000000
03020000
00000000
,
00031000
00000100
00000001
00000100
,
00001000
00011000
00020000
00000000
,
00031000
00011000
00002000
00000000
,
00013000
01000000
10000000
00100000
,
10000000
10000000
10000000
00000000
,
01000000
00010000
00001000
00011000
,
00010000
00000100
00000010
00000110
,
00000002
00000000
00002003
00000000
,
00000000
00003010
00001000
00000010
00001000
00000000
00000000
00000000
,
00000100
00010000
00001000
00010000
,
00001000
00100000
00010000
01000000
,
00100000
10000000
01000000
00010000
,
00001000
00000100
00000001
00000010
,
00000001
00000010
00000001
00000100
,
00000010
00001000
00000100
00010000
,
00001000
00010000
00001000
01000000
,
00010000
01000000
00100000
10000000
,
01000000
00000000
01000000
00000000
00100000
00010000
00100000
00000000
,
00011000
00011000
00001100
00001100
,
00000000
00000110
00000000
00000000
,
00000000
00000000
00000000
00000000
;
#NOTES:
     dance-double:
     :
     Medium:
     10:
     :
00000000
00000000
00000000
00000000
,
00000000
00000000
00000000
00000000
,
00000000
00000000
00000000
00000000
,
00000000
00000000
00000000
00000000
,
00000000
00000000
00000000
00000000
,
00001000
00000000
00000000
00000100
00010000
00000000
00000000
00001000
,
00010000
00000000
01000000
00000000
00100000
00000000
00010000
10000000
,
00020000
00000000
00000000
00000000
,
01030000
00100000
10000000
01000000
,
00100000
00000000
00100000
00000000
00001000
00010000
00001000
00000000
,
00010000
00000000
00010000
00000000
00000010
00001000
00000010
00000000
,
00000100
00000100
00000001
00001000
,
00000010
00000100
00000010
00000000
00001001
00000000
00000000
00000000
,
00000100
00000000
00000100
00000000
00001000
00000010
00001000
00000000
,
00000100
00010000
00001000
01000000
,
00200000
00000000
02300000
00000000
,
03010000
00100000
00001000
00100000
,
00001000
00011000
00001010
00000000
,
00000100
00000110
00001001
00000000
,
00000001
00000000
00000001
00000000
00000100
00000000
00000001
00000100
,
00001000
00010000
00011000
00000000
,
00001000
01000000
00010000
00000000
00100000
00000000
00100000
00000000
,
00010000
10000000
01000000
00000000
00100000
00000000
00100000
00000000
,
00001000
00000000
00000000
00001000
00020000
00000000
00000000
00000000
,
00000000
00031000
00010000
00001000
00010000
00000000
00000000
00000000
,
00001000
00010000
00000000
00001000
00000000
00010000
00000000
00001000
,
00010000
00000100
00000000
00001000
00000000
00000001
00000100
00000001
,
00000000
00000010
00000000
00000100
00000000
00001000
00000000
00000100
,
00010000
00001000
00100000
00000000
00010000
01000000
00100000
10000000
,
00100000
00000000
01000000
00000000
00010000
10000000
01000000
00000000
,
00100000
00000000
00010000
00000000
10000000
01000000
00010000
00000000
,
00001000
00000000
00010000
00000000
00001000
00000100
00000001
00000000
,
00000010
00000100
00001000
00001001
,
00000001
00000000
00000001
00000000
00000100
00000010
00000100
00000000
,
00001000
00000000
00001000
00000000
00010000
00001000
00010000
00000000
,
00001000
00000000
01000000
00010000
00000000
00000000
00000000
10000000
,
00100000
00000000
01000000
00010000
00000000
00000000
10000000
00000000
,
10010000
00000000
00000000
00100000
00001000
00000000
00000000
00000000
,
00011000
00001100
00000110
00000000
,
00001000
00000000
00000001
00000000
00000100
00000010
00000100
00000000
,
00000001
00000000
00001000
00000100
00010000
00000000
00000000
00000000
,
00001000
00000000
00000000
00010000
00000000
00011000
00000000
00000000
,
01000000
00000000
00000000
00010000
00000000
01010000
00000000
00100000
,
00100000
00000000
00000000
00010000
00010000
00000000
00000000
10000000
,
00010000
01000000
00000000
00100000
00000000
00010000
00000000
00001000
,
00020000
00000000
00032000
00000000
,
00013000
00000000
00001000
00000000
00010000
00000100
00001000
00000000
,
00000100
00000000
00000010
00000000
00000001
00000010
00001000
00000000
,
00010000
00000000
00001000
00000000
00100000
00010000
10000000
00000000
,
00010000
01000000
00010000
00000000
00110000
00000000
11000000
00000000
,
10000000
00000000
01000000
00000000
00100000
00001000
00010000
00000000
,
00000100
00000000
00001000
00000000
00000001
00001000
00000010
00000000
,
00000100
00000000
00000000
00001000
00010000
00000000
00000000
00100000
,
00000000
10000000
00010000
00000000
01000000
00000000
00010000
00000000
,
00100000
00011000
00001010
00000000
,
00000100
00011000
00110000
00000000
,
00010000
00000000
10000000
00000000
01000000
10000000
01000000
00000000
,
00100000
00000000
00000000
00100000
00000000
00000000
00100000
00000000
00001000
00000000
00000000
00000000
00011000
00000000
00000000
00000000
,
00010000
00000100
00001000
00000100
00000010
00000000
00000010
00000000
,
00000001
00000100
00000001
00000100
00000010
00000000
00000100
00000000
,
00011000
00000000
00000000
00001000
00020000
00000000
00000000
00000000
,
00000000
00031000
00010000
00001000
00010000
00000000
00000000
00000000
,
00001000
00000000
01000000
00000000
00100000
10000000
00100000
00000000
,
10000000
00000000
01000000
00000000
10000000
01000000
00010000
00000000
,
00001000
00000100
00000010
00001000
,
00000001
00000100
00001000
00000000
00010000
01000000
10000000
00000000
,
00100000
00000000
01000000
00000000
00010000
10000000
00010000
00000000
,
01000000
00000000
00100000
00000000
01000000
00010000
01000000
00000000
,
00001000
00001000
00010000
00010000
,
00001000
00010000
01000000
00000000
00010000
00001000
00000100
00000000
,
00000010
00000000
00001000
00000000
00000100
00010000
00000100
00000000
,
00010100
00011000
01010000
10010000
,
00000000
01100000
00000000
00000000
,
00000000
00000000
00000000
00000000
;
#NOTES:
     dance-double:
     :
     Hard:
     13:
     :
00000000
00000000
00000000
00000000
,
00000000
00000000
00000000
00000000
,
00000000
00000000
00000000
00000000
,
00000000
00000000
00000000
00000000
,
00000000
00000000
00000000
00000000
,
00000001
00000000
00000000
00001000
00000100
00000000
00000000
00010000
,
00001000
00000000
01000000
00000000
00100000
00000000
00000000
10000000
,
00020000
00000000
00000000
00000000
00000000
00000000
00000000
10030000
,
00100000
01000000
00001000
00011000
,
00000000
00000000
00001000
00000000
00000100
00000000
00000001
00000000
00000010
00000000
00000000
00000100
00000000
00000000
00001000
00000000
,
00000000
00000000
00000100
00000000
00001000
00000000
00000100
00000000
00010000
00000000
00000000
00100000
00000000
00000000
01000000
00000000
,
00000000
00000000
00010000
00000000
00100000
00000000
01000000
00000000
10000000
00000000
01000000
00100000
00000000
00100000
01000000
00000000
,
00010000
00001000
00000100
00000010
00001000
00000000
00000000
00000000
,
00000000
00000000
00010000
00000000
00100000
00000000
10000000
00000000
00100000
00000000
00000000
00010000
00000000
00000000
00001000
00000000
,
00000000
00000000
00001000
00000000
00000010
00000000
00000001
00000000
00000010
00000000
00000000
00001000
00000000
00000000
00010000
00000000
,
00000020
00000000
00000000
00000130
00000002
00000000
00000000
00002003
,
00000000
00003010
00000100
00000001
00000010
00000000
00000100
00000000
,
00001000
00010100
00002200
00003300
,
00010000
00000000
00011000
00000000
01020000
00000000
00000000
10030000
,
00100000
00010000
00100000
01000000
00002000
00000000
00013000
00000100
,
00000010
00000000
00000000
00000001
00000000
00000000
00000100
00000000
00000010
00000000
00000000
00000000
00000000
00000000
00000000
00000000
,
00000001
00000100
00000010
00001000
00000100
00000000
00011000
00000000
,
00010000
00001000
00100000
00010000
10000000
00000000
01100000
00000000
,
10010000
00000000
00000000
00100000
02000000
00000000
00000000
00000000
,
00000000
03100000
01000000
00001000
00010000
00000000
00011000
00000000
,
00000100
00001000
00000100
00000010
00000001
00000100
00000010
00001000
,
00000100
00010000
00001000
00010000
01000000
00100000
00010000
00001000
,
00010000
00100000
00010000
01000000
10000000
01000000
00010000
00100000
,
00001000
00000000
00010000
00000000
00001000
00000000
00000000
00000000
00010000
00001000
00010000
00001000
00000000
00000000
00011000
00000000
,
00000000
00000000
00001000
00000000
00010000
00000000
01000000
00000000
00010000
00000000
00000000
01010000
00000000
00000000
00011000
00000000
,
00000000
00000000
00010000
00000000
00001000
00000000
00000100
00000000
00001000
00000000
00000000
00001100
00000000
00000000
00011000
00000000
,
00000000
00000000
00001000
00000000
00010000
00000000
01000000
00000000
10000000
00000000
00000000
11000000
00000000
00000000
10010000
00000000
,
00010000
00100000
10000000
00100000
00010000
00001000
00000100
00000010
,
00000001
00000000
00001000
00000000
00000001
00000000
00000010
00000000
00000100
00000000
00000000
00001100
00000000
00000000
00001010
00000000
,
00000000
00000000
00001000
00000000
00000100
00000000
00010000
00000000
00001000
00000000
00000000
00110000
00000000
00000000
01010000
00000000
,
01010000
00000000
11000000
11000000
00000000
00000000
00000000
00100000
,
10000000
00010000
00100000
00002000
00000000
00000000
00013000
00000000
,
00001100
00000000
00000000
00000100
00000010
00000000
00000000
00000001
,
00000100
00001000
00010000
01000000
10000000
00000000
00000000
00010000
,
00100000
10000000
00010000
01000000
10000000
00100000
00010000
00001000
,
00000100
00000001
00001000
00000010
00000001
00000000
00000000
00000010
,
00000100
00000000
00000001
00000000
00000010
00000000
00000001
00000010
00000000
00000000
00000110
00000000
00000000
00000000
00000010
00000000
,
00000001
00000000
00000100
00000000
00001000
00000000
00010000
00001000
00000000
00000000
00011000
00000000
00000000
00000000
00001000
00000000
,
00001000
00000000
00000000
01000000
01000000
00000000
00000000
00100000
,
10000000
01000000
00000000
00110000
00000000
01010000
00000000
00001000
,
00011000
00011000
00000000
00000000
00001100
00001100
00000000
00000000
,
00000000
00000000
00001000
00000000
00000100
00000000
00000001
00000000
00000100
00000000
00000000
00010000
00000000
00000000
00001000
00000000
,
00000000
00000000
00010000
00000000
01000000
00000000
10000000
00000000
01000000
00000000
00000000
00010000
00000000
00000000
00001000
00000000
,
00000000
00000000
00001000
00000000
00010000
00000000
01000000
00000000
00010000
00000000
00001000
00010000
00000000
00010000
00001000
00000000
,
00000100
00000001
00000010
00000100
00001000
00000000
00000000
00000000
,
00000000
00000000
00000010
00000000
00001000
00000000
00000100
00000000
00000010
00000000
00000000
00000001
00000000
00000000
00000100
00000000
,
00000000
00000000
00000001
00000000
00000100
00000000
00001000
00000000
00010000
00000000
00000000
00001000
00000000
00000000
00100000
00000000
,
00020000
00000000
00000000
10030000
00200000
00000000
00000000
02300000
,
00000000
03010000
00100000
00001000
00010000
00000000
00001000
00000000
,
00010000
00011000
00220000
00330000
,
00001000
00000000
00011000
00000000
00001200
00000000
00000000
00001300
,
00000010
00000001
00000010
00001000
00000200
00000000
00010300
00001000
,
00011000
00000000
00000000
00110000
00000000
00000000
01100000
00000000
11000000
00000000
00000000
00000000
01100000
00000000
00000000
00000000
,
10000000
00100000
01000000
00010000
00100000
00000000
00011000
00000000
,
00001000
00000100
00000010
00001000
00000001
00000000
00000110
00000000
,
00001001
00000000
00000000
00000100
00001000
00000000
00000000
00000000
,
00000000
00000010
00000010
00000010
00000010
00000000
00000110
00000000
,
00000001
00000010
00001000
00000010
00000001
00000100
00001000
00000100
,
00000010
00000001
00001000
00000100
00000001
00000010
00001000
00010000
,
00001000
00000000
00000100
00001000
00000000
00000000
00010000
00000000
01000000
00000000
10000000
00000000
01000000
00000000
10000000
00000000
,
00100000
00010000
00100000
10000000
00100000
00010000
00100000
10000000
,
01000000
00010000
10000000
00100000
00010000
01000000
00100000
10000000
,
00100000
00010000
00001000
00000100
00001000
00010000
00100000
10000000
,
00010000
00000000
00100000
01000000
00000000
00000000
00010000
00000000
00001000
00000000
00001000
00000000
00010000
00000000
00010000
00000000
,
00001000
00000100
00001000
00010000
00001000
00000100
00000001
00000010
,
00000100
00001000
00000010
00000000
00000100
00000001
00000010
00000100
,
00001000
00000010
00000001
00001000
00000100
00000001
00000010
00002000
,
00000000
00013000
00000000
00000000
,
00000000
00000000
00000000
00000000
;
