
//----- song ID: kusa -----//
#TITLE:腐れ外道とチョコレゐト;
#ARTIST:ピノキオピー;
#TITLETRANSLIT:Kusare gedou to chocolate;
#ARTISTTRANSLIT:PinocchioP;
#BANNER:Kusare gedou to chocolate.png;
#BACKGROUND:Kusare gedou to chocolate-bg.png;
#CDTITLE:./CDTitles/SDVX BOOTH.png;
#MUSIC:Kusare gedou to chocolate.ogg;
#SAMPLESTART:41.518;
#SAMPLELENGTH:15;
#BPMS:0=260;
#NOTES:
     dance-single:
     :
     Beginner:
     3:
     :
0000
0000
0000
0000
,
0000
0000
0000
0000
,
0000
0000
0000
0000
,
0000
0000
0000
0000
,
0000
0000
0000
0000
,
0010
0000
0000
0000
,
0010
0000
0000
0000
,
1000
0000
0000
0000
,
1000
0000
0000
0000
,
0001
0000
0000
0000
,
0001
0000
0000
0000
,
0100
0000
0000
0000
,
0010
0000
0000
0000
,
1001
0000
0000
0000
,
0000
0000
0000
0000
,
1001
0000
0000
0000
,
0000
0000
0000
0000
,
1001
0000
0000
0000
,
0000
0000
0000
0000
,
1001
0000
0000
0000
,
0000
0000
0000
0000
,
1000
0000
0000
0000
,
1000
0000
0000
0000
,
0001
0000
0000
0000
,
0001
0000
0000
0000
,
0010
0000
0000
0000
,
0100
0000
0000
0000
,
0020
0000
0000
0000
,
0030
0000
0000
0000
,
1001
0000
0000
0000
,
0000
0000
0000
0000
,
1001
0000
0000
0000
,
0000
0000
0000
0000
,
1001
0000
0000
0000
,
0000
0000
0000
0000
,
1001
0000
0000
0000
,
0000
0000
0000
0000
,
0001
0000
0000
0000
,
1000
0000
0000
0000
,
0001
0000
0000
0000
,
1000
0000
0000
0000
,
0010
0000
0000
0000
,
0100
0000
0000
0000
,
0010
0000
0010
0000
,
0010
0000
0000
0000
,
0100
0000
0000
0000
,
0100
0000
0000
0000
,
0010
0000
0000
0000
,
0010
0000
0000
0000
,
1000
0000
0000
0000
,
1000
0000
0000
0000
,
0001
0000
0000
0000
,
0001
0000
0000
0000
,
1000
0000
0000
0000
,
1000
0000
0000
0000
,
0001
0000
0000
0000
,
0001
0000
0000
0000
,
0010
0000
0000
0000
,
0100
0000
0000
0000
,
1001
0000
0000
0000
,
0000
0000
0000
0000
,
0001
0000
0000
0000
,
1000
0000
0000
0000
,
0001
0000
0000
0000
,
1000
0000
0000
0000
,
0010
0000
0000
0000
,
0100
0000
0000
0000
,
0010
0000
0000
0000
,
0100
0000
0000
0000
,
0001
0000
0000
0000
,
1000
0000
0000
0000
,
0001
0000
0000
0000
,
1000
0000
0000
0000
,
0010
0000
0000
0000
,
0010
0000
0000
0000
,
0100
0000
0000
0000
,
0000
0000
0000
0000
,
0010
0000
0000
0000
,
0010
0000
0000
0000
,
0100
0000
0000
0000
,
0100
0000
0000
0000
,
0001
0000
0000
0000
,
0001
0000
0000
0000
,
1000
0000
0000
0000
,
1000
0000
0000
0000
,
0001
0000
0000
0000
,
1000
0000
0000
0000
,
0010
0000
0000
0000
,
0100
0000
0000
0000
,
0001
0000
0000
0000
,
0010
0000
0000
0000
,
0100
0000
0000
0000
,
1000
0000
0000
0000
,
1000
0000
1000
0000
,
1000
0000
0000
0000
,
0001
0000
0001
0000
,
0001
0000
0000
0000
,
0010
0000
0010
0000
,
0010
0000
0000
0000
,
0200
0000
0000
0000
,
0000
0000
0000
0000
,
0000
0000
0000
0000
,
0300
0000
0000
0000
,
0001
0000
0000
0000
,
0001
0000
0000
0000
,
1000
0000
0000
0000
,
1000
0000
0000
0000
,
0010
0000
0000
0000
,
0010
0000
0000
0000
,
0100
0000
0000
0000
,
0100
0000
0000
0000
,
0100
0000
0000
0000
,
0100
0000
0000
0000
,
0020
0000
0000
0000
,
0000
0000
0000
0000
,
0030
0000
0000
0000
,
0000
0000
0000
0000
;
#NOTES:
     dance-single:
     :
     Easy:
     8:
     :
0000
0000
0000
0000
,
0000
0000
0000
0000
,
0000
0000
0000
0000
,
0000
0000
0000
0000
,
0000
0000
0000
0000
,
0010
0000
1000
0000
,
0001
0100
0001
0000
,
1000
0100
1000
0000
,
0001
0000
1000
0000
,
0001
0000
1000
0000
,
0100
1000
0100
0000
,
0010
0100
0010
0000
,
2002
0000
0000
3003
,
0020
0000
0100
0000
,
0100
0100
0130
0000
,
0002
0000
1000
0000
,
1000
1000
1003
0000
,
0010
0000
1001
0000
,
0100
0000
1001
0000
,
0001
0000
1000
0000
,
0001
1000
0001
0000
,
0020
0000
0130
0000
,
0002
0000
1003
0000
,
0200
0000
0310
0000
,
0100
0010
0100
0010
,
2000
0000
3001
0000
,
0020
0000
0130
0000
,
2002
0000
0000
0000
,
3003
0000
0000
0000
,
1000
0000
0001
0000
,
1000
0001
1000
0000
,
0010
0000
0100
0000
,
0001
1000
0002
0003
,
1000
0000
1000
0000
,
0001
0000
0001
0000
,
0200
0000
0000
0000
,
0000
0000
0310
0100
,
0001
0000
1001
0000
,
1000
0000
0110
0000
,
0100
0000
0110
0000
,
0010
0100
0010
0100
,
0002
0000
0013
0000
,
2000
0000
3100
0000
,
0001
0000
1000
0000
,
0010
0010
0020
0030
,
1000
0000
1000
0000
,
0001
0000
0001
0000
,
0010
0000
0100
0000
,
0010
0001
1000
0000
,
0001
0000
0100
0000
,
0001
0100
0001
0000
,
1000
0100
0010
0001
,
2000
0000
0000
3000
,
0001
0000
1000
0000
,
0010
0100
0010
0000
,
1000
0000
0001
0000
,
0100
0010
0100
0000
,
0020
0000
0100
0130
,
0002
0000
1000
1003
,
2002
0000
0000
0000
,
3003
0000
0000
0000
,
0010
0000
0010
0000
,
0100
0000
0100
0000
,
0001
0000
1000
0000
,
0001
1000
0001
0000
,
0010
0000
0100
0000
,
0010
0000
0100
0000
,
1001
0000
0110
0000
,
0100
0010
0100
0010
,
1000
0000
1000
0000
,
0001
0000
0001
0000
,
0010
0000
0100
0000
,
0010
0001
1000
0100
,
0010
0000
1000
0000
,
0001
0000
0100
0000
,
0020
0000
0000
0000
,
0230
0000
0000
0000
,
0301
0000
0001
0000
,
1000
0000
1000
0000
,
0010
0000
0100
0000
,
0010
1000
0001
0000
,
1000
0000
0100
0000
,
1000
0100
1000
0000
,
0001
0100
0010
1000
,
0002
0000
0000
0003
,
1000
0000
0001
0000
,
0010
0100
0010
0000
,
0001
0000
1000
0000
,
0100
0010
0100
0000
,
0020
0000
0100
0130
,
2000
0000
0001
3001
,
2002
0000
0000
0000
,
3003
0000
0000
0000
,
0001
0010
0001
0010
,
0001
0010
0001
0000
,
1000
0100
1000
0100
,
1000
0100
1000
0000
,
0110
0000
1000
0001
,
1001
0000
0010
0100
,
0220
0000
0000
0000
,
0000
0000
0000
0000
,
0000
0000
0000
0000
,
0330
0000
0000
0000
,
0010
0000
1000
0000
,
0001
0100
0001
0000
,
1000
0100
1000
0000
,
0001
0000
1000
0000
,
0001
0000
0010
0000
,
0100
1000
0100
0000
,
0010
0100
1000
0000
,
0010
0100
0001
0000
,
0010
0001
1000
0000
,
0010
1000
0001
0100
,
0020
0000
0000
0000
,
0000
0000
0000
0000
,
0030
0000
0000
0000
,
0000
0000
0000
0000
;
#NOTES:
     dance-single:
     :
     Medium:
     13:
     :
0000
0000
0000
0000
,
0000
0000
0000
0000
,
0000
0000
0000
0000
,
0000
0000
0000
0000
,
0000
0000
0000
0000
,
0010
1000
0010
1000
,
0001
0100
0001
0100
,
0010
1000
0001
0100
,
0010
0010
0100
0100
,
0001
0010
0001
0010
,
0100
1000
0100
1000
,
0010
1000
0001
0100
,
2002
0000
0000
3003
,
1000
0001
1000
0000
0001
0000
0010
0000
,
0100
0010
0100
0000
2002
0000
3003
0000
,
0010
0000
1000
0000
0001
0100
0010
0000
,
0110
1001
0220
0330
,
0010
0000
0100
0000
0010
1000
0100
0000
,
1000
0000
0001
0000
0010
0001
0100
0000
,
0001
0010
0100
1000
,
1001
0110
2002
3003
,
0010
0000
1000
0000
0100
1000
0100
0000
,
0010
0000
0001
0000
0100
0001
0100
0000
,
0010
1000
0001
0100
,
1010
0101
1010
0101
,
0010
0100
0001
1000
,
0010
0100
0001
1000
,
0010
0000
0000
0020
0000
0000
0000
0000
,
0230
0000
0000
0300
,
0100
0100
0010
0010
,
1000
0100
0010
0000
0001
0000
1000
0000
,
0001
0100
0010
0000
1000
0000
0001
0000
,
0110
1001
0220
0330
,
0001
0000
0001
0000
0001
0010
0100
0000
,
1000
0000
0010
0000
1000
0010
0100
0000
,
0001
0000
1000
0000
0001
1000
0000
0001
,
0000
1000
0000
0001
1000
0000
1001
0000
,
0010
0100
0001
0100
,
0010
1000
0100
1000
,
0010
0100
0001
1000
,
0011
1100
0011
1100
,
0010
0010
0100
0100
,
0001
1000
0200
0300
,
1000
0010
1000
0000
0001
0100
0001
0000
,
1000
0001
1000
0000
0200
0000
0300
0000
,
0010
0001
0010
0100
,
1000
0000
0010
1000
0000
0010
1000
0000
,
0100
1000
0001
0010
,
0001
0000
0000
1000
0001
0000
0000
0000
,
0100
0001
0100
0001
,
1000
0000
0100
1000
0100
1000
0100
0000
,
0010
0001
1000
0010
,
0200
0000
0000
0300
,
0010
1000
0010
0100
,
1010
0101
1001
0000
,
0010
1000
0100
0010
,
0001
0000
0100
0000
0000
1001
0000
0000
,
0010
1000
0010
1010
,
0001
0010
0001
0011
,
0010
0000
0000
0100
0000
0000
1100
0000
,
0101
0000
0000
0000
,
0100
0010
0100
0010
,
1000
0001
1000
0001
,
0001
1000
0100
0000
1000
0001
0100
0000
,
0010
1000
0001
0100
,
0001
0001
0010
0100
,
1000
1000
0100
0010
,
0001
0100
1000
0100
,
0110
0010
1000
1001
,
0010
0000
0001
0000
0010
0001
0100
0000
,
0010
0000
1000
0000
0010
1000
0100
0000
,
1000
0001
0100
0000
0001
1000
0100
0000
,
0010
0100
0010
0110
,
0001
0001
0001
1001
,
1000
1000
1000
1001
,
0001
0010
0100
1000
,
1000
0010
0100
0001
,
1000
0001
0100
0001
,
1000
0100
0010
0100
,
1000
0100
1000
0000
0010
0100
0001
0000
,
0010
0100
1000
0000
,
0001
1000
0100
1000
,
0001
0100
0010
0100
,
0001
0100
0001
0000
0010
0100
1000
0000
,
0010
0100
0001
1000
,
0010
1000
0001
0100
,
0001
0010
0001
0000
0100
0000
0010
0000
,
1000
1000
0100
0100
,
0010
0001
1000
0000
,
0010
1000
1010
0101
,
0001
0010
0011
1100
,
0010
0000
1000
0000
0001
1000
0001
1000
,
0002
0000
0000
0000
,
1003
0100
1000
0000
0100
1000
0100
0000
,
1000
0100
1000
0000
0010
0000
1001
0000
,
0001
0100
0001
0000
0100
0001
0100
0000
,
0001
0100
0001
0000
0010
0000
1001
0000
,
0010
1000
0010
0110
,
0100
0010
0100
1001
,
0220
0000
0000
0000
,
0000
0000
0000
0000
,
0000
0000
0000
0000
,
0330
0000
0000
0000
,
0010
1000
0010
1000
,
0001
0100
0001
0100
,
0010
1000
0001
0100
,
0010
0010
0100
0100
,
0001
0010
0001
0010
,
0100
1000
0100
1000
,
0010
1000
0010
1000
0010
0000
0100
0000
,
0001
0100
0001
0100
0001
0000
0100
0000
,
0001
1000
0001
1000
0001
0000
0100
0000
,
0010
0100
0010
0100
0001
1000
0001
1000
,
0002
0000
0000
0000
,
0000
0000
0000
0000
,
0003
0000
0000
0000
,
0000
0000
0000
0000
;
#NOTES:
     dance-single:
     :
     Hard:
     15:
     :
0000
0000
0000
0000
,
0000
0000
0000
0000
,
0000
0000
0000
0000
,
0000
0000
0000
0000
,
0000
0000
0000
0000
,
0001
0000
1000
0000
0010
0100
0000
0001
,
0000
0100
0010
0000
1000
0100
0010
0000
,
0001
1000
0100
1000
0010
0100
0001
1000
,
0100
1000
0010
0100
0000
0001
0100
0001
,
0010
0000
0100
0000
0010
0100
0000
1000
,
0000
0001
0100
0000
0010
1000
0100
0000
,
1000
0100
0010
0001
1000
0001
0100
0000
,
0010
0010
1000
0001
0100
0010
1000
0100
,
0010
0001
0100
0010
1000
0010
0100
0000
,
1100
0101
2002
3003
,
0110
0000
0100
0001
0010
0100
1000
0000
,
0110
1100
0202
0303
,
0020
0000
0130
0001
0010
0100
1000
0100
,
2000
0000
3001
0010
0001
0010
0100
1000
,
0010
0100
0001
1000
0010
1000
0001
0000
,
1010
0101
1002
0013
,
2100
0000
3001
0010
0100
0010
0001
0000
,
1020
0000
0130
0010
1000
0010
0100
0000
,
0201
0000
0310
0100
0010
1000
0001
0000
,
1100
0011
1100
0101
,
0001
0010
0000
0010
0000
0100
1000
0000
,
1000
0100
1000
0001
0100
0001
1000
0010
,
0100
0000
0000
0020
0000
0000
0000
0000
,
0230
0000
0000
0300
,
0010
1000
0010
1000
0100
0000
0100
0000
,
0010
0001
0010
0001
0100
0000
0100
0000
,
1001
0000
0100
0010
1000
0001
0100
0000
,
1100
0101
0220
0330
,
0001
0010
0100
1000
0100
0000
1100
0000
,
1000
0010
0100
0001
0100
0000
0100
0000
,
1002
0000
0010
0000
0100
0100
0000
1000
,
0000
0010
0000
1000
1003
0000
0110
0000
,
1100
0000
0100
1000
0010
0100
0001
0000
,
0101
0000
0001
0010
0100
1000
0100
0000
,
1010
0000
1000
0010
0100
0001
0010
0000
,
0011
1100
1010
0101
,
0110
0000
0100
0001
0010
0000
0110
0000
,
0100
1000
0010
0100
0002
0000
0003
0000
,
1000
0100
1000
0001
0100
0001
1000
0010
,
0100
0001
1000
0001
0200
0000
0300
0000
,
1001
0000
1000
0010
1000
0000
0001
0010
,
0001
0000
1000
0001
0000
0001
1000
0100
,
0010
0001
0010
0001
1000
0100
1000
0100
,
0020
0000
0000
0100
0130
0000
0110
0000
,
1001
0000
0001
0100
0001
0000
1000
0100
,
1000
0000
1000
0001
1000
0100
0010
0001
,
0100
0010
1000
0001
1000
0001
0010
0100
,
0020
1000
0100
0031
,
0001
0010
0001
0010
0100
1000
0100
0010
,
0001
1000
0001
0100
0010
0000
0110
0000
,
0010
1000
0010
1000
0001
0100
0001
1000
,
0000
1000
0010
0100
0000
0002
0000
0013
,
1000
0001
0100
1000
0010
0000
0011
0000
,
1000
0010
0001
1000
0100
0000
0101
0000
,
0210
0000
0000
1000
0000
0000
0001
0000
,
1300
0000
0000
0000
,
1000
0000
0010
0000
1000
0001
0100
0000
,
0001
0000
0010
0000
0001
1000
0100
0000
,
0010
0001
0010
0000
0001
0010
0100
0000
,
0010
0100
0010
0100
0000
1000
0001
0000
,
0010
0001
0010
0001
0000
1000
0100
0000
,
1000
0010
1000
0010
0000
0100
0001
0000
,
0110
0000
0001
0010
0100
0000
0100
1000
,
0010
0100
0001
1000
0100
0010
0001
0000
,
0010
0000
0100
0000
1000
0001
0010
0000
,
0100
0000
0010
0000
0001
1000
0010
0000
,
1000
0010
1000
0000
0001
0010
0001
0000
,
1000
0100
0000
0100
1000
0010
0100
0000
,
0001
0100
1000
0000
1000
0100
0001
0000
,
0001
0010
1000
0000
1000
0010
0001
0000
,
0011
1100
1010
0101
,
0001
0010
0100
1000
0001
0010
0100
1000
,
1001
0000
0001
0100
0001
0000
1000
0100
,
1000
0000
0001
1000
0000
1000
0001
0010
,
0100
1000
0100
1000
0001
0010
0001
0010
,
0200
0000
0000
0010
0310
0000
0110
0000
,
1001
0000
1000
0010
1000
0000
0001
0010
,
0001
0000
0001
1000
0001
0010
0100
1000
,
0010
0100
0001
1000
0001
1000
0100
0010
,
0200
0001
0010
1300
,
1000
0100
1000
0100
0010
0001
0010
0100
,
1000
0001
1000
0010
0000
0010
0100
0001
,
1000
0010
0100
0001
1000
0010
1000
0001
,
0010
0000
0000
1000
0010
0000
1001
0000
,
0001
1000
0100
1000
0100
0000
1100
0000
,
1000
0001
0100
0001
0100
0000
0101
0000
,
0120
0000
0000
0000
0000
0000
0000
0000
0000
0000
0000
0000
0000
0000
0000
0000
0000
0000
0000
0000
0000
0000
0000
0000
0000
0000
0000
0000
0000
0000
0000
0000
0000
0000
0000
0000
0000
0000
0000
0000
0000
0000
0000
0000
0000
0000
0000
0000
0001
0000
0000
0000
0000
0000
0000
0000
0000
0000
0000
0000
0000
0000
0000
0000
0000
0000
0000
0000
0000
0000
0000
0000
0000
0000
0000
0000
0000
0000
0000
0000
0000
0000
0000
0000
0000
0000
0000
0000
0000
0000
0000
0000
0000
0000
0000
0000
1000
0000
0000
0000
0000
0000
0000
0000
0000
0000
0000
0000
0000
0000
0000
0000
0000
0000
0000
0000
0000
0000
0000
0000
0000
0000
0000
0000
0000
0000
0000
0000
0000
0000
0000
0000
0000
0000
0000
0000
0000
0000
0000
0000
0000
0000
0000
0000
0001
0000
0000
0000
0000
0000
0000
0000
0000
0000
0000
0000
0000
0000
0000
0000
0000
0000
0000
0000
0000
0000
0000
0000
0000
0000
0000
0000
0000
0000
0000
0000
0000
0000
0000
0000
0000
0000
0000
0000
0000
0000
0000
0000
0000
0000
0000
0030
,
0200
0000
0000
0000
,
0310
0100
0001
0100
0010
0100
0001
0010
,
0100
1000
0010
0100
0001
0000
1001
0000
,
0100
0010
1000
0010
0100
0010
1000
0010
,
0100
0001
0010
0100
0000
2000
0000
3001
,
0010
1000
0010
0001
0010
0000
1001
0000
,
0100
1000
0100
0001
0100
0000
0110
0000
,
2002
0000
0000
0000
,
0000
0000
0000
0000
,
0000
0000
0000
0000
,
3003
0000
0000
0000
,
0001
0000
1000
0000
0010
0100
0000
0001
,
0000
0100
0010
0000
1000
0100
0010
0000
,
0001
1000
0100
1000
0010
0100
0001
1000
,
0100
1000
0010
0100
0000
0001
0100
0001
,
0010
0000
0100
0000
0010
0100
0000
1000
,
0000
0001
0100
0000
0010
1000
0100
0000
,
1000
0100
0010
0100
0010
0100
1000
0000
,
0001
0100
0010
0100
0010
0100
0001
0000
,
1000
0010
0001
0010
1000
0100
0001
0000
,
0001
0100
1000
0001
0010
1000
0001
1000
,
0002
0000
0000
0000
,
0000
0000
0000
0000
,
0003
0000
0000
0000
,
0000
0000
0000
0000
;
#NOTES:
     dance-single:
     :
     Challenge:
     17:
     :
0000
0000
0000
0000
,
0000
0000
0000
0000
,
0000
0000
0000
0000
,
0000
0000
0000
0000
,
0000
0000
0000
0000
,
0001
0000
1000
0000
0010
0100
0000
0001
,
0000
0100
0010
0000
1000
0100
0010
0000
,
0001
1000
0100
1000
0010
0100
0001
1000
,
0100
1000
0010
0100
0000
0001
0100
0001
,
0010
0000
0100
0000
0010
0100
0000
1000
,
0000
0001
0100
0000
0010
1000
0100
0000
,
1000
0100
0010
0010
0001
1000
0100
0000
,
0010
0010
0001
0001
1000
0100
0100
0100
,
1000
0100
1000
0000
0010
0000
0100
0000
0001
0000
0010
0000
0001
0000
0010
0000
,
0100
0000
1000
0100
0020
0000
0030
0000
,
0001
0000
0100
0000
0010
0000
1000
0000
0010
1000
0010
0000
0100
0000
0001
0000
,
0010
0000
0001
1000
0200
0000
0300
0000
,
1000
0010
1000
0000
0100
0000
0010
0000
0001
0000
0100
0000
0010
0000
1000
0000
,
0001
0100
0001
0000
0010
0000
0100
0000
1000
0000
0010
0000
0100
0000
0010
0000
,
1000
0100
1000
0000
0001
0000
1000
0000
0001
0100
0001
0000
0010
0000
0100
0000
,
1000
0000
0010
0100
0010
0000
1001
0000
,
0001
0100
2000
0000
3001
0010
2000
0000
,
3100
0010
2000
0000
3001
0100
2000
0000
,
3001
0100
2000
0000
3001
0010
1000
0001
,
0100
0100
0010
0010
0100
0100
0001
0000
,
1000
0010
1000
0000
0000
0000
0100
0000
0000
0000
0010
0000
0001
0000
0000
0000
,
1000
0100
1000
0010
0100
0001
0100
0001
,
0010
0000
0000
0200
0000
0000
0000
0000
,
0020
0000
0000
0330
,
0010
0001
0010
0000
0100
0000
0010
0000
0100
0000
0000
0000
0100
0000
0000
0000
,
1000
0010
1000
0000
0010
0000
0100
0000
0010
0000
0000
0000
0010
0000
0000
0000
,
1000
0100
1000
0000
0010
0000
0100
0000
0001
0100
0001
0000
0010
0000
0100
0000
,
0010
0001
1000
0100
0020
0000
0030
0000
,
0001
1000
0001
0000
1000
0000
0100
0000
0010
0000
0001
0000
0100
0000
0000
0000
,
0001
1000
0001
0000
0100
0000
0010
0000
1000
0000
0001
0000
0100
0000
0000
0000
,
0001
0000
1000
0000
0011
1001
0000
1000
,
0000
0001
0000
1010
1001
0000
0110
0000
,
0010
1000
0002
0000
0103
1000
0002
0000
,
0013
1000
0002
0000
0103
1000
0002
0000
,
1003
0100
0002
0000
1003
0100
0002
0000
,
0103
0100
1000
1000
0001
0001
0100
0000
,
0110
0000
0010
1000
0001
0000
1001
0000
,
0001
1000
0100
0010
0002
0000
0003
0000
,
1000
0100
1000
0000
0100
0000
1000
0000
0001
0100
0001
0000
0100
0000
0001
0000
,
0010
0100
1000
0010
0200
0000
0300
0000
,
0010
1000
0010
0010
0100
0001
0010
0010
,
0100
1000
0001
0100
0000
0010
1000
0100
,
1000
0100
1000
0000
0010
0000
0100
0000
0001
0100
0001
0000
0100
0000
0010
0000
,
2000
0000
0000
0001
3001
0000
0110
0000
,
1000
0100
1000
1000
0001
0100
0010
0010
,
1000
0100
1000
0010
0100
0001
0010
0100
,
1000
0100
0001
1000
0010
0001
1000
0010
,
0200
0000
0000
0000
,
0301
0010
0001
0010
0100
1000
0100
1000
,
0010
0100
0001
0010
0100
0000
0110
0000
,
0001
0010
0001
0010
0100
1000
0100
0010
,
0000
0001
1000
0100
0000
2000
0000
3010
,
1000
0010
1000
0000
0100
0000
1000
0000
0001
0000
0000
0000
1001
0000
0000
0000
,
0001
0010
0001
0000
0100
0000
0010
0000
1000
0000
0000
0000
0001
0000
0010
0000
,
0200
0000
0000
0000
,
0300
0000
0000
0000
,
0010
0000
1000
0000
0001
0000
0000
0000
0010
0001
0010
0000
0100
0000
1000
0000
,
0010
0000
1000
0000
0001
0000
0000
0000
0001
0010
0001
0000
0100
0000
0010
0000
,
1000
0010
1000
0000
0001
0100
0001
0000
,
0010
0100
0010
0000
0100
0000
1000
0000
0001
0000
0100
0000
0010
0000
0000
0000
,
0010
1000
0010
1000
0100
0000
1001
0000
,
0010
0001
0010
0001
0100
0000
1001
0000
,
0110
0000
1000
0010
0001
0000
1000
0100
,
0001
0001
0010
0100
0100
0010
0001
0000
,
1000
0010
0100
0000
0001
1000
0100
0000
,
1000
0001
0100
0000
0001
0100
0010
0000
,
1000
0100
1000
0000
0100
0000
0010
0000
0001
0100
0001
0000
0010
0000
0100
0000
,
1000
0001
1000
0000
0000
0000
0010
0000
0100
0000
0001
0000
0010
0000
0100
0000
,
2000
0000
3001
0010
2000
0000
3001
0100
,
0002
0000
1003
0010
0002
0000
1003
0100
,
0110
0011
1100
1001
,
0100
0000
0010
0000
0001
0000
1000
0000
0010
0100
0010
0000
1000
0000
0001
0000
,
0100
0001
0100
0100
0010
1000
0100
0100
,
0010
0001
1000
0010
0000
0100
0001
0010
,
0001
0010
0001
0000
0100
0000
0010
0000
1000
0010
1000
0000
0010
0000
0100
0000
,
0002
0000
0000
1000
1003
0000
0110
0000
,
0001
0010
0001
0001
1000
0010
0100
0100
,
0001
0010
0001
0100
0010
1000
0100
0010
,
0001
0010
1000
0001
0100
1000
0001
0100
,
0020
0000
0000
0000
,
1030
0100
1000
0100
0010
0001
0010
0001
,
0100
0010
1000
0100
0000
1000
0100
1000
,
0100
1000
0100
0000
0010
0000
0001
0000
0100
0010
0100
0000
0010
0000
0100
0000
,
0020
0000
0000
0100
0130
0000
1001
0000
,
0001
0010
0001
0010
0011
0000
1100
0000
,
1000
0001
0100
0010
1000
0100
0010
0001
,
1000
1000
0001
0001
0100
0010
0100
0010
,
0200
0000
0000
0000
,
0310
1000
0010
0000
1000
0000
0010
0000
1000
0010
1000
0000
0010
0000
1000
0000
,
0010
0100
0001
0010
0100
0000
1001
0000
,
0100
0010
0100
0000
0001
0000
0100
0000
0001
0010
0001
0000
0100
0000
0001
0000
,
0010
0100
1000
0001
0000
2000
0000
3001
,
1000
0001
1000
0000
0001
1000
0001
0000
1000
0000
0000
0000
0001
0000
0000
0000
,
0001
1000
0001
0000
1000
0001
1000
0000
0001
0000
0000
0000
1000
0000
0000
0000
,
2002
0000
0000
0000
,
0000
0000
0000
0000
,
0000
0000
0000
0000
,
3003
0000
0000
0000
,
1000
0000
0001
0000
0100
0010
0000
1000
,
0000
0010
0100
0000
0001
0010
0100
0000
,
1000
0001
0010
0001
0100
0010
1000
0001
,
0010
0001
0100
0010
0000
1000
0010
1000
,
0100
0000
0010
0000
0100
0010
0000
0001
,
0000
1000
0010
0000
0100
0001
0010
0000
,
0001
0010
0001
0000
0010
0000
0001
0000
0010
0001
0010
0000
0100
0000
0000
0000
,
1000
0010
1000
0000
0010
0000
1000
0000
0010
1000
0010
0000
0100
0000
0000
0000
,
0010
0100
0010
0000
0100
0000
0010
0000
0100
0010
0100
0000
0010
0000
0000
0000
,
1000
0001
1000
0000
0001
0000
1000
0000
0001
1000
0001
0000
1000
0000
0000
0000
,
0200
0000
0000
0000
,
0000
0000
0000
0000
,
0300
0000
0000
0000
,
0000
0000
0000
0000
;
#NOTES:
     dance-double:
     :
     Easy:
     8:
     :
00000000
00000000
00000000
00000000
,
00000000
00000000
00000000
00000000
,
00000000
00000000
00000000
00000000
,
00000000
00000000
00000000
00000000
,
00000000
00000000
00000000
00000000
,
10000000
00000000
00100000
00000000
,
01000000
00001000
00010000
00000000
,
00001000
00010000
00000100
00000000
,
00000010
00000000
00000001
00000000
,
00000100
00000000
00000010
00000000
,
00001000
00000100
00010000
00000000
,
00001000
01000000
00100000
00000000
,
20020000
00000000
00000000
30030000
,
00200000
00000000
00001000
00000000
,
00001000
00001000
00301000
00000000
,
00000200
00000000
00010000
00000000
,
00010000
00010000
00010300
00000000
,
00000100
00000000
00001001
00000000
,
00000010
00000000
00011000
00000000
,
00001000
00000000
00100000
00000000
,
00010000
10000000
00100000
00000000
,
02000000
00000000
03100000
00000000
,
00020000
00000000
00031000
00000000
,
00000200
00000000
00000310
00000000
,
00000001
00001000
00000100
00010000
,
00002000
00000000
00013000
00000000
,
00200000
00000000
01300000
00000000
,
20020000
00000000
00000000
00000000
,
30030000
00000000
00000000
00000000
,
00010000
00000000
00100000
00000000
,
00001000
00010000
00001000
00000000
,
00010000
00000000
00000100
00000000
,
00000010
00000100
00000020
00000030
,
00000001
00000000
00000001
00000000
,
00001000
00000000
00001000
00000000
,
00000200
00000000
00000000
00000000
,
00000000
00000000
00010300
00001000
,
00100000
00000000
10010000
00000000
,
01000000
00000000
00011000
00000000
,
00001000
00000000
00001100
00000000
,
00000001
00000100
00000010
00001000
,
00000200
00000000
00010300
00000000
,
00002000
00000000
00103000
00000000
,
00010000
00000000
10000000
00000000
,
01000000
01000000
02000000
03000000
,
00100000
00000000
00100000
00000000
,
00001000
00000000
00001000
00000000
,
00010000
00000000
00001000
00000000
,
00000010
00000001
00001000
00000000
,
00000001
00000000
00000100
00000000
,
00000010
00001000
00000100
00000000
,
00010000
00001000
00010000
00100000
,
20000000
00000000
00000000
30000000
,
00010000
00000000
00100000
00000000
,
00001000
00010000
00001000
00000000
,
00000100
00000000
00000010
00000000
,
00001000
00000001
00001000
00000000
,
00000020
00000000
00001000
00001030
,
00000200
00000000
00010000
00010300
,
00022000
00000000
00000000
00000000
,
00033000
00000000
00000000
00000000
,
00001000
00000000
00010000
00000000
,
00001000
00000000
00010000
00000000
,
00001000
00000000
00000100
00000000
,
00000010
00000100
00000010
00000000
,
00001000
00000000
00010000
00000000
,
00001000
00000000
00010000
00000000
,
00100000
00000000
01000000
00000000
,
01100000
00000000
10010000
00000000
,
10000000
00000000
00010000
00000000
,
10000000
00000000
00010000
00000000
,
00100000
00000000
00001000
00000000
,
00010000
00000100
00000010
00000001
,
00001000
00000000
00010100
00000000
,
00001000
00000000
00101000
00000000
,
00002000
00000000
00000000
00000000
,
00023000
00000000
00000000
00000000
,
00030010
00000000
00000010
00000000
,
00010000
00000000
00010000
00000000
,
00001000
00000000
00010000
00000000
,
00100000
10000000
00010000
00000000
,
10000000
00000000
01000000
00000000
,
00100000
00010000
01000000
00000000
,
00001000
00010000
00001000
00000010
,
00000002
00000000
00000000
00000003
,
00001000
00000000
00000010
00000000
,
00010000
00001000
00010000
00000000
,
01000000
00000000
00100000
00000000
,
00010000
10000000
00010000
00000000
,
00200000
00000000
00010000
00310000
,
02000000
00000000
00001000
03001000
,
00022000
00000000
00000000
00000000
,
00033000
00000000
00000000
00000000
,
00001000
00010000
00001000
00010000
,
00000100
00000010
00000001
00000000
,
00000100
00000001
00000100
00000001
,
00001000
00000010
00010000
00000000
,
00011000
00000000
00001000
01000000
,
01001000
00000000
00100000
01000000
,
02200000
00000000
00000000
00000000
,
00000000
00000000
00000000
00000000
,
00000000
00000000
00000000
00000000
,
03300000
00000000
00000000
00000000
,
10000000
00000000
00100000
00000000
,
01000000
00001000
00010000
00000000
,
00001000
00010000
00000100
00000000
,
00000010
00000000
00000001
00000000
,
00000100
00000000
00000010
00000000
,
00001000
00000100
00010000
00000000
,
00001000
01000000
00100000
00000000
,
01000000
00001000
00100000
00000000
,
00001000
00010000
00000100
00000000
,
00000010
00000001
00001000
00000100
,
00000020
00000000
00000000
00000000
,
00000000
00000000
00000000
00000000
,
00000030
00000000
00000000
00000000
,
00000000
00000000
00000000
00000000
;
#NOTES:
     dance-double:
     :
     Medium:
     13:
     :
00000000
00000000
00000000
00000000
,
00000000
00000000
00000000
00000000
,
00000000
00000000
00000000
00000000
,
00000000
00000000
00000000
00000000
,
00000000
00000000
00000000
00000000
,
00000001
00000010
00000001
00000010
,
00000100
00001000
00000100
00001000
,
00000100
00010000
00001000
00100000
,
00010000
01000000
00100000
10000000
,
01000000
10000000
01000000
10000000
,
00010000
00100000
00010000
00100000
,
00001000
00000100
00000001
00000010
,
00002002
00000000
00000000
00003003
,
00000001
00000010
00000001
00000000
00000100
00000000
00000010
00000000
,
00001000
00000100
00010000
00000000
00022000
00000000
00033000
00000000
,
00010000
00000000
01000000
00000000
10000000
00010000
00100000
00000000
,
01100000
00110000
00022000
00033000
,
00001000
00000000
00100000
00000000
00010000
01000000
00100000
00000000
,
10000000
00000000
01000000
00000000
00100000
00001000
00010000
00000000
,
00001000
00000010
00000001
00000100
,
00000110
00001100
00022000
00033000
,
00001000
00000000
00100000
00000000
00010000
01000000
00100000
00000000
,
01000000
00000000
00010000
00000000
00100000
00001000
00010000
00000000
,
00000100
00010000
00001000
00100000
,
00011000
00001010
00011000
00110000
,
00001000
00100000
00010000
01000000
,
00100000
10000000
01000000
00100000
,
00001000
00000000
00000000
00020000
00000000
00000000
00000000
00000000
,
00032000
00000000
00000000
00003000
,
00001000
00001000
00010000
00010000
,
00001000
00000100
00000001
00000000
00000010
00000000
00000010
00000000
,
00000001
00000100
00001000
00000000
00010000
00000000
00001000
00000000
,
00011000
00110000
02200000
03300000
,
00100000
00000000
00100000
00000000
00010000
10000000
01000000
00000000
,
00100000
00000000
00010000
00000000
00100000
00001000
00010000
00000000
,
00001000
00000000
00100000
00000000
00001000
00010000
00000000
00000010
,
00000000
00010000
00000000
00001000
00100000
00000000
00011000
00000000
,
00001000
00100000
00010000
01000000
,
00100000
10000000
01000000
00010000
,
00001000
00000100
00000010
00001000
,
00000011
00000110
00001100
00011000
,
00001000
00100000
00010000
00010000
,
10000000
00010000
00200000
00300000
,
00001000
00010000
00001000
00000000
00000100
00000010
00000100
00000000
,
00000001
00000010
00000001
00000000
00000220
00000000
00000330
00000000
,
00000001
00000010
00001000
00010000
,
00000100
00000000
00010000
00001000
00000000
00001000
00010000
00000000
,
00001000
00100000
00010000
10000000
,
00110000
00011000
00001010
00000000
,
00000010
00001000
00100000
10000000
,
01000000
00000000
00100000
00001000
00010000
00001000
00100000
00000000
,
00001000
00000100
00000001
00000010
,
00000200
00000000
00000000
00000300
,
00000010
00000001
00001000
00000100
,
00010100
00011000
01010000
00000000
,
00010000
00100000
01000000
10000000
,
00100000
00000000
01000000
00000000
00000000
10010000
00000000
00000000
,
00100000
00001000
00100000
00101000
,
00000010
00001000
00000010
00010010
,
00001000
00000000
00000000
00010000
00000000
00000000
00001000
00000000
,
00011000
00000000
00000000
00000000
,
00001000
00000100
00001000
00001100
,
00010000
00001000
00010000
00011000
,
00001000
01000000
00010000
00000000
10000000
00010000
01000000
00000000
,
00100000
10000000
00010000
01100000
,
00010000
00010000
00100000
00101000
,
00010000
00010000
00000100
00010100
,
00000010
00000001
00000100
00001000
,
00010000
01000000
10000000
01100000
,
00010000
00000000
10000000
00000000
00100000
10000000
01000000
00000000
,
00100000
00000000
01000000
00000000
00100000
00001000
00010000
00000000
,
00001000
00010000
00000100
00000000
00001000
00000010
00000100
00000000
,
00000001
00000100
00000010
00000110
,
00001000
00010000
01000000
01100000
,
00100000
00001000
00000100
00000110
,
00000001
00000100
00000010
00001000
,
00010000
01000000
00100000
10000000
,
10000000
00100000
00010000
00001000
,
01000000
00000000
00001000
00010000
00000000
00010000
00001000
00000000
,
00010000
00000010
00001000
00000001
,
00001010
00011000
00110000
00000000
,
00100000
00010000
00000010
00000001
,
00000100
00000000
00000010
00010000
00001000
00010000
00000010
00000000
,
00010000
01000000
10000000
00100000
,
02000000
00000000
00000000
03000000
,
00100000
10000000
01000000
00010000
,
00001000
00010000
00001000
00010000
00000000
00010000
00001000
00000000
,
00000010
00000001
00000100
00000010
,
00001000
00000000
00000000
00000100
00000000
00000000
00000000
00000000
,
00001000
00000100
00010000
00011000
,
00001000
00100000
00010000
00110000
,
10000000
00000000
00100000
00000000
01000000
00100000
01000000
00100000
,
02000000
00000000
00000000
00000000
,
03100000
10000000
01000000
00000000
00100000
00010000
01000000
00000000
,
00100000
00010000
00001000
00000000
00010000
00000000
00011000
00000000
,
00000010
00000001
00000100
00000000
00000010
00001000
00000100
00000000
,
00000010
00001000
00010000
00000000
00001000
00000000
00011000
00000000
,
00100000
00010000
00110000
00011000
,
00001000
00000100
00001100
00000110
,
00002002
00000000
00000000
00000000
,
00000000
00000000
00000000
00000000
,
00000000
00000000
00000000
00000000
,
00003003
00000000
00000000
00000000
,
00000001
00000010
00000001
00000010
,
00000100
00001000
00000100
00001000
,
00000100
00010000
00001000
00100000
,
00010000
01000000
00100000
10000000
,
01000000
10000000
01000000
10000000
,
00010000
00100000
00010000
00100000
,
00001000
00010000
00001000
00010000
00000100
00000000
00000010
00000000
,
00000001
00000100
00000001
00000100
00000010
00000000
00001000
00000000
,
00000100
00010000
00000100
00010000
00001000
00000000
00100000
00000000
,
00010000
00100000
00010000
00100000
01000000
10000000
01000000
10000000
,
02000000
00000000
00000000
00000000
,
00000000
00000000
00000000
00000000
,
03000000
00000000
00000000
00000000
,
00000000
00000000
00000000
00000000
;
#NOTES:
     dance-double:
     :
     Hard:
     16:
     :
00000000
00000000
00000000
00000000
,
00000000
00000000
00000000
00000000
,
00000000
00000000
00000000
00000000
,
00000000
00000000
00000000
00000000
,
00000000
00000000
00000000
00000000
,
00000001
00000000
00000100
00000000
00000010
00001000
00000000
00000100
,
00000000
00010000
00001000
00000000
00010000
00001000
00100000
00000000
,
00010000
00100000
00010000
01000000
00001000
01000000
00100000
10000000
,
01000000
00100000
00010000
01000000
00000000
00010000
00100000
00010000
,
00001000
00000000
00000100
00000000
00001000
00000001
00000000
00000010
,
00000000
00000100
00000010
00000000
00000001
00001000
00000100
00000000
,
00010000
00001000
00000100
00000001
00000010
00000100
00000010
00000000
,
00000001
00000010
00000100
00001000
00010000
00100000
01000000
10000000
,
00100000
01000000
00010000
00100000
00010000
01000000
00100000
00000000
,
11000000
00110000
00022000
00033000
,
00110000
00000000
00001000
00010000
00001000
00000100
00000001
00000000
,
00000011
00000110
00002200
00003300
,
00000101
00000000
00000001
00000010
00000100
00000000
00001000
00000100
,
00010000
00000000
00001000
00100000
00010000
00000000
00100000
00001000
,
01000000
00100000
10000000
01000000
00100000
00001000
00010000
00000000
,
00110000
11000000
10010000
00011000
,
00020000
00000000
00000000
00031000
00010000
00100000
00010000
00001000
,
00000200
00000000
00000000
00001300
00000100
00001000
00010000
00001000
,
00200000
00000000
00000000
00310000
01000000
00100000
10000000
00000000
,
10010000
00110000
11000000
01100000
,
01000000
10000000
00000000
00100000
00000000
00010000
00001000
00000000
,
00010000
00000100
00001000
00000010
00000100
00000001
00000010
00000100
,
00001000
00000000
00000000
00000200
00000000
00000000
00000000
00000000
,
00020300
00000000
00000000
00030000
,
00001000
00010000
00001000
00010000
01000000
00000000
01100000
00000000
,
00010000
00001000
00010000
00001000
00000010
00000000
00000110
00000000
,
00000001
00000000
00000100
00000010
00001000
00000100
00010000
00000000
,
00011000
00110000
22000000
33000000
,
00010000
00100000
00010000
00100000
00001000
00000000
00011000
00000000
,
00010000
00000100
00010000
00000100
00001000
00000000
00000110
00000000
,
00000001
00000000
00000010
00000000
00001000
00010000
00000000
00100000
,
00000000
10000000
00000000
01000000
00100000
00000000
01100000
00000000
,
20000000
00000000
00000000
30010000
00100000
00001000
00010000
00001000
,
00020000
00000000
00000000
00031000
00000100
00000001
00000010
00000100
,
00000020
00000000
00000000
00000031
00000100
00000010
00001000
00000000
,
00001010
00001100
00011000
00110000
,
01100000
00000000
01000000
10000000
00010000
00000000
10010000
00000000
,
01000000
00010000
00100000
00001000
00020000
00000000
00030000
00000000
,
00001000
00010000
00001000
00010000
00001000
00000100
00001000
00000100
,
00000001
00000100
00000001
00000100
00000020
00000000
00000030
00000000
,
00000110
00000000
00000001
00000010
00001000
00000000
00010000
00100000
,
10000000
00000000
10000000
01000000
00000000
10000000
01000000
00100000
,
00010000
00100000
00010000
00001000
00000100
00001000
00000100
00000010
,
00000001
00000000
00001000
00000001
00000200
00000000
00000310
00000000
,
00001001
00000000
00000001
00000010
00000100
00000000
00000100
00010000
,
00001000
00000000
00001000
00010000
01000000
10000000
00100000
10000000
,
00100000
01000000
00010000
00100000
00001000
00100000
00001000
00010000
,
00002000
00003200
00000302
00000023
,
00000031
00000010
00000001
00000100
00001000
00010000
01000000
10000000
,
00100000
10000000
01000000
00100000
00010000
00000000
00110000
00000000
,
10000000
00100000
10000000
01000000
00010000
00001000
00000100
00000001
,
00000010
00000001
00000100
00000010
00000000
00000200
00000000
00000310
,
00001000
00000100
00010000
00001000
00010000
00000000
00011000
00000000
,
00001000
00010000
01000000
10000000
01000000
00000000
01100000
00000000
,
11000000
00000000
00000000
00110000
00000000
00000000
00011000
00000000
,
00001100
00000000
00000000
00000000
,
00010000
00000000
00001000
00000000
00010000
00000100
00000010
00000000
,
00000001
00000000
00000100
00000000
00000001
00000100
00001000
00000000
,
00010000
00001000
00100000
00000000
01000000
10000000
00100000
00000000
,
01000000
00010000
00100000
00001000
00000000
00010000
00001000
00000000
,
00001000
00000100
00000001
00000010
00000000
00000100
00001000
00000000
,
00000100
00001000
00000100
00010000
00000000
01000000
00100000
00000000
,
11000000
00000000
10000000
01000000
00010000
00000000
00001000
00000100
,
00000001
00000010
00000100
00001000
00000100
00000010
00000001
00000000
,
00000001
00000010
00001000
00000000
00010000
00100000
10000000
00000000
,
10000000
01000000
00010000
00000000
00001000
00000100
00000001
00000000
,
00000010
00000001
00000100
00000000
00000010
00010000
00001000
00000000
,
00010000
00000100
00000000
00010000
01000000
10000000
00100000
00000000
,
20000000
32000000
03020000
00032000
,
00003020
00002030
00023000
00130000
,
10100000
01010000
00110000
00011000
,
00000100
00010000
00001000
00100000
00010000
01000000
00100000
10000000
,
00100000
00000000
10000000
00100000
00010000
00000000
00001000
00000010
,
00000001
00000000
00000001
00000100
00000000
00000001
00000100
00000010
,
00001000
00000010
00001000
00010000
01000000
00010000
01000000
00100000
,
10000000
00000000
00010000
10000000
02000000
00000000
03100000
00000000
,
10010000
00000000
10000000
00100000
01000000
00000000
01000000
00001000
,
00010000
00000000
00010000
00001000
00000100
00000001
00000010
00000001
,
00000010
00000100
00001000
00000010
00010000
00000010
00010000
00001000
,
00020000
02030000
23000000
30200000
,
10300000
00100000
10000000
01000000
00010000
00001000
00000100
00000001
,
00000010
00000001
00000100
00000010
00000000
00000010
00001000
00000100
,
00010000
00001000
00100000
00010000
01000000
00010000
10000000
01000000
,
00200000
00000000
00000000
02300000
00000000
00000000
00000000
00000000
,
03100000
01000000
00010000
00001000
00010000
00000000
00011000
00000000
,
00010000
00001000
00000100
00000001
00000000
00000001
00000010
00000100
,
00001000
00000100
00001000
00000100
00010000
00001000
00010000
00001000
,
02000000
00000000
00000000
00000000
,
03010000
01000000
00100000
01000000
00001000
00010000
00000010
00001000
,
00000001
00001000
00000100
00000010
00000001
00000000
00001001
00000000
,
00001000
00000100
00000010
00000100
00010000
00001000
00100000
00010000
,
10000000
00010000
01000000
00100000
00000000
01100000
00000000
00010000
,
10000000
01000000
00010000
00001000
00010000
00000000
00011000
00000000
,
00010000
00001000
00000010
00000001
00001000
00000000
00000110
00000000
,
00002002
00000000
00000000
00000000
,
00000000
00000000
00000000
00000000
,
00000000
00000000
00000000
00000000
,
00003003
00000000
00000000
00000000
,
00000001
00000000
00000100
00000000
00000010
00001000
00000000
00000100
,
00000000
00010000
00001000
00000000
00010000
00001000
00100000
00000000
,
00010000
00100000
00010000
01000000
00001000
01000000
00100000
10000000
,
01000000
00100000
00010000
01000000
00000000
00010000
00100000
00010000
,
00001000
00000000
00000100
00000000
00001000
00000001
00000000
00000010
,
00000000
00000100
00000010
00000000
00000001
00001000
00000100
00000000
,
00001000
00000100
00001000
00000100
00010000
00001000
00010000
00000000
,
00001000
00010000
00001000
00100000
00010000
00100000
00010000
00000000
,
10000000
00100000
10000000
00100000
01000000
00010000
00100000
00000000
,
00001000
00010000
00001000
00010000
00000100
00001000
00000100
00001000
,
00000020
00000000
00000000
00000000
,
00000000
00000000
00000000
00000000
,
00000030
00000000
00000000
00000000
,
00000000
00000000
00000000
00000000
;
#NOTES:
     dance-double:
     :
     Challenge:
     17:
     :
00000000
00000000
00000000
00000000
,
00000000
00000000
00000000
00000000
,
00000000
00000000
00000000
00000000
,
00000000
00000000
00000000
00000000
,
00000000
00000000
00000000
00000000
,
00000001
00000000
00000100
00000000
00000010
00001000
00000000
00000100
,
00000000
00010000
00001000
00000000
00010000
00001000
00100000
00000000
,
00010000
00100000
00010000
01000000
00001000
01000000
00100000
10000000
,
01000000
00100000
00010000
01000000
00000000
00010000
00100000
00010000
,
00001000
00000000
00000100
00000000
00001000
00000001
00000000
00000010
,
00000000
00000100
00000010
00000000
00000001
00001000
00000100
00000000
,
00010000
00001000
00000100
00000001
00000010
00000100
00000010
00000000
,
00000001
00000001
00000010
00000010
00000100
00001000
00000100
00010000
,
00001000
00010000
00001000
00000000
00010000
00000000
01000000
00000000
00100000
00000000
10000000
00000000
00100000
00000000
00010000
00000000
,
01000000
00000000
00100000
10000000
02000000
00000000
03000000
00000000
,
10000000
00000000
01000000
00000000
00100000
00000000
00001000
00000000
00010000
00001000
00010000
00000000
00001000
00000000
00000100
00000000
,
00000010
00000000
00001000
00000001
00000200
00000000
00000300
00000000
,
00000001
00000010
00000001
00000000
00000100
00000000
00000010
00000000
00001000
00000000
00000100
00000000
00001000
00000000
00000100
00000000
,
00010000
00001000
00010000
00000000
00001000
00000000
00100000
00000000
00010000
00000000
01000000
00000000
00100000
00000000
10000000
00000000
,
01000000
10000000
01000000
00000000
00100000
00000000
00010000
00000000
01000000
00100000
01000000
00000000
00100000
00000000
10000000
00000000
,
01000000
00000000
00010000
00001000
00000100
00000000
00000110
00000000
,
00000001
00000100
00002000
00000000
00003001
00000010
00002000
00000000
,
00003100
00001000
00020000
00000000
00030010
00001000
00020000
00000000
,
00031000
00010000
02000000
00000000
03001000
00010000
00200000
00000000
,
00310000
00010000
01000000
01000000
00100000
10000000
00010000
00000000
,
10000000
00100000
10000000
00000000
00000000
00000000
01000000
00000000
00000000
00000000
00010000
00000000
00001000
00000000
00000000
00000000
,
00010000
00001000
00010000
00000100
00001000
00000010
00000001
00000010
,
00000100
00000000
00000000
00000020
00000000
00000000
00000000
00000000
,
00000200
00000000
00000000
00000330
,
00000010
00000100
00000010
00000000
00001000
00000000
00000100
00000000
00000010
00000000
00000000
00000000
00001100
00000000
00000000
00000000
,
00010000
00001000
00010000
00000000
00001000
00000000
00100000
00000000
00010000
00000000
00000000
00000000
00110000
00000000
00000000
00000000
,
10000000
00100000
10000000
00000000
00100000
00000000
01000000
00000000
00010000
00100000
00010000
00000000
00100000
00000000
00010000
00000000
,
00001000
00000100
00000010
00000001
00000200
00000000
00000300
00000000
,
00000001
00001000
00000001
00000000
00000100
00000000
00000010
00000000
00001000
00000000
00000100
00000000
00010000
00000000
00000000
00000000
,
00001000
00010000
00001000
00000000
00010000
00000000
00100000
00000000
10000000
00000000
01000000
00000000
00100000
00000000
00000000
00000000
,
00010000
00000000
00100000
00000000
00001000
00010000
00000000
00001000
,
00000000
00010000
00000000
00011000
00101000
00000000
01100000
00000000
,
10000000
00100000
00020000
00000000
10030000
01000000
00020000
00000000
,
00130000
00010000
00002000
00000000
01003000
00010000
00002000
00000000
,
00013000
00001000
00000020
00000000
00010030
00001000
00000200
00000000
,
00000310
00000010
00000001
00000001
00000100
00000010
00000100
00000000
,
00000110
00000000
00000010
00010000
00001000
00000000
00011000
00000000
,
00010000
01000000
00100000
00010000
20000000
00000000
30000000
00000000
,
00010000
01000000
00010000
00000000
00100000
00000000
00001000
00010000
00001000
00000000
00010000
00000000
00001000
00000000
00000100
00000000
,
00000001
00000010
00000100
00000010
00000002
00000000
00000003
00000000
,
00000001
00000010
00000001
00000001
00000100
00000010
00001000
00001000
,
00000100
00010000
00001000
00010000
00000000
00001000
00010000
01000000
,
10000000
01000000
10000000
00000000
00100000
00000000
01000000
00000000
00001000
00010000
00001000
00000000
00000100
00000000
00000010
00000000
,
00002000
00000000
00000000
00000001
00003001
00000000
00000011
00000000
,
00000001
00000010
00000100
00000100
00001000
00000100
00010000
00010000
,
00001000
01000000
00100000
10000000
01000000
00010000
00001000
00000100
,
00001000
00010000
00001000
00000100
00000010
00001000
00000001
00000100
,
00000020
00000000
00000000
00000000
,
00001030
00000010
00001000
00000010
00010000
00001000
00010000
00001000
,
00010000
00100000
01000000
00010000
10000000
00000000
01100000
00000000
,
00010000
00100000
00010000
00100000
00001000
01000000
00001000
01000000
,
00000000
00001000
00010000
00000100
00000000
00000020
00000000
00000031
,
00000010
00000001
00000010
00000000
00000100
00000000
00001000
00000000
00000100
00000000
00000000
00000000
00001100
00000000
00000000
00000000
,
00010000
00000100
00010000
00000000
00001000
00000000
00010000
00000000
01000000
00000000
00000000
00000000
00100000
00000000
00010000
00000000
,
02000000
00000000
00000000
00000000
,
03000000
00000000
00000000
00000000
,
10000000
00100000
00010000
00001000
00010000
00000010
00000100
00000000
,
00000001
00000010
00001000
00000010
00000100
00001000
00000001
00000000
,
00000100
00000010
00000100
00000000
00000010
00000000
00001000
00000000
00000100
00010000
00000100
00000000
00010000
00000000
00001000
00000000
,
01000000
00010000
01000000
00000000
00100000
00000000
10000000
00000000
00000000
00000000
01000000
00000000
00100000
00000000
00001000
00000000
,
00100000
00001000
00100000
00010000
01000000
00000000
00011000
00000000
,
00000010
00010000
00000010
00001000
00000100
00000000
00001010
00000000
,
00000100
00000000
00000001
00000100
00001000
00000000
00010000
01000000
,
10000000
00100000
00010000
00100000
01000000
10000000
01000000
00000000
,
00100000
10000000
01000000
00000000
00100000
00001000
01000000
00000000
,
00001000
00010000
00000100
00000000
00000010
00000001
00000100
00000000
,
00000001
00000100
00000001
00000000
00000010
00000000
00000100
00000000
00010000
00000100
00010000
00000000
00001000
00000000
00010000
00000000
,
00001000
00100000
00001000
00000000
00100000
00000000
01000000
00000000
00100000
00000000
00010000
00000000
00100000
00000000
01000000
00000000
,
20000000
00000000
30010000
00100000
20000000
00000000
30010000
01000000
,
00200000
00000000
00310000
00001000
00000200
00000000
00000310
00000001
,
00000011
00001100
00011000
00110000
,
10000000
01000000
00100000
00010000
10000000
00010000
01000000
00100000
,
10000000
01000000
10000000
10000000
00100000
01000000
00010000
00010000
,
00100000
00001000
00010000
00001000
00000000
00010000
00001000
00000010
,
00000001
00000010
00000001
00000000
00000100
00000000
00000010
00000000
00010000
00001000
00010000
00000000
00100000
00000000
01000000
00000000
,
00020000
00000000
00000000
10000000
10030000
00000000
11000000
00000000
,
10000000
01000000
00100000
00100000
00010000
00100000
00001000
00001000
,
00010000
00000010
00000100
00000001
00000010
00001000
00010000
00100000
,
00010000
00001000
00010000
00100000
01000000
00010000
10000000
00100000
,
02000000
00000000
00000000
00000000
,
03010000
01000000
00010000
01000000
00001000
00010000
00001000
00010000
,
00001000
00000100
00000010
00001000
00000000
00000001
00000010
00000100
,
00001000
00000100
00001000
00000100
00010000
00000010
00010000
00000010
,
00001000
00000000
00000100
00010000
00001000
00000000
00110000
00000000
,
01000000
10000000
01000000
00000000
00100000
00000000
00010000
00000000
01000000
00000000
00000000
00000000
00110000
00000000
00000000
00000000
,
00001000
00100000
00001000
00000000
00010000
00000000
00001000
00000000
00000010
00000000
00000001
00000000
00000100
00000000
00001000
00000000
,
00010000
00001000
00000100
00001000
00010000
01000000
10000000
00010000
,
00200000
00000000
00000000
00000000
,
00310000
00100000
00010000
00000000
01000000
00000000
00010000
00000000
00100000
00001000
00100000
00000000
00001000
00000000
00010000
00000000
,
00000100
00000010
00000001
00001000
00000100
00000000
00001001
00000000
,
00000010
00000100
00000010
00000000
00001000
00000000
00000100
00000000
00010000
00001000
00010000
00000000
00001000
00000000
00100000
00000000
,
00010000
01000000
00100000
10000000
00000000
00020000
00000000
10030000
,
00010000
00100000
00010000
00000000
00100000
00010000
00100000
00000000
00010000
00000000
00000000
00000000
01000000
00000000
00000000
00000000
,
00001000
00010000
00001000
00000000
00010000
00001000
00010000
00000000
00000100
00000000
00000000
00000000
00000010
00000000
00000000
00000000
,
00000220
00000000
00000000
00000000
,
00000000
00000000
00000000
00000000
,
00000000
00000000
00000000
00000000
,
00000330
00000000
00000000
00000000
,
00000001
00000000
00000100
00000000
00000010
00001000
00000000
00000100
,
00000000
00010000
00001000
00000000
00010000
00001000
00100000
00000000
,
00010000
00100000
00010000
01000000
00001000
01000000
00100000
10000000
,
01000000
00100000
00010000
01000000
00000000
00010000
00100000
00010000
,
00001000
00000000
00000100
00000000
00001000
00000001
00000000
00000010
,
00000000
00000100
00000010
00000000
00000001
00001000
00000100
00000000
,
00001000
00000100
00010000
00000000
00001000
00000000
00010000
00000000
00001000
00010000
00001000
00000000
00010000
00000000
00000000
00000000
,
00001000
00010000
00001000
00000000
00010000
00000000
00001000
00000000
00010000
00000100
00001000
00000000
00000100
00000000
00000000
00000000
,
00001000
00000100
00001000
00000000
00000100
00000000
00000010
00000000
00000100
00000010
00000100
00000000
00000010
00000000
00000000
00000000
,
00000001
00001000
00000100
00000000
00000010
00000000
00000001
00000000
00001000
00000001
00000100
00000000
00000010
00000000
00000000
00000000
,
00000200
00000000
00000000
00000000
,
00000000
00000000
00000000
00000000
,
00000300
00000000
00000000
00000000
,
00000000
00000000
00000000
00000000
;
