
//----- song ID: kapa -----//
#TITLE:革命パッショネイト;
#ARTIST:日向美ビタースイーツ♪;
#TITLETRANSLIT:Kakumei passionate;
#ARTISTTRANSLIT:Hinatabi Bitter Sweets♪;
#BANNER:Kakumei passionate.png;
#BACKGROUND:Kakumei passionate-bg.png;
#CDTITLE:./CDTitles/DDR A20.png;
#MUSIC:Kakumei passionate.ogg;
#SAMPLESTART:57.366;
#SAMPLELENGTH:15;
#BPMS:0=194;
#NOTES:
     dance-single:
     :
     Beginner:
     3:
     :
0000
0000
0000
0000
,
0000
0000
0000
0000
,
0000
0000
0000
0000
,
0000
0000
0000
0000
,
0000
0000
0000
0000
,
0001
0000
0000
0000
,
0001
0000
0000
0000
,
0100
0000
0000
0000
,
0100
0000
0000
0000
,
0001
0000
0000
0000
,
0001
0000
0000
0000
,
0010
0000
0000
0000
,
0010
0000
0000
0000
,
0002
0000
0000
0000
,
0003
0000
0000
0000
,
1000
0000
1000
0000
,
1000
0000
0000
0000
,
0100
0000
0000
0000
,
1000
0000
0000
0000
,
0001
0000
0001
0000
,
0001
0000
0000
0000
,
0100
0000
0000
0000
,
0001
0000
0000
0000
,
1000
0000
1000
0000
,
1000
0000
0000
0000
,
0010
0000
0000
0000
,
1000
0000
0000
0000
,
0001
0000
0001
0000
,
0001
0000
0000
0000
,
0010
0000
0000
0000
,
0001
0000
0000
0000
,
2000
0000
0000
0000
,
3000
0000
0000
0000
,
0002
0000
0000
0000
,
0003
0000
0000
0000
,
2000
0000
0000
0000
,
3000
0000
0000
0000
,
0002
0000
0000
0000
,
0003
0000
0000
0000
,
1000
0000
1000
0000
,
1000
0000
0000
0000
,
0001
0000
0001
0000
,
0001
0000
0000
0000
,
1000
0000
1000
0000
,
1000
0000
0000
0000
,
2002
0000
0000
0000
,
3003
0000
0000
0000
,
1000
0000
0100
0000
,
1000
0000
0000
0000
,
2000
0000
0000
0000
,
3000
0000
0000
0000
,
0001
0000
0100
0000
,
0001
0000
0000
0000
,
0002
0000
0000
0000
,
0003
0000
0000
0000
,
1000
0000
0010
0000
,
1000
0000
0000
0000
,
2000
0000
0000
0000
,
3000
0000
0000
0000
,
0001
0000
0010
0000
,
0001
0000
0000
0000
,
0001
0000
0000
0000
,
1000
0000
0000
0000
,
1001
0000
0000
0000
,
1000
0000
0000
0000
,
1000
0000
0000
0000
,
1000
0000
0000
0000
,
0000
0000
0001
0000
,
0000
0000
0001
0000
,
0000
0000
0000
0000
,
0000
1000
0000
0000
,
0000
1000
0000
0000
,
0000
0000
0000
0001
,
0000
0000
0000
0001
,
0000
0000
0000
0001
,
0000
0100
0000
0001
,
0000
0000
0000
0002
,
0000
0000
0000
0003
,
0000
0000
0000
0001
,
0000
0010
0000
0001
,
0000
0000
0000
0002
,
0000
0000
0000
0003
,
0000
0000
0000
1000
,
0000
0010
0000
1000
,
0000
0000
0000
2000
,
0000
0000
0000
3000
,
0000
0000
0000
1000
,
0000
0100
0000
1000
,
0000
0000
0000
1000
,
0000
0000
0000
0001
,
0000
0000
0000
1001
,
0000
0000
0000
0001
,
0000
0100
0000
0001
,
0000
0100
0000
0001
,
0000
0010
0000
0001
,
0000
0010
0000
0001
,
0000
0000
0000
1001
,
0000
0000
0000
0000
;
#NOTES:
     dance-single:
     :
     Easy:
     6:
     :
0000
0000
0000
0000
,
0000
0000
0000
0000
,
0000
0000
0000
0000
,
0000
0000
0000
0000
,
0000
0000
0000
0000
,
0010
0000
0100
0000
,
0010
0100
0010
0000
,
1000
0000
0001
0000
,
1000
0001
1000
0000
,
0001
0000
0010
0000
,
0100
1000
0100
0000
,
1000
0000
0010
0000
,
1001
0000
0100
0000
,
1001
0000
0110
0000
,
2002
0000
0000
3003
,
0010
0010
0010
0000
,
1000
0000
0100
0000
,
1000
0000
0001
0000
,
0200
0000
0300
0000
,
0010
0010
0010
0000
,
0001
0000
0100
0000
,
0001
0000
1000
0000
,
0200
0000
0300
0000
,
0001
0001
0001
0000
,
1000
0000
0010
0000
,
1000
0000
0100
0000
,
0020
0000
0030
0000
,
0001
0000
0001
0000
,
0100
0000
0100
0000
,
1000
0000
0100
0000
,
0002
0000
0003
0000
,
1000
0000
0100
0000
,
1001
0000
1001
0000
,
0001
0000
0100
0000
,
1001
0000
1001
0000
,
0010
0000
0100
0000
,
1001
0000
1001
0000
,
1000
0000
0010
0000
,
0100
0000
0001
0000
,
1000
0000
0010
0000
,
0101
0000
0101
0000
,
0001
0000
0010
0000
,
1100
0000
1100
0000
,
0001
0010
0100
0000
,
1000
0010
0100
0000
,
2002
0000
0000
0000
,
3003
0000
0000
0000
,
0010
0000
1000
0000
,
0010
0010
1000
0000
,
0100
0000
0010
0000
,
0100
0100
0010
0000
,
0001
0001
0100
0000
,
1000
1000
0100
0000
,
0001
0000
1000
0000
,
0020
0000
0030
0000
,
1000
0000
0100
0000
,
1000
1000
0100
0000
,
0010
0000
0001
0000
,
0010
0010
0001
0000
,
1000
0000
0100
0000
,
0001
0000
0100
0000
,
1000
0000
0010
0000
,
0001
0000
0010
0000
,
2002
0000
3003
0000
,
1000
0000
0001
0000
,
0100
0000
0001
0000
,
1000
0100
1000
0000
,
0001
0000
0100
0000
,
0010
0000
0100
0010
,
0100
0010
0000
1000
,
0000
0100
0000
1000
,
0000
0001
0010
0001
,
0000
0100
0000
0001
,
0000
0010
0000
0100
,
1000
0100
0000
1001
,
0000
0010
0000
0100
,
0010
0100
0000
1000
,
0000
0010
0000
0100
,
0001
0100
0000
0001
,
0001
0010
0000
1000
,
1000
0010
0000
0100
,
0000
0010
0000
0001
,
0000
1000
0000
1001
,
0000
0010
0000
0001
,
0100
0001
0000
0100
,
0000
0010
0000
1000
,
0010
1000
0000
0001
,
0000
0010
0000
1000
,
0000
0100
0000
0001
,
0000
0100
0000
1000
,
0000
0010
0000
2002
,
0000
3003
0000
1000
,
0000
0100
0000
0001
,
0100
0001
0000
1000
,
0000
0010
0000
0001
,
0010
0001
0000
1001
,
0000
0110
0000
1001
,
0000
0000
0000
0000
;
#NOTES:
     dance-single:
     :
     Medium:
     10:
     :
0000
0000
0000
0000
,
0000
0000
0000
0000
,
0000
0000
0000
0000
,
0000
0000
0000
0000
,
0000
0000
0000
0000
,
1000
0000
0001
0000
0100
0001
0100
0000
,
0010
1000
0100
0010
,
0001
0000
1000
0000
0100
1000
0100
0000
,
1000
0010
0110
0000
,
1000
0000
0010
0000
0100
0010
0100
0000
,
0001
1000
0010
0100
,
0001
0000
0001
0000
1000
0000
1000
0010
,
0000
0010
0000
0100
0000
0100
0000
0101
,
0000
0000
0000
1100
0000
0000
0000
2002
,
0000
0000
0000
3003
,
0000
0010
0000
1000
0000
0010
0000
0100
,
0000
0001
0000
0100
0000
0000
0010
0000
,
1000
0100
1000
0000
0001
0100
0000
0001
,
0000
0100
0020
0000
0000
0000
0030
0000
,
0000
0100
0000
0001
0000
0100
0000
0010
,
0000
1000
0010
0000
0100
0001
0000
0020
,
0000
0000
0030
0001
1000
0010
0000
0200
,
0000
0000
0000
0300
,
0000
0001
0000
0010
0000
0100
0000
0010
,
0000
0001
0000
1000
0000
0000
0010
0000
,
0100
0001
0100
0000
0010
1000
0000
0100
,
0000
0010
0002
0000
0000
0000
0003
0000
,
1000
0010
0000
0100
0000
0010
0000
0100
,
0000
0010
0000
0100
0000
0010
0000
0220
,
0000
0030
0300
0001
0100
0010
0000
0220
,
0000
0000
0000
0330
,
1000
0000
1000
0000
0000
0100
0010
0001
,
0010
0000
0011
0011
,
0001
0000
0001
0000
0000
0100
0010
1000
,
0010
0000
1010
1010
,
0010
0000
0010
0000
0000
0100
0001
0100
,
0001
0000
0101
0101
,
1000
0000
0100
0001
0000
0100
0000
1000
,
0000
0010
0000
0100
0000
0110
0000
0000
,
0010
0000
0010
0000
0000
1000
0100
1000
,
0100
0000
0110
0110
,
0010
0000
0010
0000
0000
0001
0100
0001
,
0100
0000
0110
0110
,
1000
0000
0010
0100
0000
0100
0001
0000
,
1000
0000
1000
0100
0000
0110
0000
0011
,
0000
0001
1000
0000
0001
1000
0000
2002
,
0000
0000
3003
0000
0001
0000
0010
0001
,
0000
1000
0010
0000
1010
0000
0000
1010
,
0000
1000
0001
0000
0011
0000
0000
0001
,
0000
0100
0010
0000
0100
0010
0000
0110
,
0000
1010
0000
1001
0000
0000
0000
0000
,
0001
0100
1000
0100
,
0001
0100
1000
0100
,
0001
0000
0100
0100
0000
0100
0000
0200
,
0000
0000
0300
0000
1000
0000
0100
1000
,
0000
0001
0100
0000
0101
0000
0000
0001
,
0000
1000
0100
0000
1100
0000
0000
1000
,
0000
0010
0100
0000
0010
0100
0000
0110
,
0000
1001
0200
0300
,
0001
0010
0001
0000
0100
0001
0100
0000
,
0010
1000
0010
0000
1000
0100
1000
0000
,
0010
0000
0100
0000
0001
0000
0010
0001
,
0000
0000
1000
0000
0100
1000
0000
2200
,
0000
0000
0000
3300
,
0001
0000
1000
0100
0000
0000
0001
0000
,
1000
0100
0000
0100
0000
0000
0010
0000
,
0020
0000
0000
0000
0031
0000
1000
0010
,
0000
0000
0001
0000
1000
0010
0000
0010
,
0000
0100
0200
0000
,
0000
0000
0301
0000
0010
0100
0000
0000
,
0001
0000
0010
0100
0000
0100
0000
0000
,
1000
2000
0000
3010
,
0100
0001
0000
0000
0010
0000
0100
0001
,
0000
0001
0000
0000
0010
0000
0002
0000
,
0000
0000
1003
0000
0010
1000
0000
0001
,
0010
0000
0011
0000
0000
0011
0000
0001
,
1000
0000
1010
0000
0000
1000
0000
0100
,
0010
0000
0100
0010
0000
0110
0000
0011
,
0000
1001
0000
0000
0000
0000
1000
0000
,
0100
0001
0100
1000
,
0100
0001
0100
1000
,
0100
0100
0000
0100
0000
0200
0000
0000
,
0300
0000
0001
0000
0100
0001
0000
1000
,
0100
0000
1100
0000
0000
1000
0000
0001
,
0100
0000
0101
0000
0000
0001
0000
0010
,
0100
0000
0010
0100
0000
0110
0000
0000
,
1001
0000
0020
0000
0030
0000
1000
0010
,
1000
0000
0100
1000
0100
0000
0010
0001
,
0010
0000
0001
0100
0001
0000
0010
0000
,
0100
0000
1000
0000
0010
0100
0000
0000
,
0001
0000
0100
0010
0000
0220
0000
0000
,
0000
0000
0330
0001
,
1000
0000
0100
0010
0100
0000
1000
0000
,
0010
0000
0100
0010
0100
0000
0001
0000
,
0010
0000
1000
0010
0000
0011
0000
1000
,
0000
0100
0000
0010
0000
0011
0000
0000
,
0000
1100
0000
0000
0000
1001
0000
0000
,
0000
0000
0000
0000
;
#NOTES:
     dance-single:
     :
     Hard:
     13:
     :
0000
0000
0000
0000
,
0000
0000
0000
0000
,
0000
0000
0000
0000
,
0000
0000
0000
0000
,
0000
0000
0000
0000
0001
1000
0001
1000
,
0000
1000
0001
0000
0001
0100
0000
0120
,
0000
0000
0000
1030
0100
0010
0100
0010
,
0000
0011
0000
0001
0100
1000
0100
0001
,
0000
1000
0100
1000
0010
1000
0100
1000
,
0100
0000
1001
0000
1000
0100
0000
0120
,
0000
0000
0000
0031
0100
0010
0100
0010
,
0000
1010
0000
1000
0100
0001
0100
1000
,
0000
0001
0010
0001
0100
0001
0010
0011
,
0000
0001
0100
0101
0000
0100
0010
0110
,
0000
1000
0100
0010
0100
0010
0001
0000
,
1000
0001
0000
0101
0000
1000
0000
1100
,
0000
0010
0000
0011
0000
0000
1000
0000
,
0001
0000
0100
0010
0100
0000
0000
0000
0001
0000
1000
0000
0000
0000
0100
0000
,
0000
0100
0010
0000
0011
0000
1001
0000
,
0001
1000
0000
1010
0000
0001
0000
0011
,
0000
0100
1000
0000
0001
1000
0000
0020
,
0000
0000
0030
1000
0100
0010
0000
0011
,
0000
0001
0100
0000
1100
0000
1001
0000
,
0010
1000
0000
0101
0000
0001
0000
1100
,
0000
1000
0000
0011
0000
0000
1000
0000
,
0010
0000
1000
0001
1000
0000
0000
0000
0010
0000
0100
0000
0000
0000
0001
0000
,
0000
0001
1000
0000
1100
0000
0110
0000
,
0001
0100
0000
1001
0000
0010
0000
1001
,
0000
0010
0000
1001
0000
0110
0000
2001
,
0000
0000
0000
3001
0100
0010
0100
0010
,
1000
0100
0010
0001
1000
0100
0010
0001
,
0100
0001
0100
0001
0000
1000
0010
1000
,
0010
0000
0000
0010
0000
0000
0010
0000
1010
0000
0000
0000
1010
0000
0000
0000
,
1000
0100
1000
0100
0000
0010
0001
0010
,
0001
0000
0000
0001
0000
0000
0001
0000
0011
0000
0000
0000
0011
0000
0000
0000
,
1000
0001
1000
0001
0000
0100
0010
0100
,
0010
0000
0000
0010
0000
0000
0010
0000
0110
0000
0000
0000
0110
0000
0000
0000
,
1001
0000
0010
0100
0000
1001
0000
1010
,
0000
0011
0000
0101
0000
1100
0000
0000
,
0010
1000
0010
1000
0000
0001
0100
0001
,
0100
0000
0000
0100
0000
0000
0100
0000
0101
0000
0000
0000
0101
0000
0000
0000
,
0001
0010
0001
0010
0000
0100
1000
0100
,
1000
0000
0000
1000
0000
0000
1000
0000
1100
0000
0000
0000
1000
0000
0100
0000
,
0010
0001
0010
0001
0000
0001
0010
0100
,
1000
0010
0100
0001
0000
1000
0010
0100
,
0000
0100
0010
0000
1000
0100
0000
0220
,
0000
0000
0330
0000
0001
1000
0001
1000
,
0000
0001
0010
0100
0110
0000
0000
1000
,
0000
0001
1000
0100
0110
0000
0000
0010
,
0000
0010
0001
1000
0001
1000
0010
0100
,
0000
0100
0001
0200
0000
0000
0300
0000
,
1010
1100
0011
0101
,
1010
1100
0011
0101
,
0010
0000
1000
1100
0000
0101
0000
0220
,
0000
0000
0330
0000
1000
0100
1000
0010
,
0000
0100
0001
0010
0011
0000
0000
0100
,
0000
0010
1000
0100
1100
0000
0000
1000
,
0000
1000
0001
0100
1000
0100
0000
0101
,
0000
0000
0000
1001
0000
0000
0100
0000
0100
0000
0100
0000
,
0010
0001
0010
0000
0100
1000
0100
1000
,
0000
0010
1000
0000
0001
0100
0000
0220
,
0000
0000
0330
0000
1000
0000
0100
0110
,
0000
0000
0001
0000
0100
0010
0000
0220
,
0000
0000
0000
0330
,
1000
0100
0010
0001
0000
0000
0001
0010
,
0100
1000
0100
1000
0000
0001
0100
0010
,
0110
0000
1100
0000
1000
0010
0100
0001
,
0000
0000
0001
0100
0010
1000
0010
1000
,
0000
0001
0010
0100
0110
0000
1010
0000
,
0110
0000
0001
1000
0100
0010
0000
0000
,
0001
0010
0100
1000
0001
0100
0000
0010
,
1000
0010
0110
0000
0101
0000
1000
0001
,
0010
0100
0000
0000
1000
0010
0100
0001
,
1000
0100
0000
0010
0001
1000
1010
0000
,
0101
0000
1000
0001
1000
0001
0000
0010
,
0100
1000
1001
0000
0000
0100
0000
0010
,
0100
0001
1001
0000
0000
0100
0000
0100
,
1000
0001
1000
0001
0100
0010
0000
0010
,
1000
0020
0000
0000
0030
0000
0101
0000
,
0011
1010
1100
0101
,
0011
1010
1100
0100
,
0001
0101
0000
1010
0000
0220
0000
0000
,
0330
0000
0001
0010
0001
0100
0000
0010
,
1000
0100
1100
0000
0000
0010
0000
0100
,
0001
0010
0011
0000
0000
0001
0000
0001
,
1000
0010
0001
0010
0000
1010
0000
0000
,
1001
0000
0000
0000
0000
0000
0010
0000
0000
0000
0010
0000
0000
0000
0010
0000
0000
0000
0100
0000
0000
1000
0000
0000
,
0100
0000
0010
0001
0010
0001
0000
0100
,
0001
0000
1000
0010
0000
0220
0000
0000
,
0330
0000
0001
0000
0010
1001
0000
0000
,
1000
0000
0010
0100
0000
2002
0000
0000
,
3003
0000
1000
0001
1000
0001
0000
0001
,
1000
0000
1000
0010
0000
0210
0000
0000
,
0000
0301
0010
0100
0010
0100
0000
1100
,
0000
1000
0010
0001
0010
1000
0000
0001
,
0010
0001
0100
0001
0010
0110
0000
1000
,
0010
0110
0000
0001
0100
1001
0000
0000
,
0000
0000
0000
0000
;
#NOTES:
     dance-double:
     :
     Easy:
     5:
     :
00000000
00000000
00000000
00000000
,
00000000
00000000
00000000
00000000
,
00000000
00000000
00000000
00000000
,
00000000
00000000
00000000
00000000
,
00000000
00000000
00000000
00000000
,
00000001
00000000
00001000
00000000
,
00000001
00001000
00000001
00000000
,
00000100
00000000
00000010
00000000
,
00010000
00001000
00010000
00000000
,
00001000
00000000
01000000
00000000
,
00100000
10000000
00100000
00000000
,
00010000
00000000
00001000
00000000
,
00011000
00000000
00000100
00000000
,
00000110
00000000
00000010
00000000
,
00002002
00000000
00000000
00003003
,
00000010
00000010
00000010
00000000
,
00000001
00000000
00000100
00000000
,
00001000
00000000
00000000
00000000
,
00002000
00000000
00003000
00000000
,
00010000
00010000
00010000
00000000
,
01000000
00000000
10000000
00000000
,
00010000
00000000
10000000
00000000
,
00200000
00000000
00300000
00000000
,
00010000
00010000
00010000
00000000
,
00000010
00000000
00000100
00000000
,
00000001
00000000
00000010
00000000
,
00002000
00000000
00003000
00000000
,
00001000
00000000
00001000
00000000
,
01000000
00000000
01000000
00000000
,
00002000
00000000
00000000
00000000
,
00020000
00000000
00033000
00000000
,
00001000
00000000
00010000
00000000
,
00100000
00000000
01100000
00000000
,
00010000
00000000
10000000
00000000
,
01000000
00000000
01010000
00000000
,
00001000
00000000
00000010
00000000
,
00000001
00000000
00000011
00000000
,
00000100
00000000
00001000
00000000
,
00022000
00000000
00033000
00000000
,
00010000
00000000
00001000
00000000
,
00000100
00000000
00000110
00000000
,
00000001
00000000
00001000
00000000
,
00000100
00000000
00001100
00000000
,
00000100
00010000
00001000
00000000
,
00100000
00010000
10000000
00000000
,
20020000
00000000
00000000
00000000
,
30030000
00000000
00000000
00000000
,
00100000
00000000
01000000
00000000
,
00001000
00000000
00010000
00000000
,
00000010
00000000
00000100
00000000
,
00001000
00000000
00000100
00000000
,
00000010
00000000
00010000
00000000
,
00001000
00000000
00010000
00000000
,
00100000
00000000
10000000
00000000
,
00200000
00000000
00300000
00000000
,
10000000
00000000
01000000
00000000
,
00010000
00000000
00001000
00000000
,
00000010
00000000
00001000
00000000
,
00010000
00000000
00001000
00000000
,
00000100
00000000
00001000
00000000
,
00010000
00000000
00100000
00000000
,
01000000
00000000
00010000
00000000
,
00100000
00000000
00001000
00000000
,
00022000
00000000
00033000
00000000
,
00001000
00000000
00010000
00000000
,
00001000
00000000
00000010
00000000
,
00000100
00000010
00000100
00000000
,
00001000
00000000
00000010
00000000
,
00010000
00000000
00001000
00010000
,
00001000
00010000
00000000
01000000
,
00000000
00100000
00000000
00001000
,
00000000
00010000
00100000
00010000
,
00000000
00001000
00000000
00000010
,
00000000
00001000
00000000
01000000
,
00010000
01000000
00000000
10010000
,
00000000
00100000
00000000
10000000
,
00000000
01000000
00000000
00100000
,
00000000
00001000
00000000
00010000
,
00001000
00010000
00000000
00100000
,
00000000
00010000
00000000
00001000
,
00000000
00000100
00000000
00000001
,
00000000
00000010
00000000
00000100
,
00000000
00001001
00000000
00000010
,
00000000
00010000
00000000
00001000
,
00000000
00010000
00000000
00001000
,
00000000
01000000
00000000
00100000
,
10000000
00100000
00000000
01000000
,
00000000
00001000
00000000
00010000
,
00000000
00000010
00000000
00001000
,
00000000
00000001
00000000
00000010
,
00000000
00001000
00000000
00011000
,
00000000
00000000
00000000
10000000
,
00000000
01000000
00000000
00010000
,
00000000
01000000
00000000
00100000
,
00000000
00001000
00000000
00010000
,
00000000
00001000
00000000
00000100
,
00000000
00000010
00000000
00001001
,
00000000
00000000
00000000
00000000
;
#NOTES:
     dance-double:
     :
     Medium:
     9:
     :
00000000
00000000
00000000
00000000
,
00000000
00000000
00000000
00000000
,
00000000
00000000
00000000
00000000
,
00000000
00000000
00000000
00000000
,
00000000
00000000
00000000
00000000
,
00000001
00000000
00000100
00000000
00000010
00000100
00000010
00000000
,
00000100
00000001
00000010
00000100
,
00001000
00000000
00000100
00000000
00010000
00001000
00010000
00000000
,
00001000
00010000
00011000
00000000
,
00001000
00000000
00100000
00000000
00010000
00100000
00010000
00000000
,
01000000
00100000
00010000
00100000
,
00010000
00000000
00001000
00000000
00000100
00000000
00000100
00000010
,
00000000
00001000
00000000
00000100
00000000
00000100
00000000
00001100
,
00000000
00000000
00000000
00011000
00000000
00000000
00000000
02200000
,
00000000
00000000
00000000
03300000
,
00000000
00100000
00000000
10000000
00000000
00010000
00000000
01000000
,
00000000
00001000
00000000
00010000
00000000
00000000
01000000
00000000
,
00100000
01000000
00100000
00000000
00001000
00010000
00000000
00001000
,
00000000
00010000
00000200
00000000
00000000
00000000
00000300
00000000
,
00000000
00000010
00000000
00000001
00000000
00001000
00000000
00000100
,
00000000
00010000
00001000
00000000
00000100
00000010
00000000
00000200
,
00000000
00000000
00000300
00000001
00001000
00000100
00000000
00020000
,
00000000
00000000
00000000
00030000
,
00000000
01000000
00000000
00100000
00000000
00010000
00000000
10000000
,
00000000
00010000
00000000
01000000
00000000
00000000
00100000
00000000
,
10000000
01000000
10000000
00000000
01000000
00100000
00000000
00001000
,
00000000
00010000
00002000
00000000
00000000
00000000
00003000
00000000
,
00000100
00000010
00000000
00000100
00000000
00000010
00000000
00000100
,
00000000
00000010
00000000
00000100
00000000
00000010
00000000
00000110
,
00000000
00000000
00000000
00000001
00000100
00001000
00000000
00022000
,
00000000
00000000
00000000
00033000
,
00010000
00000000
00010000
00000000
00000000
01000000
10000000
00100000
,
01000000
00000000
01010000
00011000
,
00001000
00000000
00001000
00000000
00000000
00000100
00000001
00000010
,
00000100
00000000
00010100
00011000
,
00010000
00000000
00010000
00000000
00000000
00100000
10000000
01000000
,
00100000
00000000
00110000
00011000
,
00001000
00000000
00100000
01000000
00000000
00010000
00000000
00001000
,
00000000
00100000
00000000
00001000
00000000
00010000
00000000
00000000
,
00001000
00000000
00001000
00000000
00000000
00000010
00000001
00000100
,
00001000
00000000
00011000
00011000
,
00010000
00000000
00010000
00000000
00000000
00100000
10000000
01000000
,
00010000
00000000
00011000
00011000
,
00001000
00000000
00000100
00000010
00000000
00000100
00001000
00000000
,
00010000
00000000
00001000
00010000
00000000
01010000
00000000
02200000
,
00000000
00000000
00000000
00000000
,
00000000
00000000
03300000
00000000
00010000
00000000
10000000
00100000
,
00000000
10000000
00100000
00000000
10100000
00000000
00000000
10000000
,
00000000
01000000
00100000
00000000
01100000
00000000
00000000
00010000
,
00000000
01000000
00100000
00000000
01000000
00100000
00000000
10000000
,
00000000
00100000
00000000
01000000
00000000
00000000
00000000
00000000
,
10000000
01000000
00100000
00010000
,
00001000
00000100
00000010
00000001
,
00000200
00000000
00000000
00000010
00000000
00000010
00000000
00000020
,
00000000
00000000
00000330
00000000
00000001
00000000
00001000
00000100
,
00000000
00010000
00001000
00000000
00011000
00000000
00000000
00100000
,
00000000
00001000
00010000
00000000
00011000
00000000
00000000
00001000
,
00000000
00000010
00000100
00000000
00000100
00000010
00000000
00001000
,
00000000
00000100
00000010
00000001
,
00000100
00000100
00001000
00001000
,
00010000
00010000
00100000
00100000
,
20000000
00000000
30000000
00000000
01000000
00000000
00100000
01000000
,
00000000
00000000
10000000
00000000
00100000
01000000
00000000
02200000
,
00000000
00000000
00000000
03300000
,
00010000
00000000
10000000
01000000
00000000
00000000
00010000
00000000
,
01000000
00001000
00000000
00001000
00000000
00000000
00010000
00000000
,
00002000
00000000
00000000
00000000
00013000
00000000
00000100
00001000
,
00000000
00000000
00000010
00000000
00001000
00000010
00000000
00000010
,
00000000
00000100
00000002
00000000
,
00000000
00000000
00001003
00000000
00000100
00000010
00000000
00000000
,
00000010
00000000
00000001
00000100
00000000
00000100
00000000
00000000
,
00001000
00020000
00000000
00130000
,
01000000
00010000
00000000
00000000
00100000
00000000
01000000
00010000
,
00000000
00001000
00000000
00000000
00000100
00000000
00000020
00000000
,
00000000
00000000
00001030
00000000
00000001
00000100
00000000
00000100
,
00001000
00000000
00011000
00000000
00000000
00100000
00000000
00100000
,
01000000
00000000
01100000
00000000
00000000
01000000
00000000
00001000
,
00010000
00000000
00001000
00010000
00000000
00000010
00000000
00001000
,
00000000
00000100
00000000
00000000
00000000
00000000
00000001
00000000
,
00000010
00000100
00001000
00010000
,
00100000
01000000
10000000
00200000
,
00000000
01000000
00000000
01000000
00000000
02000000
00000000
00000000
,
03300000
00000000
10000000
00000000
00010000
00100000
00000000
00001000
,
00010000
00000000
00011000
00000000
00000000
00000100
00000000
00000010
,
00001000
00000000
00011000
00000000
00000000
00010000
00000000
01000000
,
00100000
00000000
01000000
00100000
00000000
00010000
00000000
00000000
,
00100000
01000000
10000000
00100000
,
00100000
00010000
00010000
00001000
,
00001000
00000100
00000100
00000002
,
00000003
00000000
00000010
00000000
00000100
00000010
00000000
00000000
,
00000001
00000000
00000100
00000010
00000000
00000220
00000000
00000000
,
00000000
00000000
00000330
00000001
,
00001000
00000000
00000100
00000010
00000100
00000000
00010000
00000000
,
00001000
00000000
00010000
00001000
00010000
00000000
00100000
00000000
,
10000000
00000000
00100000
01000000
00000000
01100000
00000000
10000000
,
00000000
01000000
00000000
00010000
00000000
00011000
00000000
00000000
,
00000000
00001100
00000000
00000000
00000000
00000101
00000000
00000000
,
00000000
00000000
00000000
00000000
;
#NOTES:
     dance-double:
     :
     Hard:
     13:
     :
00000000
00000000
00000000
00000000
,
00000000
00000000
00000000
00000000
,
00000000
00000000
00000000
00000000
,
00000000
00000000
00000000
00000000
,
00000000
00000000
00000000
00000000
00000100
00000001
00000100
00000001
,
00000000
00000001
00000010
00000000
00000100
00001000
00000000
00001200
,
00000000
00000000
00000000
00001300
00000010
00001000
00000010
00001000
,
00000000
00001100
00000000
00010000
00001000
00100000
00010000
00100000
,
00000000
00010000
01000000
00100000
01000000
00010000
01000000
00100000
,
01000000
00000000
10010000
00000000
10000000
01000000
00000000
01200000
,
00000000
00000000
00000000
00310000
01000000
00100000
01000000
00010000
,
00000000
00110000
00000000
10000000
01000000
00100000
00010000
00100000
,
00000000
00001000
00100000
00010000
00100000
00001000
00010000
00001000
,
00000000
00001000
00010000
00000100
00000000
00000100
00000010
00000100
,
00000000
00000100
00000010
00000001
00001000
00000100
00000010
00000000
,
00000001
00000100
00000000
00000110
00000000
00000100
00000000
00000001
,
00000000
00001000
00000000
00001100
00000000
00000000
00001000
00000000
,
00000100
00010000
00001000
00000000
00001000
00010000
00000000
01000000
,
00000000
10000000
00100000
00000000
01100000
00000000
01010000
00000000
,
00001000
00010000
00000000
00110000
00000000
01000000
00000000
10000000
,
00000000
00010000
10000000
00000000
00100000
10000000
00000000
00200000
,
00000000
00000000
00300000
00100000
00010000
00001000
00000000
00011000
,
00000000
00001000
00000100
00000000
00000110
00000000
00000110
00000000
,
00001000
00000100
00000000
00000110
00000000
00000100
00000000
00001000
,
00000000
00000001
00000000
00000101
00000000
00000000
00000001
00000000
,
00000010
00001000
00010000
00000000
00010000
01000000
00000000
00100000
,
00000000
00100000
00010000
00000000
01010000
00000000
01100000
00000000
,
10000000
00100000
00000000
00010000
00000000
00100000
00000000
10000000
,
00000000
00100000
00000000
00010000
00000000
00100000
00000000
20000000
,
00000000
00000000
00000000
31000000
00100000
01000000
00100000
00010000
,
10000000
01000000
00100000
00010000
10000000
01000000
00100000
00001000
,
00010000
00001000
00010000
00001000
00000000
00010000
00000010
00010000
,
00000010
00000000
00000000
00000100
00000000
00000000
00000010
00000000
00000110
00000000
00000000
00000000
00000110
00000000
00000000
00000000
,
00000001
00000010
00000001
00000010
00000000
00000100
00001000
00000100
,
00001000
00000000
00000000
00000010
00000000
00000000
00001000
00000000
00001010
00000000
00000000
00000000
00001010
00000000
00000000
00000000
,
00000010
00010000
00000010
00010000
00000000
00001000
00010000
00001000
,
00010000
00000000
00000000
00001000
00000000
00000000
00010000
00000000
00011000
00000000
00000000
00000000
00011000
00000000
00000000
00000000
,
00010000
00000000
00100000
01000000
00000000
00100000
00000000
10000000
,
00000000
01000000
00000000
00100000
00000000
00110000
00000000
00000000
,
00001000
00010000
00001000
00010000
00000000
00001000
00100000
00001000
,
00100000
00000000
00000000
01000000
00000000
00000000
00100000
00000000
01100000
00000000
00000000
00000000
01100000
00000000
00000000
00000000
,
10000000
00100000
10000000
00100000
00000000
01000000
00010000
01000000
,
00010000
00000000
00000000
00100000
00000000
00000000
00010000
00000000
00110000
00000000
00000000
00000000
00110000
00000000
00000000
00000000
,
00010000
00100000
00001000
00010000
00000000
00010000
00000100
00001000
,
00000010
00000100
00000001
00000100
00000000
00000100
00000010
00000100
,
00000000
00000100
00000010
00000000
00010000
00001000
00020000
00002000
,
00000000
00000000
00033000
00000000
00001000
00100000
00010000
00100000
,
00000000
00100000
01000000
10000000
00100000
00000000
00000000
01100000
,
00000000
00100000
10000000
01000000
00100000
00000000
00000000
01100000
,
00000000
00100000
00010000
10000000
00100000
00010000
00001000
00010000
,
00000000
00010000
00001000
00020000
00000000
00000000
00030000
00000000
,
00020000
01000000
10000000
00100000
,
00032000
00000100
00000001
00000010
,
00013000
00000000
00001000
00010000
00000000
00011000
00000000
00022000
,
00000000
00000000
00033000
00000000
00010000
00000100
00001000
00000100
,
00000000
00000100
00000010
00000001
00000100
00000000
00000000
00000110
,
00000000
00000100
00000001
00000010
00000100
00000000
00000000
00000110
,
00000000
00000100
00001000
00000001
00000100
00001000
00000000
00011000
,
00000000
00000000
00000000
01010000
00000000
00000000
00100000
00000000
00010000
00000000
00001000
00000000
,
00010000
00001000
00010000
00000000
00010000
01000000
00100000
00000000
,
00100000
00010000
01000000
00000000
00100000
10000000
01000000
00000000
,
00100000
00001000
00010000
00000000
00001000
00000000
00010000
00011000
,
00000000
00000000
00010000
00000000
00000100
00000010
00000000
00000220
,
00000000
00000000
00000000
00000330
,
00001000
00000001
00001000
00000001
00000000
00000000
00000100
00000001
,
00000100
00000001
00000000
00000010
00000000
00001000
00010000
00001000
,
00010000
00000000
00100000
00000000
10000000
00010000
10000000
00010000
,
00000000
00000000
01000000
00100000
01000000
00100000
10000000
01000000
,
00000000
00010000
00001000
00010000
00001000
00000000
00000100
00000000
,
00000001
00000000
00000010
00000100
00000010
00000100
00000000
00000000
,
00001000
00000001
00001000
00000001
00000100
00001000
00000000
00010000
,
00001000
00100000
00010000
00000000
10000000
00000000
00100000
10000000
,
00010000
10000000
00000000
00000000
01000000
00100000
00010000
00100000
,
01000000
00010000
00000000
00001000
00000010
00001000
00000010
00000000
,
00001001
00000000
00000100
00000010
00001000
00000010
00000000
00000010
,
00000100
00000001
00000010
00000000
00000000
00000110
00000000
00000010
,
00000001
00000100
00000010
00000000
00000000
00000110
00000000
00000010
,
00001000
00000001
00000010
00001000
00010000
00001000
00000000
00001000
,
00010000
00002000
00000000
00000000
00003000
00000000
00002000
00000000
,
00000100
00000001
00000010
00023000
,
01000000
10000000
00100000
00031000
,
00010000
00001000
00000000
00011000
00000000
00022000
00000000
00000000
,
00033000
00000000
00001000
01000000
00010000
01000000
00000000
01000000
,
00100000
10000000
01000000
00000000
00000000
01100000
00000000
01000000
,
10000000
00100000
01000000
00000000
00000000
01100000
00000000
01000000
,
00010000
10000000
01000000
00010000
00000000
00011000
00000000
00000000
,
00001100
00000000
00000000
00000000
00000000
00000000
00000010
00000000
00000000
00000000
00001000
00000000
00000000
00000000
00010000
00000000
00000000
00000000
00001000
00000000
00000000
00010000
00000000
00000000
,
00001000
00000000
00001000
00000100
00000010
00000000
00000010
00001000
,
00000100
00000000
00000010
00000001
00000100
00000000
00000010
00010000
,
00001000
00000000
00010000
00000000
00001000
00011000
00000000
00000000
,
00001000
00000000
01000000
00100000
00000000
02200000
00000000
00000000
,
00000000
00000000
03300000
10000000
,
00100000
00000000
01000000
00010000
00000000
00021000
00000000
00000000
,
00000000
00031000
00000100
00000010
00000100
00000010
00000000
00001010
,
00000000
00000010
00000100
00000001
00000100
00000010
00000000
00000010
,
00001000
00000100
00000000
00000100
00000010
00000001
00000000
00000001
,
00000010
00000100
00000000
00010000
00001000
00011000
00000000
00000000
,
00000000
00000000
00000000
00000000
;
