
//----- song ID: iron -----//
#TITLE:IRON HEART;
#ARTIST:BUNNY;
#BANNER:IRON HEART.png;
#BACKGROUND:IRON HEART-bg.png;
#CDTITLE:./CDTitles/DDR A20.png;
#MUSIC:IRON HEART.ogg;
#SAMPLESTART:69.678;
#SAMPLELENGTH:15;
#BPMS:0=155;
#NOTES:
     dance-single:
     :
     Beginner:
     2:
     :
0000
0000
0000
0000
,
0000
0000
0000
0000
,
0000
0000
0000
0000
,
0000
0000
0000
0000
,
0000
0000
0000
0000
,
0000
0000
0000
0000
,
0000
0000
0000
0000
,
0000
0000
0000
0000
,
0000
0000
0000
0000
,
1000
0000
0000
0000
,
0010
0000
0000
0000
,
0100
0000
0000
0000
,
0001
0000
0000
0000
,
0010
0000
0010
0000
,
0010
0000
0010
0000
,
0100
0000
0100
0000
,
0100
0000
0100
0000
,
1000
0000
1000
0000
,
0001
0000
0001
0000
,
1000
0000
0001
0000
,
0100
0000
0000
0000
,
0010
0000
0000
0000
,
0010
0000
0100
0100
,
0100
0000
0000
0000
,
0100
0000
0001
0001
,
0001
0000
0001
0000
,
0001
0000
1000
1000
,
1000
0000
1000
0000
,
1000
0000
0001
0000
,
0100
0000
0100
0000
,
0010
0000
0010
0000
,
1000
0000
1000
0000
,
0001
0000
0001
0000
,
0010
0000
0100
0000
,
0010
0000
0100
0000
,
1001
0000
0000
0000
,
1001
0000
0000
0000
,
0001
0000
0001
0000
,
1000
0000
1000
0000
,
0001
0000
1000
0000
,
0010
0000
0100
0000
,
0010
0000
0010
0000
,
0100
0000
0100
0000
,
0010
0000
0010
0000
,
0100
0100
0100
0000
,
0001
0000
1000
0000
,
0001
0001
0001
0000
,
1000
0000
0001
0000
,
1000
0000
0001
0000
,
0010
0000
0100
0000
,
0010
0010
0010
0000
,
0100
0000
0010
0000
,
0100
0000
0010
0000
,
1001
0000
0000
0000
,
0010
0000
0100
0000
,
1001
0000
0000
0000
,
0100
0000
0010
0000
,
1001
0000
0000
0000
,
0001
0000
1000
0000
,
1001
0000
0000
0000
,
1000
0000
0001
0000
,
1001
0000
0000
0000
,
0000
0000
0000
0000
;
#NOTES:
     dance-single:
     :
     Easy:
     7:
     :
0000
0000
0000
0000
,
0000
0000
0000
0000
,
0000
0000
0000
0000
,
0000
0000
0000
0000
,
0000
0000
0000
0000
,
0000
0000
0000
0000
,
0000
0000
0000
0000
,
0000
0000
0000
0000
,
0000
0000
0000
0000
,
1000
0010
0100
0001
,
0010
0100
1000
1000
,
0001
0010
0100
1000
,
0010
0100
0010
0010
,
0100
0100
0010
0010
,
1000
1000
0001
0001
,
0100
0010
1000
0001
,
1000
0100
1000
0000
0001
0100
0001
0000
,
0100
0100
0001
0001
,
0010
0010
0100
0100
,
0010
0010
0010
0000
0100
0100
0100
0000
,
2002
0000
0000
3003
,
0100
1000
0100
1000
,
0001
0100
0001
0110
,
1001
0010
0100
0001
,
0010
0100
1000
0010
,
1001
0001
1000
0010
,
0100
0001
0010
0100
,
1001
1000
0001
0010
,
0100
1000
0010
0100
,
1001
0001
0001
0010
,
0100
0100
1000
0100
,
1001
1000
1000
0010
,
0100
0100
0001
0010
,
1001
0001
0001
1000
,
0100
0100
0010
0100
,
1001
1000
1000
0010
,
0100
0100
0001
0010
,
0100
0100
1000
1000
,
0001
0001
0010
0010
,
0100
0100
1000
1000
,
0001
0100
0001
0000
1000
0100
1000
0000
,
0100
0010
0001
0100
,
0010
1000
0100
0010
,
0100
0100
0100
0000
0010
0010
0010
0000
,
2002
0000
0000
3003
,
1000
0100
0010
0001
,
0100
0010
0110
1001
,
0001
0100
0010
1000
,
0100
0010
0110
1001
,
1000
0001
0100
0010
,
1000
0001
0110
1001
,
0001
1000
0100
0010
,
0001
0110
0100
1001
,
2000
0000
0000
0000
,
3010
0100
0001
1001
,
0002
0000
0000
0000
,
0013
0100
1000
1001
,
0010
0010
0100
0100
,
0001
1000
0001
1001
,
0001
0010
0100
1000
,
0010
0100
0020
0000
,
0130
0000
0000
0000
,
0000
0000
0000
0000
;
#NOTES:
     dance-single:
     :
     Medium:
     10:
     :
0000
0000
0000
0000
,
0000
0000
0000
0000
,
0000
0000
0000
0000
,
0000
0000
0000
0000
,
0000
0000
0000
0000
,
0000
0000
0000
0000
,
0000
0000
0000
0000
,
0000
0000
0000
0000
,
0000
0000
0000
0000
,
1000
0100
0000
0100
0010
0000
0010
0001
,
0000
0001
1000
0000
1100
0000
0101
0000
,
0001
0000
0100
0010
0000
0010
1000
0000
,
1000
0100
0000
0100
0010
0000
0110
0000
,
0100
0100
1100
1100
,
0100
0100
0101
0101
,
0100
0100
0110
0110
,
0100
0010
1000
0000
0100
0010
0001
0000
,
1000
0100
1000
0000
0001
0100
0001
0000
,
1000
0100
1000
0000
0001
0100
0001
0000
,
0001
0010
0100
0000
1000
0010
0100
0000
,
0110
0000
0000
0000
1000
0001
0100
0000
,
0010
1010
1010
1010
,
0011
0011
0011
0100
,
1001
0011
0011
0011
,
1010
0000
1010
0000
1000
0010
0100
0000
,
0110
0010
1100
1100
,
0011
0000
0011
0000
0001
1000
0100
0000
,
0110
1100
0011
0110
,
0010
0001
0100
0000
0010
1000
0100
0000
,
1001
0000
0001
0001
0010
0000
0100
0000
,
1000
1000
0010
0000
0100
0000
0010
0000
,
1001
0000
1000
1000
0100
0000
0010
0000
,
0001
0001
0100
0000
0010
0000
0100
0000
,
1001
0000
0010
0010
0100
0000
0001
0000
,
0010
0010
0100
0000
0010
0000
0110
0000
,
1001
0000
1000
1000
0010
0000
1000
0000
,
0001
1000
0001
0100
0010
0000
0110
0000
,
0101
0101
0100
0100
,
1100
1100
0100
0100
,
0110
1100
0101
0110
,
0100
0010
1000
0000
0100
0010
0001
0000
,
1000
0100
1000
0000
0001
0100
0001
0000
,
1000
0100
1000
0000
0001
0100
0001
0000
,
0100
0010
1000
0001
0100
0010
1000
0001
,
0200
0000
0300
1001
,
0001
0010
0000
0010
0001
0000
1000
0100
,
0000
0100
1000
0000
1100
0000
0101
0000
,
0110
0000
0100
0001
0000
0001
0010
0000
,
0010
0100
0000
0100
1000
0000
1100
0000
,
0100
0010
0000
0010
0001
0000
0001
1000
,
0000
1000
0100
0000
0110
0000
1001
0000
,
0110
0000
0010
0100
0000
0100
0001
0000
,
0001
1000
0000
1000
0010
0000
0110
0000
,
1000
0100
0000
0010
0001
0000
0100
0010
,
0000
0100
0010
1000
0001
0000
1001
0000
,
0001
0000
0100
0010
0000
1000
0100
0000
,
0010
0100
0000
0010
0001
0000
1001
0000
,
0001
0100
0010
1000
0100
0000
1000
0100
,
0000
1000
0100
0010
0001
0000
1001
0000
,
0110
0000
1000
0100
0010
0001
0100
0000
,
0001
0100
0000
0001
0100
0010
1000
0000
,
1001
0000
0000
0000
,
0000
0000
0000
0000
;
#NOTES:
     dance-single:
     :
     Hard:
     14:
     :
0000
0000
0000
0000
,
0000
0000
0000
0000
,
0000
0000
0000
0000
,
0000
0000
0000
0000
,
0000
0000
0000
0000
,
0000
0000
0000
0000
,
0000
0000
0000
0000
,
0000
0000
0000
0000
,
0000
0000
0000
0000
,
1000
0010
0000
0100
0001
0000
0010
0100
,
0000
1000
0010
0100
0001
0001
1000
1000
,
1001
0000
0001
0100
0000
1000
0010
0000
,
0001
0000
0010
0000
0100
1000
0100
1000
0100
0000
0010
0000
0100
0000
0000
0000
,
0100
1000
0100
0010
0100
1000
0100
0010
,
0100
0001
0100
0010
0100
0001
0100
0010
,
0100
1000
0100
0010
0100
0001
0100
1000
,
0100
0010
0001
1000
0100
0000
0000
0000
1100
0000
0101
0000
1001
0000
0000
0000
,
0100
0010
0001
0000
0100
0010
1000
0000
0100
0010
0001
0000
0100
0010
1000
0000
,
0100
1000
0001
0000
0100
0001
1000
0000
0100
1000
0001
0000
0100
0001
1000
0000
,
0100
0100
0100
0100
0100
0100
0100
0100
,
2002
0000
3003
0000
0010
0100
1001
0000
,
0110
0000
0000
0000
0010
0000
1000
0000
0010
0000
0001
0000
0010
0100
0010
0100
,
0010
0000
1000
0000
0100
0000
0010
0100
0010
0000
0100
0000
0010
0000
0000
0000
,
1001
0000
0000
0000
0001
0010
0001
0000
0100
0000
0010
0000
1000
0010
1000
0000
,
0100
0000
0010
0001
0010
0000
0100
0000
1000
0010
1000
0000
0100
0000
0010
0000
,
1001
0000
0000
0000
0001
0000
1000
0000
0010
1000
0010
1000
0010
0000
0100
0000
,
0001
0000
0010
0001
0010
0000
0100
0000
1000
0000
0110
0000
1001
0000
0000
0000
,
0110
0000
0000
0000
1000
0001
1000
0001
1000
0001
0100
0010
0100
0010
0100
0010
,
0100
0000
0000
0000
0010
0000
0000
0000
1000
0000
0000
0100
0000
0000
0010
0000
,
1001
0000
0000
0000
0001
0000
0010
0000
1000
0000
0010
0000
0001
0100
0001
0000
,
0000
0000
1000
0000
0010
0000
0001
0000
0010
1000
0010
0000
0100
0000
0010
0000
,
1001
0000
0000
0000
1000
0000
0001
0000
1000
0100
1000
0000
0010
0000
0100
0000
,
0000
0000
0001
0000
1000
0000
0001
0000
0010
0100
0010
0000
0001
0000
1000
0000
,
0110
0000
0000
0000
0010
0000
0100
0000
0010
0100
0010
0000
1000
0000
0001
0000
,
0100
0001
1000
0001
0101
1100
1001
0000
,
0110
0000
0010
0010
0100
0100
0010
0100
,
0001
0000
0100
0000
0010
0000
1000
0100
0010
0000
0100
0000
0110
0000
0000
0000
,
1100
1100
0101
0101
,
1100
1100
0101
0101
,
0110
1100
0101
0110
,
0010
1000
0001
0100
0010
0000
0000
0000
0010
0000
0100
0000
1001
0000
0000
0000
,
0100
0010
1000
0000
0100
0010
0001
0000
0100
0010
1000
0000
0100
0010
0001
0000
,
0100
0001
1000
0000
0100
1000
0001
0000
0100
0001
1000
0000
0100
1000
0001
0000
,
0100
0100
0100
0100
0100
0100
0100
0100
,
0010
0000
0100
0010
0100
0000
0010
0000
1000
0001
0100
0000
1001
0000
0000
0000
,
1000
0010
0000
0010
0001
0000
0001
0010
,
0000
0000
0010
0000
1000
0000
0100
0000
0001
0100
0001
0000
0100
0000
1000
0000
,
0010
0000
1000
0100
0000
0001
0010
0000
,
1000
0000
0010
0000
0000
0000
0001
0000
0010
0000
0100
1000
0100
0000
0010
0000
,
0001
0010
0000
0010
1000
0000
1000
0010
,
0000
0000
0010
0000
0001
0000
0100
0000
1000
0100
1000
0000
0100
0000
0001
0000
,
0010
0000
1000
0100
0000
0001
1000
0000
,
0100
0000
0010
0000
0110
0000
0000
0000
1000
0001
1000
0000
1001
0000
0000
0000
,
1000
0100
0010
0001
0010
1000
0010
0001
,
0000
0000
1000
0000
0010
0000
0001
0000
0010
0000
0100
0010
0100
0000
0010
0000
,
1001
0000
1000
0010
0001
0010
0100
0000
,
0001
0000
0010
0000
1000
0000
0010
0000
0100
0010
0100
0000
0110
0000
0000
0000
,
1000
0100
0100
0010
0001
0001
1000
0100
,
0000
0000
0010
0000
0001
0000
0001
0000
1000
0001
1000
0000
0100
0000
0010
0000
,
1001
0000
0001
0100
0100
0010
1000
0000
,
0001
0000
0100
0000
0010
0100
0010
1000
0001
0000
0100
0000
0010
0000
0000
0000
,
1001
0000
0000
0000
,
0000
0000
0000
0000
;
#NOTES:
     dance-double:
     :
     Easy:
     7:
     :
00000000
00000000
00000000
00000000
,
00000000
00000000
00000000
00000000
,
00000000
00000000
00000000
00000000
,
00000000
00000000
00000000
00000000
,
00000000
00000000
00000000
00000000
,
00000000
00000000
00000000
00000000
,
00000000
00000000
00000000
00000000
,
00000000
00000000
00000000
00000000
,
00000000
00000000
00000000
00000000
,
00000001
00000010
00000100
00000010
,
00001000
00010000
00001000
00001000
,
00010000
00100000
01000000
00100000
,
10000000
01000000
00010000
00010000
,
00001000
00010000
00001000
00010000
,
00100000
01000000
00100000
01000000
,
00010000
00100000
00001000
00100000
,
00001000
00100000
00001000
00000000
00010000
00000100
00010000
00000000
,
00000100
00001000
00000010
00000100
,
00000001
00000010
00000100
00001000
,
00010000
00010000
00010000
00000000
00001000
00001000
00001000
00000000
,
00022000
00000000
00000000
00033000
,
00010000
01000000
10000000
00100000
,
00100000
10000000
01000000
00010000
,
00011000
00000100
00000001
00000010
,
00000010
00000001
00000100
00001000
,
00011000
00001000
00010000
00001000
,
00000100
00001000
00010000
01000000
,
01100000
00100000
00001000
00010000
,
01000000
00010000
00001000
00000100
,
00000110
00000010
00000010
00000100
,
00001000
00001000
00010000
00001000
,
00011000
00010000
00010000
01000000
,
00100000
00100000
00010000
01000000
,
10010000
10000000
10000000
01000000
,
00100000
00100000
00010000
01000000
,
10010000
10000000
10000000
01000000
,
00010000
00001000
00000100
00000001
,
00000010
00000010
00000100
00000100
,
00001000
00001000
00010000
00010000
,
00100000
00100000
01000000
01000000
,
10000000
01000000
10000000
00000000
00010000
01000000
00010000
00000000
,
01000000
01000000
00100000
00100000
,
00010000
00010000
00001000
00001000
,
00000100
00000100
00000100
00000000
00000010
00000010
00000010
00000000
,
00000220
00000000
00000000
00000330
,
00000001
00000100
00000001
00001000
,
00000100
00010000
00001000
00011000
,
00001000
00100000
00010000
01000000
,
00100000
10000000
01000000
10010000
,
10000000
01000000
00010000
00001000
,
00010000
01000000
10000000
10010000
,
10000000
01000000
00010000
00001000
,
00000100
00001001
00000010
00001001
,
00000002
00000000
00000000
00000000
,
00001003
00000100
00010000
00011000
,
00002000
00000000
00000000
00000000
,
00103000
00010000
01000000
10010000
,
20000000
00000000
00000000
00000000
,
30100000
01000000
00010000
00011000
,
00002000
00000000
00000000
00000000
,
00003100
00000001
00000010
00000100
,
00000110
00000000
00000000
00000000
,
00000000
00000000
00000000
00000000
;
#NOTES:
     dance-double:
     :
     Medium:
     10:
     :
00000000
00000000
00000000
00000000
,
00000000
00000000
00000000
00000000
,
00000000
00000000
00000000
00000000
,
00000000
00000000
00000000
00000000
,
00000000
00000000
00000000
00000000
,
00000000
00000000
00000000
00000000
,
00000000
00000000
00000000
00000000
,
00000000
00000000
00000000
00000000
,
00000000
00000000
00000000
00000000
,
00000001
00000010
00000000
00000100
00001000
00000000
00000100
00010000
,
00000000
00001000
01000000
00000000
01001000
00000000
01010000
00000000
,
10000000
00000000
00100000
01000000
00000000
00010000
00100000
00000000
,
00001000
00010000
00000000
00000100
00001000
00000000
00001001
00000000
,
00000001
00000001
00000101
00000101
,
00001000
00001000
00010100
00010100
,
00001000
00001000
01100000
01100000
,
01000000
00100000
10000000
00000000
01000000
00100000
00010000
00000000
,
01000000
00100000
01000000
00000000
00010000
01000000
00010000
00000000
,
01000000
00001000
00010000
00000000
00000100
00000010
00000100
00000000
,
00001000
00000010
00000100
00000000
00000001
00000010
00000100
00000000
,
00000110
00000000
00000000
00000000
00000001
00001000
00000100
00000000
,
00000010
00000011
00000011
00000100
,
00001010
00001010
00010100
00001000
,
00110000
01010000
01010000
00100000
,
11000000
00000000
11000000
00000000
00100000
01000000
00100000
00000000
,
11000000
00100000
01010000
01010000
,
00001000
00000000
00011000
00000000
00010000
00001000
00000100
00000000
,
00000110
00001010
00001010
00001010
,
00000010
00010000
00001000
00000000
00010000
00001000
00100000
00000000
,
01100000
00000000
10000000
10000000
00100000
00000000
01000000
00000000
,
00001000
00010000
00000100
00000000
00001000
00000000
00000100
00000000
,
00011000
00000000
00001000
00001000
00000100
00000000
00000010
00000000
,
00001000
00000100
00000010
00000000
00000001
00000000
00000010
00000000
,
00000110
00000000
00000100
00000100
00010000
00000000
00001000
00000000
,
00010000
00001000
00100000
00000000
01000000
00000000
01100000
00000000
,
10010000
00000000
10000000
01000000
00010000
00000000
00001000
00000000
,
00010000
00001000
00000100
00000010
00000100
00000000
00000110
00000000
,
00000010
00000010
00010100
00010100
,
00001000
00001000
01010000
01010000
,
00100000
00100000
11000000
11000000
,
10000000
00100000
01000000
00000000
00100000
01000000
00100000
00000000
,
10000000
01000000
00100000
00000000
01000000
00100000
00010000
00000000
,
00100000
00001000
00010000
00000000
00001000
00010000
00000100
00000000
,
00000010
00000100
00001000
00000010
00000100
00000001
00000010
00000100
,
00000020
00000000
00000030
00001001
,
00000001
00000010
00000000
00000010
00000001
00000000
00000001
00000100
,
00000000
00000100
00001000
00000000
00011000
00000000
00110000
00000000
,
01100000
00000000
01000000
10000000
00000000
10000000
00100000
00000000
,
00100000
01000000
00000000
01000000
00010000
00000000
00011000
00000000
,
00001000
00000100
00000000
00000100
00000001
00000000
00000001
00000010
,
00000000
00000010
00000100
00000000
00001100
00000000
00010100
00000000
,
00011000
00000000
00001000
00010000
00000000
00010000
01000000
00000000
,
01000000
10000000
00000000
10000000
00010000
00000000
10010000
00000000
,
10000000
01000000
00000000
00100000
00010000
00000000
01000000
00001000
,
00000000
00010000
00001000
00010000
00000100
00000000
00000110
00000000
,
00000001
00000000
00000100
00000010
00000000
00001000
00000100
00000000
,
00010000
00001000
00010000
01000000
10000000
00000000
10010000
00000000
,
10000000
00100000
01000000
00010000
00100000
00000000
00001000
00010000
,
00000000
00001000
00010000
00001000
00000010
00000000
00000110
00000000
,
00001001
00000000
00000001
00000100
00001000
00010000
00001000
00000000
,
00010000
00100000
00000000
01000000
00010000
00100000
01000000
00000000
,
10010000
00000000
00000000
00000000
,
00000000
00000000
00000000
00000000
;
#NOTES:
     dance-double:
     :
     Hard:
     14:
     :
00000000
00000000
00000000
00000000
,
00000000
00000000
00000000
00000000
,
00000000
00000000
00000000
00000000
,
00000000
00000000
00000000
00000000
,
00000000
00000000
00000000
00000000
,
00000000
00000000
00000000
00000000
,
00000000
00000000
00000000
00000000
,
00000000
00000000
00000000
00000000
,
00000000
00000000
00000000
00000000
,
10000000
00100000
00000000
10000000
01000000
00000000
00100000
01000000
,
00000000
00010000
00001000
00000100
00000001
00000001
00001000
00001000
,
00001001
00000000
00000010
00000001
00000000
00000100
00000001
00000000
,
00000100
00000000
00001000
00000000
00010000
00001000
00010000
00001000
00010000
00000000
00001000
00000000
00100000
00000000
00000000
00000000
,
01000000
10000000
01000000
00100000
01000000
10000000
01000000
00010000
,
01000000
10000000
01000000
00100000
01000000
00000000
00011000
00000000
,
00000100
00000010
00000100
00000001
00000100
00000010
00000100
00001000
,
00000001
00000010
00000100
00000010
00000001
00000000
00000000
00000000
00000100
00000000
00010000
00000000
00010100
00000000
00000000
00000000
,
00000100
00010000
00001000
00000000
01000000
00001000
00010000
00000000
01000000
00000000
10000000
00000000
01000000
00000000
00010000
00000000
,
00000100
00010000
00001000
00000000
01000000
00001000
00010000
00000000
00000100
00000000
00001000
00000000
00000100
00000000
00000001
00000000
,
00000100
00000100
00000100
00000100
00000100
00000100
00000100
00000100
,
00002002
00000000
00003003
00000000
00000010
00000100
00001001
00000000
,
00000110
00000000
00000001
00000010
00001000
00010000
00100000
10000000
,
00100000
00010000
00001000
00000010
00000001
00000100
00000010
00000000
,
00001001
00000000
00000000
00000000
00000001
00000100
00000010
00000000
00000100
00000000
00000010
00000000
00001000
00000100
00010000
00000000
,
00001000
00000000
00100000
00010000
00100000
00000000
01000000
00000000
10000000
00100000
10000000
00000000
01000000
00000000
00100000
00000000
,
10010000
00000000
00000000
00000000
10000000
00000000
01000000
00000000
00010000
00001000
00010000
00001000
00010000
00000000
00000100
00000000
,
00001000
00000000
00000100
00000010
00000100
00000000
00000010
00000000
00000001
00000000
00000100
00000000
00000010
00000000
00000000
00000000
,
00001001
00000000
00000001
00000100
00001000
00010000
01000000
10000000
,
01000000
00000000
00000000
00000000
01100000
00000000
00000000
00000000
00100000
00000000
00000000
00001000
00000000
00000000
00010000
00000000
,
00020100
00000000
00000000
00000000
00031000
00000000
00000010
00000000
00000001
00000000
00000010
00000000
00001000
00010000
00001000
00000000
,
00000000
00000000
00010000
00000000
01000000
00000000
10000000
00000000
01000000
00010000
00001000
00000000
00010000
00000000
00001000
00000000
,
00101000
00000000
00000000
00000000
00001000
00000000
00000100
00000000
00000001
00000100
00000001
00000000
00000010
00000000
00000100
00000000
,
00000000
00000000
00010000
00000000
00001000
00000000
01000000
00000000
00100000
01000000
00100000
00000000
10000000
00000000
00010000
00000000
,
01100000
00000000
00000000
00000000
10000000
00000000
00100000
00000000
01000000
00010000
01000000
00000000
00100000
00000000
00010000
00000000
,
00001000
00000100
00000010
00001000
00001010
00000011
00001001
00000000
,
00000110
00000000
00000000
00000000
00000001
00000100
00000001
00000000
00000100
00000000
00000100
00000000
00001000
00000000
00010000
00000000
,
01000000
00000000
10000000
00000000
00100000
00000000
01000000
00010000
00100000
00000000
01000000
00000000
01100000
00000000
00000000
00000000
,
11000000
11000000
01010000
01010000
,
00011000
00001100
00001010
00011000
,
00110000
00110000
11000000
11000000
,
00100000
01000000
10000000
00010000
01000000
00000000
00000000
00000000
00100000
00000000
01000000
00000000
10010000
00000000
00000000
00000000
,
01000000
00001000
00010000
00000000
00000100
00010000
00001000
00000000
00000100
00000000
00000001
00000000
00000100
00000000
00001000
00000000
,
01000000
00001000
00010000
00000000
00000100
00010000
00001000
00000000
01000000
00000000
00010000
00000000
01000000
00000000
10000000
00000000
,
01000000
01000000
01000000
01000000
01000000
01000000
01000000
01000000
,
00100000
00000000
01000000
00100000
01000000
00000000
00010000
00000000
00100000
00000000
01000000
00000000
01100000
00000000
00000000
00000000
,
01000000
00100000
00000000
00100000
00010000
00000000
00010000
00001000
,
00000000
00000000
00001000
00000000
00000100
00000000
00000001
00000000
00000100
00001000
00000100
00000000
00010000
00000000
00001000
00000000
,
00100000
00000000
00010000
01000000
00000000
01000000
00100000
00000000
,
00100000
10000000
00000000
10000000
01000000
00100000
00101000
00000000
,
00001000
00010000
00000000
00010000
00000100
00000000
00000100
00000010
,
00000000
00000000
00000100
00000000
00010000
00000000
00001000
00000000
00100000
00010000
00100000
00000000
01000000
00000000
10000000
00000000
,
00100000
00000000
00100000
10000000
00000000
00010000
00100000
00000000
,
00001000
00000000
00010000
00000000
00011000
00000000
00000000
00000000
00001000
00000100
00000010
00000000
00000110
00000000
00000000
00000000
,
00000001
00000010
00001000
00010000
01000000
10000000
00100000
00010000
,
00000000
00000000
10000000
00000000
01000000
00000000
00010000
00000000
00100000
00001000
00010000
00000000
00001000
00000000
00000100
00000000
,
00000001
00000000
00000001
00000100
00001000
00010000
00100000
00000000
,
10000000
00000000
01000000
00000000
00010000
00000000
01000000
00000000
10000000
00100000
01000000
00000000
01100000
00000000
00000000
00000000
,
10000000
01000000
00010000
00001000
00010000
00100000
00010000
00001000
,
00000000
00000000
00000100
00000000
00000001
00000000
00000010
00000000
00000100
00000010
00000100
00000000
00001000
00000000
00000100
00000000
,
00010100
00000000
00000001
00000100
00001000
00010000
00001000
00000000
,
00010000
00000000
01000000
00000000
10000000
00100000
01000000
00010000
00100000
00000000
01000000
00000000
00100000
00000000
00000000
00000000
,
10010000
00000000
00000000
00000000
,
00000000
00000000
00000000
00000000
;
