
//----- song ID: alba -----//
#TITLE:I’m an Albatraoz;
#ARTIST:AronChupa;
#BANNER:I'm an Albatraoz.png;
#BACKGROUND:I'm an Albatraoz-bg.png;
#CDTITLE:./CDTitles/DDR A20.png;
#MUSIC:I'm an Albatraoz.ogg;
#SAMPLESTART:31.893;
#SAMPLELENGTH:15;
#BPMS:0=128;
#NOTES:
     dance-single:
     :
     Beginner:
     2:
     :
0000
0000
0000
0000
,
0000
0000
0000
0000
,
0000
0000
0000
0000
,
0000
0000
0000
0000
,
0000
0000
0000
0000
,
0001
0000
0000
0000
,
0001
0000
0000
0000
,
1000
0000
0000
0000
,
1000
0000
0000
0000
,
0010
0000
0000
0000
,
0010
0000
0000
0000
,
0100
0000
0000
0000
,
0100
0000
0000
0000
,
0001
0000
0000
0000
,
1000
0000
0000
0000
,
0001
0000
0000
0000
,
1001
0000
0000
0000
,
1000
0000
0000
0000
,
0010
0000
0010
0000
,
1000
0000
0000
0000
,
1001
0000
0000
0000
,
0001
0000
0000
0000
,
0010
0000
0010
0000
,
0001
0000
0000
0000
,
1001
0000
0000
0000
,
0010
0000
0000
0000
,
0100
0000
0000
0000
,
0010
0000
0000
0000
,
0100
0000
0000
0000
,
0001
0000
0001
0000
,
1000
0000
1000
0000
,
0001
0000
0000
0000
,
1001
0000
0000
0000
,
1000
0000
1000
0000
,
1000
0000
0000
0000
,
0010
0000
0000
0000
,
1001
0000
0000
0000
,
0001
0000
0001
0000
,
0001
0000
0000
0000
,
0010
0000
0000
0000
,
1001
0000
0000
0000
,
0100
0000
0100
0000
,
0100
0000
0000
0000
,
0010
0000
0000
0000
,
1001
0000
0000
0000
,
0010
0000
0010
0000
,
0010
0000
0000
0000
,
0100
0000
0000
0000
,
1001
0000
0000
0000
,
1000
0000
0100
0000
,
1000
0000
0000
0000
,
0001
0000
0100
0000
,
0001
0000
0000
0000
,
1001
0000
0000
0000
,
0000
0000
0000
0000
;
#NOTES:
     dance-single:
     :
     Easy:
     3:
     :
0000
0000
0000
0000
,
0000
0000
0000
0000
,
0000
0000
0000
0000
,
0000
0000
0000
0000
,
0000
0000
0000
0000
,
0001
0000
0100
0000
,
0001
0000
1000
0000
,
0001
0000
0010
0000
,
0001
0000
1000
0000
,
1000
0100
1000
0000
,
1000
0100
1000
0000
,
0001
0010
0001
0000
,
0001
0010
0001
0000
,
1000
0100
0010
0000
,
1000
0100
0010
0000
,
0001
0010
0100
0000
,
2002
0000
3003
0000
,
0001
0001
0001
0000
,
0001
0100
0001
0000
,
1000
1000
1000
0000
,
2002
0000
3003
0000
,
0001
0001
0010
0000
,
0001
0001
0010
0000
,
1000
1000
0010
0000
,
2002
0000
3003
0000
,
0001
1000
0001
0000
,
1000
0001
1000
0000
,
0010
0100
0010
0000
,
0100
0010
0100
0000
,
0010
0010
0010
0000
,
0100
0100
0100
0000
,
1000
0000
0001
0000
,
2002
0000
3003
0000
,
0001
0000
0100
0000
,
1000
0010
1000
0000
,
0001
0000
0100
0000
,
2002
0000
3003
0000
,
1000
0000
0100
0000
,
0001
0010
0001
0000
,
1000
0000
0100
0000
,
0020
0000
0000
0030
,
0010
0100
0010
0000
,
0100
0010
0100
0000
,
0010
0100
0010
0000
,
2002
0000
3003
0000
,
1000
0010
1000
0000
,
0001
0010
0001
0000
,
1000
0010
1000
0000
,
2002
0000
3003
0000
,
0010
0000
0010
0000
,
1001
0000
1001
0000
,
0100
0000
0100
0000
,
1001
0000
1001
0000
,
2002
0000
0000
0000
,
3003
0000
0000
0000
,
0000
0000
0000
0000
;
#NOTES:
     dance-single:
     :
     Medium:
     7:
     :
0000
0000
0000
0000
,
0000
0000
0000
0000
,
0000
0000
0000
0000
,
0000
0000
0000
0000
,
0000
0000
0000
0000
,
0001
1000
0001
0001
,
1000
0001
1000
1000
,
0010
0100
0010
0010
,
0100
0010
0100
0100
,
0001
0010
0100
1000
,
0001
0000
0000
1000
0000
0001
1000
0000
0000
0000
0000
0000
,
1000
0100
0010
0001
,
1000
0000
0000
0001
0000
1000
0001
0000
0000
0000
0000
0000
,
0001
0100
1000
0100
,
0001
0010
1000
0010
,
0001
0010
1000
0100
,
1001
0110
2002
3003
,
0010
0000
0000
0100
0000
0000
0010
0000
0010
0100
0000
0000
,
0001
0000
0000
1000
0000
0000
0001
0000
0001
1000
0000
0000
,
0001
0000
0000
0010
0000
0000
0001
0000
0001
0010
0000
0000
,
0100
1000
0220
0330
,
0001
0000
0000
0100
0000
0000
1000
0000
1000
0100
0000
0000
,
0001
0000
0000
0100
0000
0000
1000
0000
1000
0001
0000
0000
,
1000
0000
0000
0100
0000
0000
0001
0000
0001
0100
0000
0000
,
1000
0010
2002
3003
,
0001
0010
0001
0100
,
0001
0000
0000
0010
0000
0010
0001
0000
0000
1001
0000
0000
,
1000
0010
1000
0100
,
1000
0000
0000
0010
0000
0010
1000
0000
0000
1001
0000
0000
,
0001
0100
0010
1000
,
0100
0010
0001
1000
,
0010
0001
0100
1000
,
0110
1001
0220
0330
,
0001
0000
0000
1000
0000
0000
0100
0000
0100
0010
0000
0000
,
0001
0000
0000
1000
0000
0000
0010
0000
0010
0100
0000
0000
,
0001
0000
0000
0010
0000
0000
1000
0000
1000
0100
0000
0000
,
0001
0010
2002
3003
,
1000
0000
0000
0010
0000
0000
0100
0000
0100
0001
0000
0000
,
0001
0000
0000
0010
0000
0000
0100
0000
0100
1000
0000
0000
,
0010
0000
0000
0100
0000
0000
0001
0000
0001
1000
0000
0000
,
0100
0001
0010
1000
,
0100
0000
0000
0001
0000
0000
0100
0000
1000
0100
0000
0000
,
1000
0000
0000
0010
0000
0000
0001
0000
0010
0001
0000
0000
,
1000
0000
0000
0100
0000
0000
0010
0000
0001
0010
0000
0000
,
0100
1000
0220
0330
,
0001
0000
0000
0010
0000
0000
1000
0000
0100
1000
0000
0000
,
0001
0000
0000
0100
0000
0000
1000
0000
0010
1000
0000
0000
,
0001
0000
0000
0010
0000
0000
1000
0000
0100
1000
0000
0000
,
0001
0010
2002
3003
,
0010
1000
0100
0001
,
0010
1000
0100
0001
,
0010
0001
0100
1000
,
0010
0001
0100
1000
,
2002
0000
0000
0000
,
3003
0000
0000
0000
,
0000
0000
0000
0000
;
#NOTES:
     dance-single:
     :
     Hard:
     11:
     :
0000
0000
0000
0000
,
0000
0000
0000
0000
,
0000
0000
0000
0000
,
0000
0000
0000
0000
,
0000
0000
0000
0000
,
0002
0000
0000
1003
0000
1000
0001
0000
0000
1001
0000
0001
,
1000
0000
1000
0001
0000
0001
1000
0000
0000
1001
0000
0000
,
0200
0000
0000
0310
0000
0010
0100
0000
0000
0110
0000
0010
,
0100
0000
0100
0010
0000
0010
0100
0000
0000
0110
0000
0100
,
0001
0000
0001
0010
0000
0010
0100
0000
0100
1000
0000
1000
,
0010
0000
0010
0100
0000
0100
0001
0000
1001
0000
0000
0001
,
1000
0000
1000
0100
0000
0100
0010
0000
0010
0001
0000
0001
,
0100
0000
0100
0010
0000
0000
1001
0000
0000
0000
0000
0100
,
0010
0000
0010
0100
0000
0100
0010
0000
0010
0100
0010
0100
,
0001
0000
0001
1000
0000
1000
0001
0000
0001
1000
0001
1000
,
0001
0100
1000
0010
,
0001
0000
0100
1000
0000
0010
0001
0000
0000
1001
0000
0000
,
0020
0000
0000
1030
0000
0100
1000
0000
0010
1000
0000
0100
,
1000
0000
0010
1000
0000
0100
1000
0000
0010
1000
0000
0000
,
0200
0000
0000
0301
0000
0010
0001
0000
0100
0001
0000
0010
,
0001
0000
0100
1000
0000
0010
0001
0000
0000
1001
0000
1000
,
0002
0000
0000
0103
0000
0000
0010
0000
1000
0010
0000
0000
,
1000
0000
0100
0010
0100
0010
0100
0000
0010
0001
0000
0000
,
2000
0000
0000
3100
0000
0000
0010
0000
0001
0010
0000
0000
,
0001
0000
0010
1000
0000
0100
0001
0000
0000
1001
0000
0000
,
0001
1000
0001
1000
,
0001
1000
0001
0110
,
1000
0000
1000
0100
0000
0100
1000
0000
1000
0100
0000
0000
,
0001
0000
0001
0100
0000
0100
0001
0000
0001
0100
0000
0000
,
0010
0000
0010
0100
0000
0100
0010
0000
0010
0100
0000
0100
,
0010
0000
0010
0100
0000
0100
0010
0000
0000
0100
0000
0000
,
0010
1000
0100
0001
,
0010
0000
1000
0100
0000
0001
0010
0000
0000
1001
0000
0000
,
0100
0000
0000
1001
0000
0000
1000
0000
0100
0010
0000
0000
,
0001
0000
0000
1001
0000
0100
0010
0000
0001
1000
0000
0000
,
0100
0000
0000
1001
0000
0001
0100
0000
0100
0010
0000
0000
,
1000
0000
0010
0001
0000
0100
1000
0000
0000
1001
0000
0100
,
0010
0000
0000
0110
0000
0000
0001
0000
1000
0100
0000
0000
,
1001
0000
0000
0010
0100
0010
0100
0000
0001
1000
0000
0000
,
0110
0000
0000
0001
0010
0100
1000
0000
0001
1000
0000
0000
,
0100
0001
0010
1000
,
0020
0000
0000
1030
0000
1000
0100
0000
0100
0010
0000
0000
,
0002
0000
0000
0013
0000
0010
0100
0000
0100
1000
0000
0000
,
0020
0000
0000
0130
0000
0100
0001
0000
0001
1000
0000
0000
,
0010
0000
0001
0100
0000
1000
0010
0000
0000
1001
0000
1000
,
0002
0000
0000
1003
0000
1000
0100
0000
0100
0010
0000
0000
,
0002
0000
0000
0103
0010
0100
0010
0000
0010
0100
0000
0000
,
0002
0000
0000
1003
0001
1000
0001
0000
0001
1000
0000
0000
,
0010
0000
1000
0100
0000
0001
0010
0000
0000
1001
0000
0000
,
0010
0000
0010
0001
0000
0001
0100
0000
0100
1000
0000
1000
,
0010
0000
0010
0001
0000
0001
0100
0000
0100
1000
0000
1000
,
0010
0000
0010
1000
0000
1000
0100
0000
0100
0001
0000
0001
,
0010
0000
0010
1000
0000
1000
0100
0000
0100
0001
0000
0001
,
0020
0000
0000
0000
,
0030
0000
0000
0000
,
0000
0000
0000
0000
;
#NOTES:
     dance-double:
     :
     Easy:
     4:
     :
00000000
00000000
00000000
00000000
,
00000000
00000000
00000000
00000000
,
00000000
00000000
00000000
00000000
,
00000000
00000000
00000000
00000000
,
00000000
00000000
00000000
00000000
,
00001000
00000000
00001000
00000000
,
00010000
00000000
00010000
00000000
,
00001000
00000000
00010000
00000000
,
00001000
00000000
00010000
00000000
,
00001000
00000010
00001000
00000000
,
00000010
00000001
00000010
00000000
,
00000001
00001000
00000001
00000000
,
00000100
00001000
00000100
00000000
,
00001000
00010000
00001000
00000000
,
00001000
00010000
00100000
00000000
,
10000000
01000000
00100000
00000000
,
20020000
00000000
30030000
00000000
,
10000000
10000000
10000000
00000000
,
01000000
00001000
00010000
00000000
,
00001000
00001000
00001000
00000000
,
00000220
00000000
00000330
00000000
,
00000001
00000001
00000010
00000000
,
00000100
00001000
00000100
00000000
,
00010000
00010000
00001000
00000000
,
00022000
00000000
00033000
00000000
,
00100000
00010000
00100000
00000000
,
01000000
10000000
01000000
00000000
,
00100000
00001000
00100000
00000000
,
00001000
00010000
00001000
00000000
,
00000010
00000010
00000001
00000000
,
00000100
00000100
00001000
00000000
,
00010000
00000000
00001000
00000000
,
00022000
00000000
00033000
00000000
,
00010000
00000000
01000000
00000000
,
10000000
00000000
00100000
00000000
,
00010000
00000000
00001000
00000000
,
00022000
00000000
00033000
00000000
,
00001000
00000000
00000100
00000000
,
00000001
00000000
00000010
00000000
,
00001000
00000000
00010000
00000000
,
00022000
00000000
00033000
00000000
,
00100000
00100000
00100000
00000000
,
01000000
01000000
01000000
00000000
,
00001000
00010000
00001000
00000000
,
00022000
00000000
00033000
00000000
,
00000010
00000010
00000010
00000000
,
00000100
00000100
00000100
00000000
,
00010000
00001000
00010000
00000000
,
00022000
00000000
00033000
00000000
,
00100000
00000000
10010000
00000000
,
01000000
00000000
00011000
00000000
,
00000100
00000000
00001001
00000000
,
00000010
00000000
00011000
00000000
,
00022000
00000000
00000000
00000000
,
00033000
00000000
00000000
00000000
,
00000000
00000000
00000000
00000000
;
#NOTES:
     dance-double:
     :
     Medium:
     7:
     :
00000000
00000000
00000000
00000000
,
00000000
00000000
00000000
00000000
,
00000000
00000000
00000000
00000000
,
00000000
00000000
00000000
00000000
,
00000000
00000000
00000000
00000000
,
00000001
00000010
00000001
00000100
,
00000010
00001000
00000100
00001000
,
00000100
00010000
00001000
00010000
,
01000000
00100000
00010000
00100000
,
00010000
10000000
01000000
00100000
,
01000000
00000000
00000000
00010000
00000000
00000000
00001000
00000000
00010000
00001000
00000000
00000000
,
00010000
00000100
00000010
00000001
,
00000100
00000010
00001001
00000000
,
00000001
00000001
00000010
00000010
,
00001000
00001000
00010000
00010000
,
01000000
00100000
01000000
00000000
,
10000000
00010000
20020000
30030000
,
10000000
00000000
00000000
00100000
00000000
00000000
01000000
00000000
00010000
01000000
00000000
00000000
,
00100000
00010000
00001000
00011000
,
00010000
00000000
00000000
00000100
00000000
00000000
00000010
00000000
00000100
00000010
00000000
00000000
,
00000001
00000100
00002002
00003003
,
00000001
00000000
00000000
00000100
00000000
00000000
00000010
00000000
00001000
00000010
00000000
00000000
,
00000100
00001000
00010000
00011000
,
00001000
00000000
00000000
00100000
00000000
00000000
01000000
00000000
00100000
01000000
00000000
00000000
,
10000000
00100000
20020000
30030000
,
10000000
01000000
00010000
01000000
,
00100000
00001000
00010000
00001000
,
00000100
00000001
00000100
00001000
,
00000010
00010000
00001000
00010000
,
00100000
00000000
10000000
00100000
00000000
00000000
10000000
00000000
01000000
00010000
00000000
00000000
,
00001000
00000000
00010000
00001000
00000000
00000000
00010000
00000000
00001000
00000010
00000000
00000000
,
00000001
00000100
00001000
00000000
,
00010000
00100000
02200000
03300000
,
10000000
00000000
00000000
01000000
00000000
00000000
00100000
00000000
00010000
00100000
00000000
00000000
,
01000000
00010000
00001000
00011000
,
00010000
00000000
00000000
00000010
00000000
00000000
00000100
00000000
00000010
00000100
00000000
00000000
,
00000001
00000010
00002002
00003003
,
00000001
00000000
00000000
00000010
00000000
00000000
00000100
00000000
00001000
00000100
00000000
00000000
,
00000010
00001000
00010000
00011000
,
00001000
00000000
00000000
01000000
00000000
00000000
00100000
00000000
01000000
00100000
00000000
00000000
,
10000000
01000000
00010000
00100000
,
10000000
00000000
00000000
00100000
00000000
00100000
01000000
00000000
01000000
00001000
00000000
00000000
,
00010000
00000000
00000000
00000100
00000000
00000100
00001000
00000000
00001000
00000001
00000000
00000000
,
00000100
00000000
00000000
00000010
00000000
00000010
00010000
00000000
00010000
00001000
00000000
00000000
,
01000000
00100000
20020000
30030000
,
10000000
00000000
00000000
01000000
00000000
00000000
00100000
00000000
00100000
01000000
00000000
00000000
,
00010000
00001000
00000010
00000001
,
00000100
00000000
00000000
00000010
00000000
00000010
00000100
00000000
00000100
00000010
00000000
00000000
,
00001000
00000001
00002002
00003003
,
00000001
00000100
00001000
00001000
,
00010000
00100000
10000000
10000000
,
10000000
01000000
00010000
00010000
,
00001000
00000010
00000001
00000001
,
00002002
00000000
00000000
00000000
,
00003003
00000000
00000000
00000000
,
00000000
00000000
00000000
00000000
;
#NOTES:
     dance-double:
     :
     Hard:
     11:
     :
00000000
00000000
00000000
00000000
,
00000000
00000000
00000000
00000000
,
00000000
00000000
00000000
00000000
,
00000000
00000000
00000000
00000000
,
00000000
00000000
00000000
00000000
,
00000002
00000000
00000000
00001003
00000000
00001000
00000001
00000000
00000000
00000001
00000000
00000001
,
00000100
00000000
00000100
00000010
00000000
00000010
00001000
00000000
00000000
00000100
00000000
00000000
,
00020000
00000000
00000000
00031000
00000000
00001000
00100000
00000000
00000000
00001000
00000000
00001000
,
00010000
00000000
00010000
01000000
00000000
01000000
10000000
00000000
00000000
10010000
00000000
00000000
,
10000000
00000000
10000000
00100000
00000000
00100000
01000000
00000000
01000000
00010000
00000000
00010000
,
00100000
00000000
00100000
00001000
00000000
00001000
00010000
00000000
00011000
00000000
00000000
00010000
,
00000100
00000000
00000100
00001000
00000000
00001000
00000001
00000000
00000001
00000010
00000000
00000010
,
00000100
00000000
00000100
00000010
00000000
00000000
00001001
00000000
00000000
00000000
00000000
00000001
,
00000100
00000000
00000100
00000010
00000000
00000010
00010000
00000000
00010000
00001000
00000000
00001000
,
01000000
00000000
01000000
00100000
00000000
00100000
10000000
00000000
10000000
01000000
00000000
01000000
,
00010000
00001000
00000010
00000010
,
00000001
00000000
00000100
00001000
00000000
00000010
00000001
00000000
00000000
00001001
00000000
00000000
,
00000200
00000000
00000000
00000301
00000000
00000000
00000001
00000000
00000001
00000100
00000000
00000000
,
00000010
00000000
00000010
00010000
00000000
00010000
00001000
00000000
00001000
01000000
00000000
00000000
,
00200000
00000000
00000000
10300000
00000000
00000000
00100000
00000000
00100000
01000000
00000000
00000000
,
00100000
00000000
10000000
01000000
00000000
00010000
00100000
00000000
00000000
10010000
00000000
00000000
,
02000000
00000000
00000000
03010000
00000000
00000000
00001000
00000000
00001000
00010000
00000000
00000000
,
00001000
00000000
00001000
00000010
00000100
00000010
00000100
00000000
00000100
00010000
00000000
00000000
,
00002000
00000000
00000000
00103000
00000000
00000000
00001000
00000000
00001000
00010000
00000000
00000000
,
00001000
00000000
00000010
00000001
00000000
00000100
00001000
00000000
00000000
00001001
00000000
00000000
,
00000001
00000010
00001000
00000010
,
00001000
00010000
00001000
00010000
,
00100000
00000000
00100000
01000000
00000000
01000000
00100000
00000000
00100000
10000000
00000000
00000000
,
01000000
00000000
01000000
10000000
00000000
10000000
01000000
00000000
01000000
00010000
00000000
00000000
,
00001000
00000010
00000001
00000010
,
00000001
00000100
00000001
00000100
,
00001000
00010000
00100000
00100000
,
10000000
00000000
01000000
00010000
00000000
00100000
10000000
00000000
00000000
10010000
00000000
00000000
,
20000000
00000000
00000000
30010000
00000000
00000000
00100000
00000000
01000000
00100000
00000000
00000000
,
00100000
00000000
01000000
00100000
00000000
00001000
00100000
00000000
00001000
00010000
00000000
00000000
,
00000200
00000000
00000000
00001300
00000000
00000100
00000010
00000000
00000001
00000010
00000000
00000000
,
00000001
00000000
00000100
00001000
00000000
00000010
00000001
00000000
00000000
00001001
00000000
00000000
,
00000002
00000000
00000000
00001003
00000000
00000000
00000001
00000000
00000010
00000001
00000000
00000000
,
00000001
00000000
00000000
00001000
00000010
00001000
00000010
00000000
00000010
00010000
00000000
00000000
,
00002000
00000000
00000000
01003000
00010000
01000000
00010000
00000000
01000000
00100000
00000000
00000000
,
10000000
01000000
00010000
00100000
,
20000000
00000000
00000000
30100000
00000000
00100000
00010000
00000000
00010000
00001000
00000000
00000000
,
00000200
00000000
00000000
00000301
00000000
00001000
00000001
00000000
00001000
00000010
00000000
00000000
,
00000200
00000000
00000000
00000310
00000000
00000100
00000001
00000000
00000100
00000010
00000000
00000000
,
00000100
00000000
00000001
00000010
00000000
00001000
00000100
00000000
00000000
00001001
00000000
00000000
,
00000200
00000000
00000000
00001300
00000000
00001000
00010000
00000000
00010000
00100000
00000000
00000000
,
20000000
00000000
00000000
30010000
01000000
00010000
01000000
00000000
00010000
00100000
00000000
00000000
,
00002000
00000000
00000000
00003010
00001000
00000010
00001000
00000000
00010000
00001000
00000000
00000000
,
00010000
00000000
00100000
10000000
00000000
01000000
00010000
00000000
00000000
00011000
00000000
00000000
,
00010000
00000000
00010000
00100000
00000000
00100000
10000000
00000000
10000000
01000000
00000000
01000000
,
00010000
00000000
00010000
00001000
00000000
00001000
00000010
00000000
00000010
00000001
00000000
00000001
,
00000100
00000000
00000100
00001000
00000000
00001000
00010000
00000000
00010000
00100000
00000000
00100000
,
10000000
00000000
10000000
01000000
00000000
01000000
00010000
00000000
00010000
00001000
00000000
00001000
,
00000020
00000000
00000000
00000000
,
00000030
00000000
00000000
00000000
,
00000000
00000000
00000000
00000000
;
