
//----- song ID: ilov -----//
#TITLE:I Love You;
#ARTIST:O\/iviA (dj TAKA meets Kanae Asaba);
#BANNER:I Love You.png;
#BACKGROUND:I Love You-bg.png;
#CDTITLE:./CDTitles/bm IIDX 25 CANNON BALLERS.png;
#MUSIC:I Love You.ogg;
#SAMPLESTART:29.118;
#SAMPLELENGTH:15;
#BPMS:0=170;
#NOTES:
     dance-single:
     :
     Beginner:
     4:
     :
0000
0000
0000
0000
,
0000
0000
0000
0000
,
0000
0000
0000
0000
,
0000
0000
0000
0000
,
0000
0000
0000
0000
,
0000
0000
0000
0000
,
0000
0000
0000
0000
,
0010
0000
0010
0000
,
0100
0100
0100
0000
,
0001
0000
0001
0000
,
2000
0000
3000
0000
,
1000
0000
1000
0000
,
0010
0010
0010
0000
,
0100
0000
0100
0000
,
0001
0001
0001
0000
,
1000
0000
0001
0000
,
1000
1000
1000
0000
,
0010
0000
0100
0000
,
0020
0000
0030
0000
,
2002
0000
0000
0000
,
0000
3003
0000
0000
,
0110
0000
0000
0000
,
1001
0000
0000
0000
,
0110
0000
0000
0000
,
1001
0000
0000
0000
,
0001
0001
0000
0000
,
1000
1000
0000
0000
,
0010
0010
0000
0000
,
0100
0100
0000
0000
,
1000
0001
0000
0000
,
0001
1000
0000
0000
,
0010
0100
0000
0000
,
0100
0010
0000
0000
,
1000
0000
1000
0000
,
0001
0000
0001
0000
,
0010
0000
0100
0000
,
0001
0000
1000
0000
,
0020
0000
0030
0000
,
2002
0000
3003
0000
,
0001
0001
0001
0000
,
1000
1000
1000
0000
,
0010
0010
0010
0000
,
0100
0100
0100
0000
,
0010
0010
0010
0000
,
1000
1000
1000
0000
,
0001
0001
0001
0000
,
1001
0000
0000
0000
,
0001
0001
0010
0000
,
1000
1000
0010
0000
,
0001
0001
0010
0000
,
1000
1000
0010
0000
,
0010
0010
0100
0000
,
0100
0100
0010
0000
,
0001
0000
0001
0000
,
1000
0000
1000
0000
,
0002
0000
0003
0000
,
2000
0000
3000
0000
,
0001
0000
0010
0000
,
1000
0000
0010
0000
,
0001
0000
0010
0000
,
1000
0000
0010
0000
,
0002
0000
0003
0000
,
2000
0000
3000
0000
,
0001
0000
0001
0000
,
1000
0000
1000
0000
,
0001
0001
1000
0000
,
1000
1000
0001
0000
,
0100
0100
0010
0000
,
0010
0010
0100
0000
,
0001
0000
0100
0000
,
1000
0000
0100
0000
,
0002
0000
0003
0000
,
2000
0000
3000
0000
,
0002
0000
0003
0000
,
2002
0000
3003
0000
,
0010
0000
0010
0000
,
0100
0100
0100
0000
,
0001
0000
0001
0000
,
1000
1000
1000
0000
,
0100
0000
0100
0000
,
0010
0010
0010
0000
,
0100
0000
0100
0000
,
1000
1000
1000
0000
,
0001
0001
0001
0000
,
0100
0000
0010
0000
,
2002
0000
3003
0000
,
0000
0000
0000
0000
;
#NOTES:
     dance-single:
     :
     Easy:
     8:
     :
0000
0000
0000
0000
,
0000
0000
0000
0000
,
0000
0000
0000
0000
,
0000
0000
0000
0000
,
0000
0000
0000
0000
,
0000
0000
0000
0000
,
0000
0000
0000
0000
,
0010
1000
0010
0100
,
0001
0001
1000
1000
,
0001
0010
0100
1000
,
0020
0000
0000
0000
0130
0100
0100
0000
,
1000
0010
1000
0100
,
0010
0001
0010
0100
,
1000
0001
1000
0010
,
0100
0010
0100
0001
,
0010
0100
1000
0001
,
1000
1000
0001
0001
,
0010
0100
0010
0100
,
1000
0001
0100
0010
,
2002
0000
0000
0000
,
0000
0000
3003
0000
0000
0100
0000
0010
,
0200
0000
0300
0000
0000
0010
0000
0100
,
0020
0000
0030
0000
0000
0100
0000
0010
,
0200
0000
0300
0010
1000
0000
0001
0100
,
0000
0010
0000
1000
0000
0001
0000
0100
,
0002
0000
0003
0000
0000
0010
0000
0100
,
0020
0000
0030
0000
0000
0100
0000
0010
,
0200
0000
0300
0000
0000
1000
0000
0001
,
2000
0000
3000
0001
0000
1000
0001
1000
,
0000
0001
1000
0000
0010
0000
0100
0000
,
1001
0001
0100
0010
,
1001
0100
0010
1000
,
1001
1000
0100
0010
,
1001
0110
0001
1000
,
0110
2002
0000
3003
,
0001
0000
1000
0000
0001
1000
0001
0000
,
0010
0000
0100
0000
0010
0100
0010
0000
,
0001
0001
1000
1000
,
2002
0000
0000
3003
,
0001
0100
0001
1001
,
1000
0100
1000
1001
,
0010
0100
0010
1001
,
0010
0100
0010
0000
1000
0001
1000
0000
,
1001
0000
0010
0000
0100
0010
0100
0000
,
1001
0000
0100
0000
0010
0100
0010
0000
,
0110
0000
1000
0000
0001
1000
0001
0000
,
0110
0000
0001
0000
1000
0001
1000
0000
,
0110
1000
0010
0100
,
0101
0001
0010
0100
,
1100
1000
0100
0010
,
0011
0001
0100
0010
,
1010
1001
0010
0100
,
0101
2002
3003
0001
,
0110
0010
1100
0010
,
0101
0010
0100
0010
,
1000
1000
0001
0001
,
0220
0000
0000
0330
,
0001
0000
0100
0000
0010
0100
0010
0000
,
1000
0000
0100
0000
0010
0100
0010
0000
,
0001
0000
1000
0000
0001
1000
0001
0000
,
0110
1001
0110
1001
,
0010
1000
2200
3300
,
0010
0001
0202
0303
,
0001
0001
1000
1000
,
0010
0010
0100
0100
,
0001
0000
0100
0000
0001
0100
0001
0000
,
1000
0000
0100
0000
1000
0100
1000
0000
,
0010
0000
1000
0000
0010
1000
0010
0000
,
0100
0000
0001
0000
0010
0001
0010
0000
,
0100
0000
0010
0000
0100
0010
0100
0000
,
1000
0000
0001
0000
1000
0001
1000
0000
,
0010
1000
0001
0100
,
0010
1000
0100
0010
,
2002
0000
0000
0000
,
3003
0000
0000
1001
,
0001
0010
0001
0100
,
0010
1000
0010
0100
,
0001
1000
0001
0010
,
0100
0010
0100
1000
,
0010
0100
0001
1000
,
0001
0001
1000
1000
,
0010
0100
0010
0100
,
0001
0000
1000
0000
0100
0010
0100
0000
,
0010
0000
0001
0000
0100
0010
0100
0000
,
0002
0000
1003
0000
0010
0010
0000
2002
,
0000
0000
3003
0000
,
0000
0000
0000
0000
;
#NOTES:
     dance-single:
     :
     Medium:
     13:
     :
0000
0000
0000
0000
,
0000
0000
0000
0000
,
0000
0000
0000
0000
,
0000
0000
0000
0000
,
0000
0000
0000
0000
,
0000
0000
0000
0000
,
0000
0000
0000
0000
,
1000
0001
0100
0010
1000
0100
0010
0001
,
1000
0001
0000
1000
0001
0000
1000
0001
0000
1000
0001
0000
0010
0000
0100
0000
,
1000
0010
0100
0001
0010
0100
1000
0100
,
0020
0000
0000
0000
0130
0100
0010
0010
,
0001
0100
0001
0100
0010
1000
0100
0010
,
0001
0100
1000
0100
0001
0100
1000
0100
,
0001
0010
0001
0010
0100
1000
0010
0100
,
0010
1000
0010
0001
0010
1000
0010
0001
,
0010
1000
0100
0010
0001
0100
0010
1000
,
0001
1000
0000
0001
1000
0000
0001
1000
0000
0001
1000
0000
0100
0000
0010
0000
,
0001
0010
0100
0010
0100
1000
0010
0100
,
0010
0100
0001
0010
1000
0010
0001
0100
,
0020
0000
0000
0000
,
0000
0000
0030
0000
0000
0100
0000
0100
,
0200
0000
0000
0000
0000
0301
0000
0001
,
0002
0000
0000
0000
0000
0013
0000
0010
,
0020
0000
0000
0130
1000
0001
0100
0010
,
0000
0110
0000
1001
0000
1000
0000
1000
,
2000
0000
0000
0000
0000
3100
0000
0100
,
0200
0000
0000
0000
0000
0310
0000
0010
,
0020
0000
0000
0000
0000
0031
0000
0001
,
0002
0000
0000
1003
0000
0010
0100
0010
,
1000
0100
2000
0000
0000
3001
0010
0001
,
0100
0200
0000
0000
0000
0310
1000
0100
,
0010
0020
0000
0000
0000
0031
0100
0010
,
1000
2000
0000
0000
3001
0010
0001
0011
,
0000
0101
0000
0001
0100
0010
1000
1010
,
0000
0220
0000
0000
0330
0010
1000
0001
,
1000
0000
0010
0100
0000
0001
0010
0100
,
0000
1000
0010
0001
0010
1000
0100
0001
,
0100
1000
0010
0100
0001
0010
0100
0020
,
0000
0000
0000
0000
0030
0200
0000
0310
,
0001
0100
0100
0010
1000
1000
0100
0010
,
0001
1000
1000
0010
0100
0100
0001
0010
,
0100
0010
0010
0001
1000
1000
0010
0110
,
0000
1001
0000
0110
0000
1001
0000
0001
,
1000
0100
0100
0010
0001
0001
0100
0010
,
1000
0001
0001
0010
0100
0100
1000
0010
,
0100
0010
0010
1000
0001
0001
0010
0100
,
0010
0000
0001
0000
0001
0000
1000
0000
0010
0000
0010
0000
0100
0010
0100
0000
,
0010
1000
0100
0001
0100
1000
0010
0010
,
1000
0010
0001
0010
1000
0100
0010
0010
,
0001
0010
1000
0001
0100
1000
0001
0001
,
1000
0010
0001
1000
0100
0001
1000
1001
,
0000
0110
0000
0001
0010
0100
1000
1001
,
0000
0220
0000
0330
0000
1000
0010
0100
,
0110
0000
0010
0020
0000
0130
0200
0000
,
0300
0001
0010
1000
0010
0001
1000
0100
,
0001
1000
0010
0100
0010
0001
1000
0200
,
0000
0000
0000
0300
,
0001
0010
0100
0010
0001
0100
0101
0000
,
1000
0010
0100
0010
1000
0100
1100
0000
,
0001
0100
1000
0001
0010
1000
1001
0000
,
0011
1010
1100
0101
,
0010
0000
0010
0000
0100
0000
0010
0000
0000
0000
0220
0000
0000
0330
0000
0000
,
1000
1000
0001
1000
0000
2002
0000
3003
,
0000
0001
0001
0100
0010
0010
1000
1000
,
1001
0000
0110
1001
0000
1100
0000
0101
,
0001
0010
0100
1000
0010
0100
0010
0000
,
1000
0001
0010
0100
1000
0001
0100
0000
,
0010
1000
0001
0100
0010
1000
0100
0000
,
1000
0100
0000
0000
0100
0010
0000
0000
0010
0001
0000
0000
0001
0100
0000
0000
,
0001
0100
0010
1000
0001
0100
0010
0000
,
1000
0001
0010
0100
0010
0001
1000
0000
,
0001
0100
0001
0100
0010
1000
0010
1000
,
0100
0010
0100
0010
0001
1000
0001
1000
,
0002
0000
0000
0000
,
1003
0100
0010
0001
0100
0000
0110
0000
,
1000
0100
1000
0100
0010
0001
0100
0010
,
1000
0100
0001
0100
1000
0100
0001
0100
,
1000
0010
1000
0010
0100
0001
0010
0100
,
0010
0001
0010
1000
0010
0001
0010
1000
,
0010
0001
0100
0010
1000
0100
0010
0001
,
1000
0001
0000
1000
0001
0000
1000
0001
0000
1000
0001
0000
0100
0000
0010
0000
,
1000
0010
0100
0010
0001
0010
0100
0001
,
0010
0100
0010
0001
1000
1000
1000
0000
,
0001
0100
0010
1000
0001
0001
0001
0000
,
0200
0000
0310
0000
0100
0100
0000
2002
,
0000
0000
3003
0000
,
0000
0000
0000
0000
;
#NOTES:
     dance-single:
     :
     Hard:
     16:
     :
0000
0000
0000
0000
,
0000
0000
0000
0000
,
0000
0000
0000
0000
,
0000
0000
0000
0000
,
0000
0000
0000
0000
,
0000
0000
0000
0000
,
0000
0000
0000
0000
,
0010
1000
0010
0100
0001
0010
0001
0100
,
0001
0100
0000
0010
1000
0000
0100
0010
0000
0001
1000
0000
0100
0000
0010
0000
,
0001
0100
1000
0100
0001
0010
1000
0010
,
0002
0000
0000
0000
0000
0000
0000
0000
1003
0000
1000
0000
0001
1000
0001
0000
,
1001
0000
0001
0010
0001
0000
0100
0000
0010
1000
0010
0000
0100
0000
0001
0000
,
0020
0000
0000
0000
0130
1000
0100
1000
0001
0010
0001
0010
0100
0000
1000
0000
,
0002
0000
1003
0100
1000
0000
0002
0000
1003
0100
1000
0000
0001
0100
0001
0000
,
1000
0100
0010
0100
1000
0001
0010
0100
0020
0000
0031
0010
0100
0010
0100
1000
,
0010
0000
1000
0010
0100
0000
0010
0000
0100
0010
1000
0000
0100
0010
0001
0000
,
1000
0010
0000
1000
0010
0000
0100
0001
0000
0100
0001
0000
0010
0000
0001
0000
,
1000
0100
1000
0100
0010
0000
0001
0100
0000
0001
0100
0000
0010
0000
0100
0000
,
0010
1000
0010
0001
1000
0100
0001
0100
,
0020
0000
0000
0000
,
0000
0000
0030
0000
0000
0100
0000
0010
,
1001
0000
0000
0000
0000
0100
0000
0010
,
1001
0000
0000
0000
0000
0100
0000
0010
,
1001
0000
0000
0100
0001
1000
0100
1000
,
0000
1100
0000
0101
0000
0110
0000
0010
,
1001
0000
0000
0000
0000
0100
0000
0010
,
1001
0000
0000
0000
0000
0100
0000
0010
,
1001
0000
0000
0000
0000
0100
0000
0010
,
1001
0000
0000
0002
0000
1003
0010
0100
,
0000
0000
0010
0000
1001
0000
0000
0000
0000
0000
0001
0010
0001
0000
0100
0000
,
0110
0000
1010
0000
0000
0000
0000
0000
0000
0000
1000
0100
1000
0000
0100
0000
,
0110
0000
0011
0000
0000
0000
0000
0000
0000
0000
0001
0100
0010
0000
0100
0000
,
1001
0000
0110
0000
0000
0000
0000
0000
1000
0001
0100
0000
0010
0000
0110
0000
,
0000
0000
0101
0000
0000
0000
0100
0000
0001
0100
0001
0000
0010
0000
0110
0000
,
0000
0000
2200
0000
0000
0000
3300
0000
0000
0000
1000
0100
0010
0000
0100
0000
,
0110
0000
1000
0001
0000
0100
0010
1000
,
0000
0000
0001
0100
0001
0000
0010
0000
0100
0000
1000
0000
0010
0000
0100
0000
,
0010
1000
0010
0000
0100
0000
0010
0001
0010
0000
0100
0000
0001
0000
0020
0000
,
0000
0000
0000
0000
0030
0200
0000
0310
,
0001
0010
0100
0000
0001
0000
0100
0010
0001
0000
0100
0000
0010
1000
0001
0000
,
1000
0010
0100
0000
1000
0000
0100
0010
1000
0000
0100
0000
0010
0001
1000
0000
,
0001
0010
0100
0000
0010
0000
1000
0010
0100
1000
0001
0000
0100
0000
0110
0000
,
0000
1100
0000
0101
0000
1001
0000
0110
,
1000
0100
0010
0000
1000
0000
0010
0100
1000
0000
0010
0000
0100
0001
1000
0000
,
0001
0100
0010
0000
0001
0000
0010
0100
0001
0000
0010
0000
0100
1000
0001
0000
,
1000
0100
0010
0000
0100
0000
0001
0100
0010
0000
0100
0000
1000
0000
0001
0000
,
0100
0010
1000
0000
0001
0000
1000
0100
0010
0000
0001
0000
1000
0000
0010
0000
,
0100
0010
1000
0010
1000
0000
0100
0000
0010
0001
1000
0000
0001
0100
1000
0000
,
0100
0001
1000
0001
1000
0000
0010
0000
0100
0001
1000
0000
0001
0010
1000
0000
,
0010
0001
1000
0001
1000
0000
0010
0000
1000
0001
0100
0000
0001
0010
1000
0000
,
0010
0001
0100
0001
0100
0000
0001
0000
0010
0100
0010
0000
0001
0000
0100
0000
,
0101
0000
0001
0000
0010
0000
0100
0000
1000
0100
1000
0000
0100
0000
1000
0000
,
1100
0000
0100
0000
0010
0000
0001
0000
1000
0000
0001
1000
0001
0000
0010
0000
,
0110
0000
1000
1100
0000
0001
0100
0110
,
0000
1000
0010
0001
0010
1000
0100
0001
,
0100
0010
0100
0000
1000
0000
0100
0010
0100
0000
0010
0000
0001
0000
2002
0000
,
0000
0000
0000
3003
,
0001
0010
0000
0001
0100
0000
0001
0010
0000
0001
0100
0000
0001
0100
0010
0000
,
1000
0100
0000
1000
0010
0000
1000
0100
0000
1000
0010
0000
1000
0100
0010
0000
,
0001
0010
0000
1000
0010
0000
0001
0010
0000
1000
0010
0000
0001
1000
0010
0000
,
1000
0010
1000
0000
0001
0010
0001
0000
1000
0100
1000
0000
0001
0100
0001
0000
,
0010
0100
0010
0000
0001
0000
0101
0000
0000
0000
1100
0000
0000
0000
0010
0000
,
0100
0010
0100
0000
1000
0000
1100
0000
0000
0000
0101
0000
0000
0000
0100
0000
,
0000
0000
0010
0100
0010
0000
0100
0000
0010
0100
0010
0000
1000
0000
0001
0000
,
1000
0100
1000
0100
0010
0001
0010
0001
1000
0010
1000
0010
0100
0001
0100
0001
,
0010
0001
0000
0010
1000
0000
0010
0001
0000
0010
1000
0000
0010
0100
1000
0000
,
0100
0001
0000
0100
1000
0000
0100
0001
0100
0010
0001
0000
0100
0010
1000
0000
,
0001
0010
0000
0010
0100
0000
0100
1000
0000
0100
1000
0000
0001
1000
0001
0000
,
1000
0010
1000
0000
0001
0100
0001
0000
0010
0001
0010
0000
0100
1000
0100
0000
,
0010
0001
0000
0001
1000
0000
1000
0100
0000
0010
0001
0010
0001
1000
0001
0000
,
0001
0010
0000
0010
0100
0000
0100
1000
0000
0100
1000
0001
1000
0001
0100
0000
,
0010
1000
0001
0100
0010
1000
0001
0100
,
0010
1000
0100
0010
0001
1000
0100
0010
,
0200
0000
0000
0000
,
0310
0000
0100
0000
0010
0100
0010
0000
0001
1000
0001
1000
0001
0000
0000
0000
,
1001
0000
1000
0010
1000
0000
0100
0000
0010
0001
0010
0000
0100
0000
1000
0000
,
0020
0000
0000
0000
0130
0001
0100
0001
1000
0010
1000
0010
0100
0000
0001
0000
,
2000
0000
3001
0100
0001
0000
2000
0000
3001
0100
0001
0000
1000
0100
1000
0000
,
0001
0100
0010
0100
0001
1000
0010
0100
0020
0000
1030
0010
0100
0010
0100
0001
,
0010
0000
0001
0010
0100
0000
0010
0000
0100
0010
0001
0000
0100
0010
1000
0000
,
0001
0010
0000
0001
0010
0000
0100
1000
0000
0100
1000
0000
0010
0000
1000
0000
,
0001
0100
0001
0100
0010
0000
1000
0100
0000
1000
0100
0000
1000
0000
0001
0000
,
0020
0000
0130
0010
0100
0000
0010
0000
0001
0000
0100
0010
0100
0010
1000
0000
,
0002
0000
1003
0001
1000
0000
0100
0000
0010
0000
0001
0100
0010
1000
0010
0100
,
0001
0100
0001
1000
0001
0000
0000
0000
0011
0000
1100
0000
0000
0000
2002
0000
,
0000
0000
3003
0000
,
0000
0000
0000
0000
;
#NOTES:
     dance-double:
     :
     Easy:
     8:
     :
00000000
00000000
00000000
00000000
,
00000000
00000000
00000000
00000000
,
00000000
00000000
00000000
00000000
,
00000000
00000000
00000000
00000000
,
00000000
00000000
00000000
00000000
,
00000000
00000000
00000000
00000000
,
00000000
00000000
00000000
00000000
,
00000001
00000100
00000001
00000010
,
00001000
00001000
00010000
00010000
,
00100000
10000000
00100000
01000000
,
00002000
00000000
00000000
00000000
00013000
00010000
00010000
00000000
,
00000100
00001000
00000010
00001000
,
00000100
00000001
00000100
00001000
,
00000100
00010000
00001000
00100000
,
01000000
00100000
01000000
00100000
,
01000000
10000000
00010000
00100000
,
01000000
01000000
00010000
00010000
,
00001000
00010000
00001000
00010000
,
00001000
00000010
00000001
00001000
,
00002002
00000000
00000000
00000000
,
00000000
00000000
00003003
00000000
00000000
00000001
00000000
00000100
,
00000002
00000000
00000003
00000000
00000000
00001000
00000000
00000100
,
00002000
00000000
00003000
00000000
00000000
00000100
00000000
00010000
,
00002000
00000000
00003000
00010000
00001000
00000000
00100000
00010000
,
00000000
00100000
00000000
01000000
00000000
10000000
00000000
01000000
,
20000000
00000000
30000000
00000000
00000000
01000000
00000000
00100000
,
02000000
00000000
03000000
00000000
00000000
00100000
00000000
00001000
,
00020000
00000000
00030000
00000000
00000000
00001000
00000000
00010000
,
00002000
00000000
00003000
00010000
00000000
00000100
00001000
00000000
,
00001001
00000010
00000100
00000001
,
00001001
00000010
00000100
00010000
,
00011000
00001000
00100000
00010000
,
10010000
00100000
01000000
00001000
,
00011000
00011000
00000100
00001000
,
00000110
00002002
00000000
00003003
,
00000010
00000000
00001000
00000000
00000100
00010000
00000100
00000000
,
00010000
00000000
00001000
00000000
00100000
00010000
00100000
00000000
,
01000000
01000000
10000000
10000000
,
20020000
00000000
00000000
30030000
,
00100000
10000000
00100000
01100000
,
01000000
00001000
00010000
00011000
,
00001000
00010000
00000100
00000110
,
00000010
00000100
00000010
00000000
00000001
00001000
00000001
00000000
,
00001001
00000000
00000010
00000000
00000100
00000010
00000100
00000000
,
00000110
00000000
00010000
00000000
00001000
00010000
00001000
00000000
,
00011000
00000000
00100000
00000000
01000000
00100000
01000000
00000000
,
01100000
00000000
10000000
00000000
00010000
10000000
00010000
00000000
,
10010000
10000000
01000000
00010000
,
00011000
00001000
01000000
00100000
,
00110000
00010000
00001000
00000100
,
00001100
00000010
00001000
00000100
,
00001100
00001001
00000010
00010000
,
00011000
00022000
00033000
00000000
,
00110000
00010000
11000000
00010000
,
01001000
00010000
00011000
00000100
,
00000010
00000010
00000100
00000100
,
00000220
00000000
00000000
00000330
,
00000001
00000000
00001000
00000000
00000010
00000100
00000010
00000000
,
00000100
00001000
00010000
00100000
,
10000000
00000000
00010000
00000000
00100000
01000000
00100000
00000000
,
01100000
00000000
00011000
00000000
,
00000100
00000001
00000022
00000033
,
00000100
00001000
00022000
00033000
,
01000000
01000000
00100000
00100000
,
10000000
10000000
00010000
00010000
,
10000000
00000000
00010000
00000000
00100000
01000000
00100000
00000000
,
01000000
00010000
00001000
00000010
,
00000001
00000000
00000100
00000000
00000010
00000100
00000010
00000000
,
00000100
00001000
00010000
01000000
,
10000000
00000000
00100000
00000000
01000000
00010000
01000000
00000000
,
00001000
00000000
00010000
00000000
00000100
00001000
00000100
00000000
,
00000010
00000001
00000100
00000010
,
00010000
00001000
00010000
00001000
,
00022000
00000000
00000000
00000000
,
00033000
00000000
00000000
00000000
,
00100000
10000000
01000000
10000000
,
00100000
01000000
00010000
00100000
,
00010000
01000000
00001000
00010000
,
00000010
00001000
00000100
00000010
,
00000001
00001000
00000010
00000100
,
00000001
00000001
00001000
00001000
,
00000001
00000100
00001000
00010000
,
00100000
00000000
10000000
00000000
01000000
00100000
01000000
00000000
,
00010000
00000000
00001000
00000000
00000010
00000100
00000010
00000000
,
00000002
00000000
00000103
00000000
00001000
00001000
00000000
00022000
,
00000000
00000000
00033000
00000000
,
00000000
00000000
00000000
00000000
;
#NOTES:
     dance-double:
     :
     Medium:
     12:
     :
00000000
00000000
00000000
00000000
,
00000000
00000000
00000000
00000000
,
00000000
00000000
00000000
00000000
,
00000000
00000000
00000000
00000000
,
00000000
00000000
00000000
00000000
,
00000000
00000000
00000000
00000000
,
00000000
00000000
00000000
00000000
,
00000001
00001000
00000010
00000100
00000010
00001000
00000100
00010000
,
00001000
00010000
00000000
00001000
00010000
00000000
00001000
00010000
00000000
00001000
00010000
00000000
00001000
00000000
00100000
00000000
,
00010000
01000000
00100000
10000000
01000000
00100000
00010000
01000000
,
00200000
00000000
00000000
00000000
10300000
10000000
00010000
00010000
,
10000000
01000000
10000000
01000000
00010000
01000000
00010000
01000000
,
00100000
00001000
00010000
00001000
00000100
00000001
00000100
00001000
,
00000100
00000001
00000100
00000001
00000010
00000001
00000010
00000100
,
00010000
00001000
00010000
01000000
10000000
01000000
00010000
01000000
,
10000000
00100000
01000000
00010000
10000000
01000000
00100000
00001000
,
00010000
00001000
00000000
00010000
00001000
00000000
00010000
00001000
00000000
00010000
00001000
00000000
00010000
00000000
00000100
00000000
,
00000010
00000001
00000010
00000100
00000010
00000100
00001000
00000010
,
00000100
00001000
00000100
00001000
00010000
00100000
00010000
00100000
,
20000000
00000000
00000000
00000000
,
00000000
00000000
30000000
00000000
00000000
01000000
00000000
01000000
,
02000000
00000000
00000000
00000000
00000000
03010000
00000000
00010000
,
00020000
00000000
00000000
00000000
00000000
00031000
00000000
00001000
,
00002000
00000000
00000000
00003010
00000001
00001000
00000010
00000100
,
00000000
00000110
00000000
00001001
00000000
00000001
00000000
00000001
,
00000002
00000000
00000000
00000000
00000000
00000103
00000000
00000100
,
00000200
00000000
00000000
00000000
00000000
00001300
00000000
00001000
,
00002000
00000000
00000000
00000000
00000000
00013000
00000000
00010000
,
00020000
00000000
00000000
00130000
00000000
00100000
01000000
00100000
,
00000000
10000000
20000000
00000000
00000000
31000000
00100000
01000000
,
00010000
00020000
00000000
00000000
00000000
00031000
00010000
00000100
,
00001000
00002000
00000000
00000000
00000000
00003010
00000100
00000001
,
00000010
00000020
00000000
00000000
00000031
00000010
00000001
00000011
,
00000000
00000101
00000000
00000000
00001000
00000100
00010000
00010100
,
00000000
00022000
00000000
00000000
00033000
00010000
00001000
01000000
,
00010000
00000000
10000000
00010000
00000000
10000000
01000000
00100000
,
00000000
00010000
01000000
10000000
01000000
00010000
10000000
00000000
,
01000000
00010000
00001000
00000010
00000000
00000001
00000100
00000200
,
00000000
00000000
00000000
00000000
00000300
00000010
00000000
00000100
,
00000001
00000010
00000001
00000100
00000010
00001000
00000100
00001000
,
00000010
00010000
00001000
00010000
00001000
00100000
00010000
01000000
,
00100000
10000000
01000000
10000000
00100000
00100000
01000000
01100000
,
00000000
10010000
00000000
01100000
00000000
10010000
00000000
00010000
,
10000000
00100000
10000000
01000000
00100000
00010000
01000000
00010000
,
00100000
00001000
00010000
00001000
00010000
00000010
00001000
00000100
,
00000010
00000001
00000100
00000001
00000010
00000001
00000100
00000010
,
00001000
00000100
00000001
00000100
00001000
00000001
00001000
00000000
,
00000010
00000100
00000001
00000010
00000100
00010000
00001000
00001000
,
00100000
00010000
01000000
10000000
01000000
00100000
10000000
10000000
,
01000000
00100000
00010000
01000000
00100000
00010000
00001000
00001000
,
00010000
00001000
00000100
00000010
00001000
00000100
00000010
00000110
,
00000000
00001001
00000000
00000001
00000010
00000100
00001000
00001001
,
00000000
00002020
00000000
00003030
00000000
00000100
00010000
00001000
,
00010000
00000000
00001000
00002000
00000000
00013000
00020000
00000000
,
00030000
00001000
01000000
00010000
10000000
00100000
10000000
01000000
,
00010000
00001000
00010000
00001000
00000000
00000010
00000000
00000002
,
00000000
00000000
00000000
00000003
,
00000001
00000100
00000010
00000100
00000010
00000000
00001010
00000000
,
00001000
00000100
00010000
00001000
00010000
00000000
00011000
00000000
,
00010000
01000000
00100000
00010000
10000000
00000000
11000000
00000000
,
10100000
00110000
00011000
00001010
,
00000001
00000000
00000001
00000000
00001000
00000000
00000001
00000000
00000000
00000000
00002002
00000000
00000000
00003003
00000000
00000000
,
00000100
00000100
00010000
00001000
00000000
00022000
00000000
00033000
,
00000000
00010000
00010000
00001000
00010000
01000000
10000000
00010000
,
10010000
00000000
01100000
10010000
00000000
10100000
00000000
00110000
,
00100000
01000000
10000000
01000000
00100000
00001000
00010000
00000000
,
00001000
00010000
00000100
00001000
00000100
00000010
00000001
00000000
,
00000100
00000010
00001000
00000001
00000100
00000010
00001000
00000000
,
00000100
00010000
00000000
00000000
00010000
00001000
00000000
00000000
00001000
01000000
00000000
00000000
01000000
00010000
00000000
00000000
,
00010000
00100000
01000000
10000000
00010000
00100000
01000000
00000000
,
10000000
01000000
00100000
00010000
10000000
01000000
00100000
00000000
,
00001000
00010000
00001000
00010000
00001000
00000010
00001000
00000000
,
00000010
00000001
00000010
00000001
00000100
00000010
00000100
00000000
,
00000020
00000000
00000000
00000000
,
00001030
00000100
00000010
00000100
00010000
00000000
00011000
00000000
,
00100000
00010000
00100000
00010000
10000000
01000000
00100000
00010000
,
01000000
10000000
01000000
00010000
01000000
10000000
01000000
00010000
,
00100000
00001000
00100000
00001000
00010000
00001000
00010000
00000100
,
00001000
00000100
00000001
00000100
00001000
00000100
00000001
00000100
,
00001000
00000010
00000100
00000001
00000010
00000100
00010000
00001000
,
00010000
00001000
00000000
00010000
00001000
00000000
00010000
00001000
00000000
00010000
00001000
00000000
00010000
00000000
00100000
00000000
,
10000000
00100000
01000000
00100000
00010000
00100000
01000000
00100000
,
10000000
01000000
00100000
00001000
00010000
00010000
00010000
00000000
,
00001000
00010000
00000100
00000010
00000001
00000001
00000001
00000000
,
00000200
00000000
00001300
00000000
00010000
00010000
00000000
00022000
,
00000000
00000000
00033000
00000000
,
00000000
00000000
00000000
00000000
;
#NOTES:
     dance-double:
     :
     Hard:
     16:
     :
00000000
00000000
00000000
00000000
,
00000000
00000000
00000000
00000000
,
00000000
00000000
00000000
00000000
,
00000000
00000000
00000000
00000000
,
00000000
00000000
00000000
00000000
,
00000000
00000000
00000000
00000000
,
00000000
00000000
00000000
00000000
,
00000001
00000010
00000001
00000100
00000010
00001000
00000100
00000010
,
00001000
00010000
00000000
00001000
00010000
00000000
01000000
00100000
00000000
01000000
00100000
00000000
00010000
00000000
10000000
00000000
,
01000000
00010000
01000000
10000000
00100000
00010000
00001000
00000100
,
00000020
00000000
00000000
00000000
00000000
00000000
00000000
00000000
00001030
00000000
00001000
00000000
00000001
00001000
00000001
00000000
,
00001001
00000000
00000001
00000010
00000001
00000000
00000100
00000000
00000010
00001000
00000010
00000000
00000100
00000000
00001000
00000000
,
00020000
00000000
00000000
00000000
00130000
10000000
00100000
10000000
00010000
01000000
00010000
01000000
00010000
00000000
00100000
00000000
,
00002000
00000000
00013000
00000010
00010000
00000000
00002000
00000000
00013000
00000100
00010000
00000000
00000100
00001000
00000100
00000000
,
00000010
00000001
00000010
00000100
00001000
00000001
00000010
00000100
00000020
00000000
00000031
00000010
00000100
00001000
00000100
00001000
,
00000010
00000000
00001000
00000100
00010000
00000000
00001000
00000000
00010000
00001000
00100000
00000000
00010000
01000000
00100000
00000000
,
10000000
00100000
00000000
10000000
00100000
00000000
01000000
00010000
00000000
01000000
00010000
00000000
00100000
00000000
00001000
00000000
,
00010000
00000010
00010000
00000010
00001000
00000000
00000010
00000100
00000000
00000010
00000100
00000000
00000001
00000000
00000100
00000000
,
00000010
00000001
00000010
00001000
00010000
01000000
10000000
01000000
,
00200000
00000000
00000000
00000000
,
00000000
00000000
00300000
00000000
00000000
00010000
00000000
00001000
,
00011000
00000000
00000000
00000000
00000000
00000010
00000000
00000100
,
00001001
00000000
00000000
00000000
00000000
00001000
00000000
00010000
,
00011000
00000000
00000000
00100000
00010000
10000000
00100000
10000000
,
00000000
10100000
00000000
00110000
00000000
01100000
00000000
01000000
,
10010000
00000000
00000000
00000000
00000000
00010000
00000000
00001000
,
00011000
00000000
00000000
00000000
00000000
00000010
00000000
00000100
,
00001001
00000000
00000000
00000000
00000000
00001000
00000000
00010000
,
00011000
00000000
00000000
00200000
00000000
10300000
00100000
01000000
,
00000000
00000000
00100000
00000000
10010000
00000000
00000000
00000000
00000000
00000000
01000000
00010000
01000000
00000000
00001000
00000000
,
00010000
00000000
00010100
00000000
00000000
00000000
00000000
00000000
00000000
00000000
00000001
00000010
00000001
00000000
00000100
00000000
,
00001000
00000000
00011000
00000000
00000000
00000000
00000000
00000000
00000000
00000000
00010000
00100000
01000000
00000000
00100000
00000000
,
10000000
00000000
10010000
00000000
00000000
00000000
00000000
00000000
00100000
01000000
00010000
00000000
00100000
00000000
00101000
00000000
,
00000000
00000000
00011000
00000000
00000000
00000000
00000010
00000000
00000100
00000001
00000100
00000000
00000010
00000000
00000110
00000000
,
00000000
00000000
00002200
00000000
00000000
00000000
00003300
00000000
00000000
00000000
00010000
00001000
01000000
00000000
00010000
00000000
,
01010000
00000000
01000000
00100000
00000000
10000000
01000000
00100000
,
00000000
00000000
00001000
00010000
00001000
00000000
00010000
00000000
00001000
00000000
00000100
00000000
00000001
00000000
00001000
00000000
,
00000001
00001000
00000001
00000000
00000010
00000000
00001000
00000000
00010000
00000000
01000000
00000000
10000000
00000000
00200000
00000000
,
00000000
00000000
00000000
00000000
00300000
02000000
00000000
03100000
,
10000000
00100000
01000000
00000000
10000000
00000000
01000000
00100000
10000000
00000000
01000000
00000000
00010000
00000000
00001000
00000000
,
00100000
00001000
00010000
00000000
01000000
00000000
00010000
00001000
00100000
00000000
00001000
00000000
00010000
00000000
00000100
00000000
,
00001000
00000010
00000100
00000000
00001000
00000000
00000100
00000010
00001000
00000100
00001000
00000000
00000001
00000000
00001001
00000000
,
00000000
00000011
00000000
00000101
00000000
00000110
00000000
00001001
,
00000001
00000010
00000100
00000000
00000001
00000000
00000100
00000010
00000001
00000000
00000100
00000000
00001000
00000000
00010000
00000000
,
00000010
00010000
00001000
00000000
00000100
00000000
00001000
00010000
00000010
00000000
00010000
00000000
00001000
00000000
01000000
00000000
,
00010000
00100000
01000000
00000000
00010000
00000000
01000000
00100000
00010000
00000000
01000000
00000000
10000000
00000000
01000000
00000000
,
00100000
10000000
01000000
00000000
00010000
00000000
00001000
00010000
00001000
00000000
00000010
00000000
00000001
00000000
00000000
00000000
,
00000100
00000010
00001000
00000010
00001000
00000000
00000001
00000000
00000010
00000000
00001000
00000000
00010000
00000000
01000000
00000000
,
10000000
00100000
01000000
00100000
01000000
00000000
00100000
00000000
00010000
00000000
00001000
00000000
00000100
00000000
00000001
00000000
,
00001000
00000100
00000010
00000100
00000010
00000000
00000001
00000000
00000100
00000000
00001000
00000000
00010000
00000000
00100000
00000000
,
10000000
00010000
00100000
00010000
00100000
00000000
01000000
00000000
10000000
00010000
10000000
00000000
01000000
00000000
00010000
00000000
,
00011000
00000000
00001000
00000000
00000010
00000000
00000001
00000000
00000100
00000001
00000100
00000000
00000010
00000000
00001000
00000000
,
00001100
00000000
00000100
00000000
00001000
00000000
00010000
00000000
00100000
00000000
01000000
10000000
01000000
00000000
00100000
00000000
,
01100000
00000000
00001000
00011000
00000000
00000100
00000010
00000011
,
00000000
00000001
00000100
00001000
00010000
00100000
10000000
00010000
,
01000000
00100000
01000000
00000000
10000000
00000000
01000000
00100000
01000000
00000000
00100000
00000000
00010000
00000000
00022000
00000000
,
00000000
00000000
00000000
00033000
,
00000010
00000001
00000000
00000010
00000100
00000000
00000010
00000001
00000000
00000010
00000100
00000000
00001000
00000100
00010000
00000000
,
00001000
00100000
00000000
00001000
00010000
00000000
00001000
00100000
00000000
00001000
00010000
00000000
00001000
00100000
00010000
00000000
,
00100000
01000000
00000000
10000000
01000000
00000000
00100000
01000000
00000000
10000000
01000000
00000000
10000000
00010000
00100000
00000000
,
00010000
01000000
00010000
00000000
10000000
01000000
10000000
00000000
00010000
00100000
00010000
00000000
00100000
00001000
00100000
00000000
,
00001000
00010000
00001000
00000000
00000010
00000000
00000011
00000000
00000000
00000000
00000101
00000000
00000000
00000000
00000010
00000000
,
00000100
00000010
00000100
00000000
00001000
00000000
00011000
00000000
00000000
00000000
00110000
00000000
00000000
00000000
00010000
00000000
,
00000000
00000000
01000000
00100000
01000000
00000000
00100000
00000000
01000000
00100000
01000000
00000000
00010000
00000000
10000000
00000000
,
01000000
00100000
01000000
00100000
00010000
00100000
00010000
00100000
00001000
00010000
00001000
00010000
00000100
00001000
00000100
00001000
,
00000010
00001000
00000000
00000010
00000001
00000000
00000010
00001000
00000000
00000010
00000001
00000000
00000010
00000000
00010000
00000000
,
00001000
00010000
00000000
00100000
00010000
00000000
00001000
00010000
00001000
00100000
00010000
00000000
01000000
00100000
10000000
00000000
,
01000000
00100000
00000000
00100000
00001000
00000000
00001000
00010000
00000000
00001000
00010000
00000000
00000100
00000010
00000100
00000000
,
00000010
00000001
00000010
00000000
00000100
00001000
00000100
00000000
00001000
00000010
00001000
00000000
00000100
00010000
00000100
00000000
,
00010000
00001000
00000000
00001000
01000000
00000000
01000000
00100000
00000000
00100000
10000000
00100000
10000000
00010000
10000000
00000000
,
10000000
01000000
00000000
01000000
00010000
00000000
00010000
00001000
00000000
00001000
00000010
00000100
00000010
00000100
00001000
00000000
,
00000001
00000100
00000010
00001000
00000001
00000010
00000100
00010000
,
00001000
00100000
00010000
01000000
00100000
10000000
00010000
01000000
,
00200000
00000000
00000000
00000000
,
10300000
00000000
01000000
00000000
00100000
01000000
00100000
00000000
00001000
00010000
00001000
00010000
00001000
00000000
00000000
00000000
,
00010000
00000000
00001000
00000100
00001000
00000000
00000100
00000000
00000001
00000010
00000001
00000000
00000010
00000000
00000100
00000000
,
00020000
00000000
00000000
00000000
00031000
00010000
00001000
00010000
00001000
01000000
00001000
01000000
00010000
00000000
00100000
00000000
,
02000000
00000000
13000000
00010000
10000000
00000000
02000000
00000000
13000000
00010000
10000000
00000000
00010000
01000000
00010000
00000000
,
10000000
01000000
00100000
01000000
00100000
00001000
00010000
00001000
00020000
00000000
00030100
00001000
00000010
00000100
00000010
00000100
,
00000001
00000000
00000010
00000100
00001000
00000000
00000100
00000000
00001000
00000100
00000010
00000000
00000001
00000100
00000010
00000000
,
00010000
00001000
00000000
00010000
00001000
00000000
00100000
00010000
00000000
00100000
00010000
00000000
10000000
00000000
00100000
00000000
,
10000000
01000000
10000000
01000000
00100000
00000000
00010000
01000000
00000000
00010000
01000000
00000000
00010000
00000000
00100000
00000000
,
00002000
00000000
00013000
00001000
00010000
00000000
00001000
00000000
00000100
00000000
00000001
00000100
00000001
00000100
00000010
00000000
,
00020000
00000000
00031000
00010000
00001000
00000000
00010000
00000000
01000000
00000000
10000000
01000000
10000000
01000000
00100000
00000000
,
00001000
00010000
00000010
00000000
00001010
00000000
00000000
00000000
00000011
00000000
00001100
00000000
00000000
00000000
00002002
00000000
,
00000000
00000000
00003003
00000000
,
00000000
00000000
00000000
00000000
;
