
//----- song ID: hosi -----//
#TITLE:星屑の夜果て;
#ARTIST:BEMANI Sound Team "HuΣeR × MarL × SYUNN";
#TITLETRANSLIT:Hoshikuzu no yo hate;
#BANNER:Hoshikuzu no yo hate.png;
#BACKGROUND:Hoshikuzu no yo hate-bg.png;
#CDTITLE:./CDTitles/pop'n music peace.png;
#MUSIC:Hoshikuzu no yo hate.ogg;
#SAMPLESTART:50.244;
#SAMPLELENGTH:15;
#BPMS:0=174;
#NOTES:
     dance-single:
     :
     Beginner:
     4:
     :
0000
0000
0000
0000
,
0000
0000
0000
0000
,
0000
0000
0000
0000
,
0000
0000
0000
0000
,
0000
0000
0000
0000
,
0000
0000
0000
0000
,
0001
0000
0010
0000
,
1000
0000
0010
0000
,
0002
0000
0000
0000
,
0003
0000
0000
0000
,
1000
0000
0100
0000
,
0001
0000
0100
0000
,
2000
0000
3000
0000
,
0002
0000
0003
0000
,
0010
0010
0010
0000
,
0100
0100
0100
0000
,
0020
0000
0000
0000
0000
0000
0000
0030
,
0000
0000
0000
0000
,
0000
0000
0000
0000
,
1001
0000
0000
0000
,
0000
0000
0000
0000
,
0010
0010
0010
0000
,
1000
1000
1000
0000
,
0001
0001
0001
0000
,
0100
0100
0100
0000
,
0010
0010
0010
0000
,
0001
0001
0001
0000
,
1000
1000
1000
0000
,
1001
0000
0000
0000
,
0010
0010
0010
0010
,
0010
0010
0010
0000
,
0100
0100
0100
0100
,
0100
0100
0100
0000
,
1000
1000
1000
1000
,
1000
1000
1000
0000
,
0001
0001
0001
0001
,
0000
0000
0000
0000
,
1000
1000
0001
0000
,
0001
0001
1000
0000
,
0001
0000
0100
0000
,
1000
0000
0100
0000
,
0001
0001
1000
0000
,
1000
1000
0001
0000
,
1000
0000
0100
0000
,
0001
0000
0100
0000
,
1000
1000
0001
0000
,
0001
0001
1000
0000
,
0001
0000
0010
0000
,
1000
0000
0010
0000
,
0100
0100
0100
0000
,
0010
0010
0010
0000
,
0200
0000
0000
0000
0000
0000
0000
0300
,
0000
0000
0000
0000
,
2002
0000
0000
0000
,
3003
0000
0000
0000
,
0001
0000
0000
0000
,
0010
0000
0000
0000
,
1000
0000
0000
0000
,
0100
0000
0000
0000
,
0001
0000
0000
0000
,
0100
0000
0000
0000
,
1000
0000
0000
0000
,
0010
0000
0000
0000
,
0001
0000
0010
0000
,
1000
0000
0010
0000
,
0002
0000
0003
0000
,
2000
0000
3000
0000
,
0001
0000
0100
0000
,
1000
0000
0100
0000
,
0002
0000
0000
0000
0000
0000
0000
0003
,
0000
0000
0000
0000
,
0010
0010
0010
0010
,
0010
0010
0010
0000
,
0001
0000
0100
0000
,
1000
0000
0100
0000
,
0010
0010
0100
0000
,
0100
0100
0010
0000
,
0001
0000
0010
0000
,
1000
0000
0010
0000
,
0100
0100
0010
0000
,
0010
0010
0100
0000
,
0001
0000
0010
0000
,
1000
0000
0010
0000
,
0001
0001
0001
0000
,
0100
0100
0100
0000
,
1000
1000
1000
0000
,
0010
0010
0010
0000
,
0001
0001
0001
0000
,
1000
1000
1000
0000
,
0020
0000
0000
0000
0000
0000
0000
0030
,
0000
0000
0000
0000
,
2002
0000
0000
0000
,
3003
0000
0000
0000
,
0000
0000
0000
0000
;
#NOTES:
     dance-single:
     :
     Easy:
     8:
     :
0000
0000
0000
0000
,
0000
0000
0000
0000
,
0000
0000
0000
0000
,
0000
0000
0000
0000
,
0000
0000
0000
0000
,
0000
0000
0000
0000
,
0002
0003
0200
0300
,
0020
0030
2000
3000
,
0002
0000
0000
0003
,
1000
0000
0010
0010
,
1000
0100
0010
0100
,
0001
0100
0010
0100
,
2000
0000
0000
3000
,
0002
0000
0003
0100
,
0001
0100
1000
0010
,
0001
0010
1000
0100
,
0001
0000
0010
0000
0100
0000
1000
0002
,
0000
0000
0000
0003
,
2000
0000
3000
0000
,
0110
0001
0000
1000
,
0100
1000
0010
1000
,
0001
0100
1000
0100
,
0001
0100
1000
0100
,
0001
0100
1000
0100
,
0001
0100
0010
0010
,
1000
0010
0001
0010
,
1000
0010
0001
0010
,
1000
0010
0001
0010
,
2002
0000
0000
3003
,
0010
1001
1001
1001
,
1001
1001
0100
0010
,
0100
1001
1001
1001
,
1001
1001
0001
1000
,
0001
0110
0110
0110
,
0110
0110
1000
0001
,
1000
0100
0010
0001
,
1000
0000
0001
0001
,
1000
0000
0100
1000
0100
0000
0001
0000
,
0100
0001
0100
0000
1000
0000
0001
0000
,
2000
0010
0010
3010
,
0002
0010
0010
0013
,
0001
0000
0010
0001
0010
0000
1000
0000
,
0010
1000
0010
0000
0001
0000
1000
0000
,
0002
0100
0100
0103
,
0010
0000
0100
0100
,
0010
0000
1000
0001
1000
0000
0010
0000
,
0001
1000
0001
0000
0100
0000
0010
0000
,
2000
0010
0001
3100
,
0002
0010
1000
0103
,
0010
0010
1000
1000
,
0100
0100
0001
0001
,
0010
0000
1000
0000
0100
0000
0001
0020
,
0000
0000
0130
0000
,
1001
0100
1000
0010
,
0200
0300
0010
0100
,
1000
0010
0000
0010
,
0000
0100
0000
0100
,
0001
0010
0000
0010
,
0000
0001
0000
0001
,
1000
0100
0000
0100
,
0000
1000
0000
1000
,
0001
1000
0000
1000
,
0000
0010
0010
0010
,
1000
0100
1000
0001
,
0100
0001
1000
0001
,
2000
0000
0000
3000
,
0002
0000
0003
0100
,
0010
0010
1000
1000
,
0100
0100
0001
0001
,
0010
0000
1000
0000
0100
0000
0001
0020
,
0000
0030
0100
0100
,
0001
0000
0100
0001
0100
0000
1000
0000
,
0100
1000
0100
0000
0001
0000
1000
0000
,
0002
0010
0010
0013
,
2000
0010
0010
3010
,
1000
0000
0010
1000
0010
0000
0001
0000
,
0010
0001
0010
0000
1000
0000
0001
0000
,
2000
0100
0100
3100
,
0010
0000
0100
0100
,
0010
0000
0001
1000
0001
0000
0010
0000
,
1000
0001
1000
0000
0100
0000
0010
0000
,
0002
0010
1000
0103
,
2000
0010
0001
3100
,
0010
0010
0001
0001
,
0100
0100
1000
1000
,
0010
0010
1000
1000
,
0100
0100
0001
0001
,
0010
0001
0100
0010
,
1000
0100
0010
0001
,
0100
0000
0010
0000
0100
0000
0010
0200
,
0000
0000
0310
0000
,
1001
0100
0001
0010
,
0200
0000
0000
0000
,
0300
0000
0000
0000
,
0000
0000
0000
0000
;
#NOTES:
     dance-single:
     :
     Medium:
     12:
     :
0000
0000
0000
0000
,
0000
0000
0000
0000
,
0000
0000
0000
0000
,
0000
0000
0000
0000
,
0000
0000
0000
0000
,
0000
0000
0000
0000
,
2000
0000
3020
0000
,
0230
0000
0302
0000
,
0023
0000
0000
0000
,
0230
0000
0010
0310
,
0001
0100
1000
0100
0001
0000
1000
0100
,
0001
0100
1000
0000
0001
0010
1000
0020
,
0000
0002
0000
0000
0000
0000
0033
0000
,
2000
0000
3000
0010
,
1000
0010
0001
0100
,
1000
0100
0001
0010
,
1000
0010
0100
0001
0010
0100
1000
0020
,
0000
0000
0000
0000
0000
0000
0030
0100
,
0002
0000
0003
0000
,
0110
0000
1000
0001
0000
0010
0001
1000
,
0010
1000
0001
1000
0100
0010
0001
0000
,
1000
0100
0010
0100
0001
0100
0010
0100
,
1000
0100
0010
0100
0010
0001
1000
0000
,
0001
0100
0010
0100
1000
0100
0010
0100
,
0001
0100
0010
0100
0010
1000
0001
0000
,
1000
0001
0010
0100
0001
0100
0010
0001
,
1000
0010
0100
0010
1000
0001
1000
0000
,
0001
1000
0010
0100
1000
0100
0010
1000
,
2002
0000
0000
3003
,
0110
0000
0001
0100
1000
0100
0001
0100
,
1000
0100
0001
0100
1000
0100
0010
0000
,
0110
0000
1000
0100
0001
0100
1000
0100
,
0001
0100
1000
0100
0001
0100
0010
0000
,
0110
0000
0001
0010
0100
0010
1000
0010
,
0100
0010
0001
0010
0100
0010
1000
0010
,
0100
0010
0001
0100
0010
1000
0100
0010
,
0200
0000
0010
0310
,
0001
0100
0010
1000
0001
0000
1000
0100
,
0010
0001
1000
0000
0001
0010
1000
0010
,
0002
0010
0010
0013
,
2000
0010
0010
3010
,
1000
0010
0100
0001
1000
0000
0001
0010
,
0100
1000
0001
0000
1000
0010
0001
0010
,
2000
0010
0010
3010
,
0100
0001
0010
0010
,
1000
0100
0010
0001
1001
0000
0001
0100
,
0010
1000
1001
0000
0001
0100
1000
0100
,
0002
0010
1000
0103
,
2000
0010
0001
3100
,
0101
0101
0011
0011
,
1010
1010
1100
1100
,
0001
0100
0010
1000
0100
0010
0001
0200
,
0000
0000
0300
0010
0200
0000
0300
0000
,
1001
0000
0010
1000
0001
0010
0100
1000
,
0020
0030
0100
0010
,
0001
0000
0100
0010
0000
1000
0100
0010
,
0000
0000
0001
0100
0000
0000
0010
0100
,
0001
0000
0010
0001
1000
0100
0000
1000
,
0000
0010
1000
0001
0010
0000
0100
0000
,
0010
0000
0100
0010
0000
0001
0000
0100
,
0000
0010
1000
0002
0000
0000
0003
1000
,
0100
1000
0001
0100
0001
1000
0001
2000
,
0000
0001
0010
3001
,
1000
0100
0001
0100
1000
0000
0001
0100
,
1000
0100
0001
0000
1000
0010
0001
0020
,
0000
2000
0000
0000
0000
0000
3030
0000
,
0002
0010
0010
0013
,
0001
0100
1000
0100
0001
0000
1000
0100
,
0001
0100
1000
0000
1001
0000
0110
0000
,
0001
0010
0100
1000
0010
0100
0001
0020
,
0000
0000
0100
0130
,
1000
0001
1000
0001
1000
0001
1000
0001
,
1000
0001
1000
0001
1000
0001
0000
0000
,
1000
0100
0001
0000
0001
0100
1000
0000
,
1000
0010
0001
0000
0001
0010
1000
0000
,
0001
0010
0100
1000
0001
0000
1000
0010
,
0100
0001
1000
0000
0001
0010
1000
0010
,
0001
0100
0001
0100
0010
0100
0010
0100
,
1000
0100
1000
0100
0010
1000
0100
0000
,
0001
0100
0010
1000
1001
0000
1000
0100
,
0010
0001
1001
0000
1000
0100
0001
0100
,
1000
0001
0010
0100
1000
0001
0010
0100
,
1000
0001
0100
0010
1000
0001
0100
0010
,
1000
0000
0000
0010
1000
0000
0010
0000
1000
0000
0000
0001
1000
0000
0001
0000
,
1000
0000
0000
0100
1000
0000
0100
0000
1000
0000
0000
0001
1000
0000
1000
0000
,
0001
0000
0000
0010
0001
0000
0010
0000
0001
0000
0000
1000
0001
0000
1000
0000
,
0001
0000
0000
0100
0001
0000
0100
0000
0001
0000
0000
1000
0001
0000
0001
0000
,
1000
0100
1000
0100
0010
0100
0010
0100
,
0001
0100
0001
0100
0010
0100
0010
0100
,
1000
0100
0010
0001
0100
0010
1000
0200
,
0000
0000
0300
0010
0200
0000
0300
0000
,
1001
0000
0010
0001
1000
0010
0100
0001
,
0020
0000
0000
0000
,
0030
0000
0000
0000
,
0000
0000
0000
0000
;
#NOTES:
     dance-single:
     :
     Hard:
     15:
     :
0000
0000
0000
0000
,
0000
0000
0000
0000
,
0000
0000
0000
0000
,
0000
0000
0000
0000
,
0000
0000
0000
0000
,
0000
0000
0000
0000
,
0002
0000
0023
0000
,
0032
0000
2003
0000
,
3020
0000
0000
0000
,
0230
0000
0010
0310
,
1000
0100
0001
0100
1000
0000
1000
0010
,
0001
0010
1000
0000
0001
0010
1000
0020
,
0000
0002
0000
0000
0000
0000
0033
0000
,
2000
0000
3000
0010
,
0001
0010
1000
0100
,
0001
0100
1000
0010
,
0001
0000
0010
0000
0100
0000
1000
0000
0010
0100
0010
0100
0010
0100
0020
0000
,
0000
0000
0000
0000
0000
0000
0000
0000
0000
0000
0000
0000
0030
0000
1000
0100
,
0020
0000
0030
0000
,
0110
0000
0001
1000
0000
0010
1000
0001
,
0010
0001
1000
0001
0100
0010
1000
0000
,
0001
0000
0100
0000
0010
0100
0010
0000
1000
0000
0100
0000
0010
0100
0010
0000
,
0001
0000
0100
0000
0010
0100
0010
0000
1000
0000
0100
0000
1000
0000
0010
0000
,
0100
0000
0010
0000
1000
0001
1000
0000
0100
0000
0010
0000
0001
1000
0001
0000
,
0100
0000
0010
0000
1000
0001
1000
0000
0001
0000
0010
0000
0001
0000
0100
0000
,
0001
0000
1000
0000
0010
1000
0001
0000
1000
0000
0001
0000
0010
0001
1000
0000
,
0001
0000
1000
0000
0010
1000
0001
0000
1000
0000
0100
0000
1000
0000
0010
0000
,
1000
0000
0010
0000
0100
0010
1000
0000
0001
0000
0010
0000
0100
0010
0001
0000
,
2002
0000
0000
3003
,
0120
0000
0000
0000
1030
0000
0001
0010
0001
0000
1000
0010
1000
0000
0001
0010
,
0001
0000
1000
0010
1000
0000
0001
0010
0001
0000
0100
0000
0010
0000
1000
0000
,
0210
0000
0000
0000
0301
0000
1000
0100
1000
0000
0001
0100
0001
0000
1000
0100
,
1000
0000
0001
0100
0001
0000
1000
0100
1000
0000
0010
0000
0100
0000
0001
0000
,
0010
0000
0100
0000
0001
0100
1000
0000
0010
0000
0100
0000
1000
0100
0001
0000
,
0010
0000
0100
0000
0001
0100
1000
0000
0010
0000
0100
0000
1000
0100
0001
0000
,
1000
0100
1000
0100
0010
0001
0010
0001
0100
0001
0100
0001
1000
0010
1000
0010
,
0200
0000
0010
0310
,
1000
0100
0010
0001
1001
0000
0001
0100
,
0010
1000
1001
0000
1000
0010
0001
0010
,
2000
0010
0010
3010
,
0002
0010
0010
0013
,
0001
0010
0100
1000
1001
0000
1000
0010
,
0100
0001
1001
0000
0001
0010
1000
0010
,
0002
0010
0010
0013
,
0100
1000
0010
0010
,
0101
0100
0010
1000
1001
0000
1100
0100
,
0010
0001
1001
0000
1000
0100
0001
0100
,
2000
0010
0001
3100
,
0002
0010
1000
0103
,
1100
1100
1010
1010
,
0011
0011
0101
0101
,
1000
0000
0100
0000
0010
0000
0001
0000
0100
0010
0100
0010
0100
0010
0200
0000
,
0000
0000
0000
0000
0300
0000
0001
0010
0200
0000
0000
0000
0300
0000
0000
0000
,
1001
0000
0000
0000
0001
0100
0010
1000
0010
0100
0001
1000
0100
0010
0001
1000
,
0020
0030
0100
0010
,
2000
0000
3100
0020
0000
0031
0100
0020
,
0000
0000
1030
0200
0000
0000
0310
0100
,
2000
0000
3010
0100
1000
0200
0000
0302
,
0000
0013
0001
1000
0010
0000
0100
0000
,
0020
0000
0031
0020
0000
1030
0000
0100
,
0000
0001
0100
2000
0000
0000
0000
3001
,
0010
0001
1000
0010
1000
0001
0100
0002
,
0000
1000
0010
1003
,
0001
0100
1000
0100
0001
0000
0001
0010
,
1000
0010
0001
0000
1000
0010
0001
0020
,
0000
2000
0000
0000
0000
0000
3030
0000
,
0002
0010
0100
0013
,
1000
0100
0001
0100
1000
0000
1000
0010
,
0001
0010
1000
0000
1001
0000
0110
0000
,
1000
0000
0010
0000
0100
0000
0001
0000
0010
0100
0010
0100
0010
0100
0020
0000
,
0000
0000
0100
0130
,
0010
0100
0010
0100
0010
0100
0010
0100
0010
0100
0010
0100
0010
0100
0010
0100
,
0010
0100
0010
0100
0010
0100
0010
0100
0010
0000
0010
0100
0000
0000
0000
0000
,
0001
0000
0010
0000
0001
1000
0001
0000
1000
0000
0010
0000
1000
0001
1000
0000
,
0001
0000
0100
0000
0001
1000
0001
0000
1000
0000
0100
0000
0010
0000
0001
0000
,
1000
0010
0100
0001
1001
0000
0001
0010
,
0100
1000
1001
0000
1000
0010
0001
0010
,
1000
0000
0100
0000
0010
0100
0010
0000
0001
0000
0100
0000
0010
0100
0010
0000
,
1000
0000
0100
0000
0010
0100
0010
0000
0001
0000
0000
0000
0001
0000
0000
0000
,
1100
0100
0010
0001
1001
0000
0101
0100
,
0010
1000
1001
0000
0001
0100
1000
0100
,
0001
0000
1000
0100
1000
0000
0001
0100
0001
0000
1000
0100
1000
0000
0001
0000
,
1000
0000
0001
0010
0001
0000
1000
0010
1000
0000
0001
0010
0001
0000
1000
0000
,
1010
0000
0000
0010
1000
0000
0010
0000
1001
0000
0000
0001
1000
0000
0001
0000
,
0011
0000
0000
0010
0001
0000
0010
0000
1001
0000
0000
1000
0001
0000
1000
0000
,
1100
0000
0000
0100
1000
0000
0100
0000
1001
0000
0000
0001
1000
0000
0001
0000
,
0101
0000
0000
0100
0001
0000
0100
0000
1001
0000
0000
1000
0001
0000
1000
0000
,
0001
0100
0001
0100
0010
0100
0010
0100
,
1000
0100
1000
0100
0010
0100
0010
0100
,
0001
1000
0001
1000
0001
1000
0001
1000
0100
0010
0100
0010
0100
0010
0200
0000
,
0000
0000
0000
0000
0300
0000
1000
0010
0200
0000
0000
0000
0300
0000
0000
0000
,
1001
0000
0000
0000
1000
0100
0010
0001
0010
0100
1000
0001
0100
0010
1000
0001
,
0020
0000
0000
0000
,
0030
0000
0000
0000
,
0000
0000
0000
0000
;
#NOTES:
     dance-double:
     :
     Easy:
     8:
     :
00000000
00000000
00000000
00000000
,
00000000
00000000
00000000
00000000
,
00000000
00000000
00000000
00000000
,
00000000
00000000
00000000
00000000
,
00000000
00000000
00000000
00000000
,
00000000
00000000
00000000
00000000
,
20000000
30000000
02000000
03000000
,
00200000
00300000
00002000
00003000
,
00020000
00000000
00000000
00000000
,
00030000
00000000
00001000
00001000
,
00010000
00001000
00000010
00000001
,
00001000
00000010
00000100
00000001
,
00002000
00000000
00000000
00003000
,
00000200
00000000
00000300
00001000
,
00000001
00000100
00001000
00010000
,
00100000
10000000
01000000
00100000
,
00010000
00000000
10000000
00000000
01000000
00000000
00010000
00002000
,
00000000
00000000
00000000
00003000
,
00020000
00000000
00030000
00000000
,
00011000
00000000
00000000
00000000
,
00000000
00000000
00000000
00000000
,
00010000
00001000
00000100
00000001
,
00000010
00000100
00000010
00000001
,
00000001
00000100
00001000
00010000
,
01000000
10000000
00100000
01000000
,
10000000
01000000
00010000
00001000
,
00000100
00000001
00000010
00000100
,
00001000
00000001
00000100
00000010
,
00000220
00000000
00000000
00000330
,
00010000
00011000
00011000
00011000
,
00011000
00011000
01000000
00100000
,
01000000
10010000
10010000
10010000
,
10010000
10010000
01000000
00010000
,
00001000
00011000
00011000
00011000
,
00011000
00011000
00000100
00000001
,
00000010
00000100
00000010
00000001
,
00001000
00000000
00000001
00001000
,
00000001
00000000
00000100
00000010
00000100
00000000
00001000
00000000
,
00010000
00001000
00010000
00000000
00100000
00000000
10000000
00000000
,
00020000
00100000
00100000
00130000
,
20000000
00100000
00100000
30100000
,
10000000
00000000
01000000
00100000
01000000
00000000
00010000
00000000
,
00001000
00010000
00001000
00000000
00000010
00000000
00000001
00000000
,
00002000
00000100
00000100
00003100
,
00000010
00000000
00000001
00001000
,
00000010
00000000
00000100
00000010
00000100
00000000
00001000
00000000
,
00010000
00001000
00010000
00000000
01000000
00000000
10000000
00000000
,
00020000
00100000
10000000
01030000
,
20000000
00100000
00010000
31000000
,
10000000
10000000
00100000
00100000
,
00010000
00010000
00001000
00001000
,
00000010
00000000
00000001
00000000
00000100
00000000
00000010
00000200
,
00000000
00000000
00000310
00000000
,
00001001
00000100
00000010
00010000
,
00001000
00000000
00010000
00010000
,
00001000
00100000
00000000
00100000
,
00000000
01000000
00000000
01000000
,
10000000
00010000
00000000
00010000
,
00000000
10000000
00000000
10000000
,
00100000
01000000
00000000
01000000
,
00000000
00001000
00000000
00001000
,
00100000
00001000
00000000
00001000
,
00000000
00010000
00010000
00010000
,
00001000
00010000
01000000
10000000
,
01000000
00010000
00001000
00010000
,
00002000
00000000
00000000
00003000
,
00020000
00000000
00030000
00001000
,
00010000
00001000
00000100
00000001
,
00000100
00001000
00010000
00001000
,
01000000
00000000
00010000
00000000
01000000
00000000
00100000
20000000
,
00000000
30000000
01000000
01000000
,
10000000
00000000
01000000
00100000
01000000
00000000
00010000
00000000
,
00001000
00010000
00001000
00000000
00000010
00000000
00000001
00000000
,
00002000
00000010
00000010
00003010
,
00000002
00000010
00000010
00000013
,
00000001
00000000
00000100
00000010
00000100
00000000
00001000
00000000
,
00010000
00001000
00010000
00000000
00100000
00000000
10000000
00000000
,
00020000
01000000
01000000
01030000
,
00100000
00000000
10000000
00010000
,
00100000
00000000
01000000
00100000
01000000
00000000
00010000
00000000
,
00001000
00010000
00001000
00000000
00000100
00000000
00000001
00000000
,
00002000
00000010
00000001
00003100
,
00000002
00000010
00001000
00000103
,
00000001
00000001
00000010
00000010
,
00001000
00001000
00010000
00010000
,
00100000
00100000
10000000
10000000
,
01000000
01000000
00010000
00010000
,
00001000
00000100
00000001
00000010
,
00001000
00010000
00100000
10000000
,
01000000
00000000
00100000
00000000
00010000
00000000
00100000
02000000
,
00000000
00000000
03100000
00000000
,
10010000
00100000
01000000
00001000
,
00020000
00000000
00000000
00000000
,
00030000
00000000
00000000
00000000
,
00000000
00000000
00000000
00000000
;
#NOTES:
     dance-double:
     :
     Medium:
     12:
     :
00000000
00000000
00000000
00000000
,
00000000
00000000
00000000
00000000
,
00000000
00000000
00000000
00000000
,
00000000
00000000
00000000
00000000
,
00000000
00000000
00000000
00000000
,
00000000
00000000
00000000
00000000
,
00000020
00000000
00000032
00000000
,
00000203
00000000
00002300
00000000
,
00023000
00000000
00000000
00000000
,
00032000
00000000
00010000
00013000
,
00001000
00100000
00010000
00100000
00001000
00000000
00010000
00000010
,
00001000
00000010
00010000
00000000
00001000
00000010
00000100
00000010
,
00000000
00000002
00000000
00000000
00000000
00000000
00000000
00000000
,
00000203
00000000
00000000
00000310
,
00000001
00000100
00001000
00010000
,
00100000
10000000
01000000
00100000
,
00010000
10000000
00100000
01000000
00100000
10000000
01000000
00020000
,
00000000
00000000
00000000
00000000
00000000
00000000
00030000
00001000
,
00000020
00000000
00000030
00000000
,
00000110
00000000
00000001
00001000
00000000
00000010
00001000
00000100
,
00000010
00000001
00000010
00000100
00001000
00000010
00000100
00000000
,
00000001
00000100
00000010
00000100
00001000
00010000
00001000
00010000
,
00001000
01000000
00100000
10000000
00010000
01000000
00100000
00000000
,
10000000
01000000
00100000
01000000
00010000
00001000
00010000
00001000
,
00010000
00000100
00000010
00000001
00001000
00000100
00000010
00000000
,
00000001
00000010
00000100
00000010
00001000
00010000
00001000
00010000
,
00001000
00100000
01000000
10000000
00010000
00100000
01000000
00000000
,
10000000
00100000
01000000
00100000
00010000
00001000
00010000
00001000
,
00022000
00000000
00000000
00033000
,
00001010
00000000
00000001
00000100
00001000
00000100
00001000
00000100
,
00001000
00010000
00001000
00010000
00100000
00010000
00100000
00000000
,
00110000
00000000
10000000
01000000
00010000
01000000
00010000
01000000
,
00010000
00001000
00010000
00001000
00000010
00001000
00000010
00000000
,
00001010
00000000
00000001
00000100
00001000
00000100
00001000
00000100
,
00001000
00010000
00001000
00010000
00100000
00010000
00100000
00010000
,
00100000
10000000
01000000
00100000
00010000
01000000
00100000
10000000
,
02000000
00000000
00100000
03100000
,
00001000
00100000
00010000
00100000
00001000
00000000
00010000
00000010
,
00001000
00000010
00010000
00000000
00001000
00000010
00000100
00000010
,
00000002
00000010
00000010
00000013
,
00002000
00000010
00000010
00003010
,
00010000
00000100
00001000
00000100
00010000
00000000
00001000
01000000
,
00010000
01000000
00001000
00000000
00010000
00100000
01000000
00100000
,
20000000
00100000
00100000
30100000
,
10000000
01000000
00010000
00001000
,
00010000
00001000
00000010
00001000
00010000
00000000
00001000
00010000
,
00100000
00010000
00001000
00000000
00010000
00001000
00000100
00000001
,
00002000
00000010
00000001
00003100
,
00000002
00000010
00001000
00000103
,
00001010
00001010
00011000
00011000
,
00110000
00110000
01100000
01100000
,
10000000
00010000
01000000
00100000
10000000
01000000
00100000
00020000
,
00000000
00000000
00030000
10000000
00200000
00000000
00300000
00000000
,
01010000
00000000
10000000
01000000
00010000
00001000
00000010
00000001
,
00002000
00003000
00000001
00001000
,
00000010
00000000
00000100
00000010
00000000
00000100
00001000
00010000
,
00000000
00000000
01000000
10000000
00000000
00000000
00010000
10000000
,
00100000
00000000
01000000
00100000
10000000
00100000
00000000
01010000
,
00000000
10000000
01000000
00010000
00001000
00000000
00010000
00000000
,
00001000
00000000
00000100
00000001
00000000
00001000
00000000
00000100
,
00000000
00000010
00000001
00002000
00000000
00000000
00003000
00000001
,
00000100
00000001
00001000
00000100
00001000
00000100
00010000
00002000
,
00000000
00010000
00010000
00013000
,
00001000
01000000
00010000
01000000
00001000
00000000
00010000
00000100
,
00001000
00000100
00010000
00000000
00001000
00000010
00000100
00000010
,
00000000
00000002
00000000
00000000
00000000
00000000
00000003
00000000
,
00002000
00000010
00000010
00003010
,
00010000
00000100
00001000
00000100
00010000
00000000
00001000
01000000
,
00010000
01000000
00001000
00000000
00110000
00000000
11000000
00000000
,
00010000
01000000
00100000
10000000
01000000
00010000
00001000
00020000
,
00000000
00000000
00001000
00031000
,
00000010
00000100
00000010
00000100
00000010
00000100
00000010
00000100
,
00000010
00000100
00000010
00000100
00000010
00000100
00000000
00000000
,
00001000
00000100
00000010
00000000
00000001
00000100
00000010
00000000
,
00001000
00000100
00010000
00000000
00001000
00010000
00001000
00000000
,
00010000
00000010
00000100
00000010
00010000
00000000
00001000
00100000
,
01000000
00100000
00001000
00000000
00010000
00100000
01000000
00100000
,
10000000
01000000
10000000
01000000
00100000
01000000
00100000
01000000
,
00010000
00001000
00010000
00001000
00010000
00000000
00011000
00000000
,
00001000
00010000
00100000
00010000
00001000
00000000
00010000
00001000
,
00000010
00001000
00010000
00000000
00001000
00000100
00000010
00000100
,
00000001
00000010
00001000
00000000
00010000
00100000
10000000
00000000
,
10000000
01000000
00010000
00000000
00001000
00000100
00000001
00000000
,
00000001
00000000
00000000
00000010
00000001
00000000
00000010
00000000
00000100
00000000
00000000
00000010
00000100
00000000
00000010
00000000
,
00000100
00000000
00000000
00010000
00000100
00000000
00010000
00000000
00001000
00000000
00000000
01000000
00001000
00000000
01000000
00000000
,
00100000
00000000
00000000
01000000
00100000
00000000
01000000
00000000
00100000
00000000
00000000
10000000
00100000
00000000
10000000
00000000
,
01000000
00000000
00000000
10000000
01000000
00000000
10000000
00000000
01000000
00000000
00000000
00010000
01000000
00000000
00010000
00000000
,
00001000
00010000
00001000
00010000
00001000
00000010
00001000
00000010
,
00000001
00000100
00000001
00000100
00001000
00010000
00001000
00010000
,
00100000
10000000
01000000
00100000
00010000
01000000
00100000
20000000
,
00000000
00000000
30000000
00010000
00200000
00000000
00300000
00000000
,
01100000
00000000
10000000
01000000
00010000
00001000
00000010
00000001
,
00002000
00000000
00000000
00000000
,
00003000
00000000
00000000
00000000
,
00000000
00000000
00000000
00000000
;
#NOTES:
     dance-double:
     :
     Hard:
     15:
     :
00000000
00000000
00000000
00000000
,
00000000
00000000
00000000
00000000
,
00000000
00000000
00000000
00000000
,
00000000
00000000
00000000
00000000
,
00000000
00000000
00000000
00000000
,
00000000
00000000
00000000
00000000
,
20000000
00000000
32000000
00000000
,
03020000
00000000
00032000
00000000
,
00003200
00000000
00000000
00000000
,
00000320
00000000
00000100
00000130
,
00010000
00001000
00000010
00001000
00010000
00000000
00010000
00001000
,
00000100
00001000
00010000
00000000
00001000
00010000
01000000
20000000
,
00000000
00020000
00000000
00000000
00000000
00000000
30030000
00000000
,
02000000
00000000
03000000
00100000
,
10000000
01000000
00010000
00001000
,
00000100
00000001
00000010
00000001
,
00001000
00000000
00000010
00000000
00000100
00000000
00000001
00000000
00000010
00000100
00000010
00000100
00000010
00000100
00000020
00000000
,
00000000
00000000
00000000
00000000
00000000
00000000
00000000
00000000
00000000
00000000
00000000
00000000
00000030
00000000
00000001
00001000
,
00000020
00000000
00000030
00000000
,
00000110
00000000
00001000
00010000
00000000
00100000
00010000
00001000
,
00100000
00010000
10000000
01000000
00100000
00010000
01000000
00000000
,
00001000
00000000
00010000
00000000
00000010
00001000
00000010
00000000
00010000
00000000
00001000
00000000
00100000
00010000
00100000
00000000
,
00001000
00000000
00010000
00000000
00000010
00001000
00000010
00000000
00000100
00000000
00000001
00000000
00000010
00000000
00001000
00000000
,
00010000
00000000
00001000
00000000
01000000
00010000
01000000
00000000
00001000
00000000
00010000
00000000
00000100
00001000
00000100
00000000
,
00010000
00000000
00001000
00000000
01000000
00010000
01000000
00000000
00100000
00000000
10000000
00000000
01000000
00000000
00000000
00000000
,
00010000
00000000
00001000
00000000
00100000
00010000
00100000
00000000
00001000
00000000
00010000
00000000
00000010
00001000
00000010
00000000
,
00010000
00000000
00001000
00000000
00100000
00010000
00100000
00000000
01000000
00000000
10000000
00000000
00100000
00000000
00010000
00000000
,
00001000
00000000
00010000
00000000
00000100
00001000
00000100
00000000
00010000
00000000
00001000
00000000
01000000
00010000
01000000
00000000
,
20020000
00000000
00000000
30030000
,
01100000
00000000
00000000
00000000
10000000
00000000
01000000
10000000
01000000
00000000
00010000
01000000
00010000
00000000
00001000
00010000
,
00001000
00000000
00000010
00001000
00000010
00000000
00000001
00000010
00000001
00000000
00001000
00000000
00000100
00000000
00000010
00000000
,
00000110
00000000
00000000
00000000
00000001
00000000
00000100
00000001
00000100
00000000
00001000
00000100
00001000
00000000
00010000
00001000
,
00010000
00000000
00100000
00010000
00100000
00000000
10000000
00100000
10000000
00000000
00010000
00000000
01000000
00000000
00100000
00000000
,
10000000
00000000
01000000
00000000
00100000
01000000
00100000
00000000
00001000
00000000
00010000
00000000
00001000
00010000
00001000
00000000
,
00010000
00000000
00000010
00000000
00000100
00000010
00000100
00000000
00000001
00000000
00001000
00000000
00000100
00000010
00000100
00000000
,
00000010
00000001
00000010
00000000
00000100
00001000
00000100
00000000
00001000
00000010
00001000
00000010
00000100
00000001
00000100
00000001
,
00002000
00000000
00000010
00003010
,
00000001
00000100
00001000
00010000
00011000
00000000
00001000
00010000
,
01000000
10000000
10010000
00000000
10000000
00100000
00010000
00100000
,
10000000
00010000
00001000
00000001
,
00000001
00001000
00010000
10000000
,
10000000
01000000
00010000
00001000
00011000
00000000
00010000
00001000
,
00000100
00000001
00001001
00000000
00000001
00000010
00001000
00000010
,
00000001
00001000
00010000
10000000
,
10000000
00010000
00001000
00000001
,
00001001
00000010
00001000
00010000
00011000
00000000
00011000
00010000
,
00100000
10000000
10010000
00000000
10000000
01000000
00010000
01000000
,
10000000
00100000
00001000
00000010
,
00000001
00000100
00010000
01000000
,
10100000
10100000
01010000
01010000
,
00011000
00011000
00001100
00001100
,
00000010
00000000
00000001
00000000
00000100
00000000
00000010
00000000
00000100
00000010
00000100
00000010
00000100
00000010
00000200
00000000
,
00000000
00000000
00000000
00000000
00000300
00000000
00000010
00001000
00000002
00000000
00000000
00000000
00000003
00000000
00000000
00000000
,
00001001
00000000
00000000
00000000
00001000
00000100
00001000
00000100
00000010
00000001
00000010
00000001
00001000
00000001
00001000
00000001
,
00000200
00000300
00001000
00010000
,
00002000
00000000
00013000
02000000
00000000
03100000
01000000
20000000
,
00000000
00000000
30100000
02000000
00000000
00000000
13000000
01000000
,
00010000
00000000
00100000
00010000
00001000
00000200
00000000
00000010
,
00000000
00000301
00000100
00001000
00000010
00000000
00000100
00000000
,
00000020
00000000
00000031
00000020
00000000
00001000
00000000
00000130
,
00000000
00001000
00010000
00200000
00000000
00000000
00000000
00310000
,
00001000
00010000
01000000
10000000
00100000
01000000
00100000
20000000
,
00000000
31000000
00010000
00001000
,
00010000
00001000
00000010
00001000
00010000
00000000
00010000
00001000
,
00000100
00001000
00010000
00000000
00001000
00010000
01000000
20000000
,
00000000
00020000
00000000
00000000
00000000
00000000
30030000
00000000
,
01000000
00100000
00100000
00010000
,
00001000
00010000
00100000
00010000
00001000
00000000
00001000
00010000
,
01000000
00010000
00001000
00000000
00001100
00000000
00000011
00000000
,
00000001
00000000
00000010
00000000
00000100
00000000
00001000
00000000
00000010
00000100
00000010
00000100
00000010
00000100
00000020
00000000
,
00000000
00000000
00010000
00010030
,
00001000
00010000
00001000
00010000
00001000
00010000
00001000
00010000
00001000
00010000
00001000
00010000
00001000
00010000
00001000
00010000
,
00001000
00010000
00001000
00010000
00001000
00010000
00001000
00010000
00001000
00000000
00001000
00010000
00000000
00000000
00000000
00000000
,
00001000
00000000
00010000
00000000
00000010
00001000
00000010
00000000
00010000
00000000
00001000
00000000
00100000
00010000
00100000
00000000
,
00001000
00000000
00010000
00000000
00000010
00001000
00000010
00000000
00000100
00000000
00000001
00000000
00000010
00000000
00000000
00000000
,
00000001
00000100
00001000
00010000
00011000
00000000
00001000
00010000
,
01000000
10000000
10010000
00000000
10000000
00100000
00010000
00001000
,
00010000
00000000
00001000
00000000
01000000
00010000
01000000
00000000
00001000
00000000
00010000
00000000
00000100
00001000
00000100
00000000
,
00010000
00000000
00001000
00000000
01000000
00010000
01000000
00000000
00100000
00000000
00000000
00000000
10000000
00000000
00000000
00000000
,
10010000
00100000
00010000
00001000
00011000
00000000
00011000
00001000
,
00000010
00000001
00001001
00000000
00000001
00000100
00001000
00000100
,
00000001
00000000
00000100
00000001
00000100
00000000
00001000
00000100
00001000
00000000
00010000
00001000
00010000
00000000
00001000
00000000
,
00010000
00000000
00100000
00010000
00100000
00000000
10000000
00100000
10000000
00000000
01000000
10000000
01000000
00000000
00000000
00000000
,
11000000
00000000
00000000
01000000
10000000
00000000
01000000
00000000
01100000
00000000
00000000
00100000
01000000
00000000
00100000
00000000
,
00110000
00000000
00000000
00010000
00100000
00000000
00010000
00000000
00011000
00000000
00000000
00001000
00010000
00000000
00001000
00000000
,
00001100
00000000
00000000
00000100
00001000
00000000
00000100
00000000
00000110
00000000
00000000
00000010
00000100
00000000
00000010
00000000
,
00000011
00000000
00000000
00000001
00000010
00000000
00000001
00000000
00001001
00000000
00000000
00001000
00000001
00000000
00001000
00000000
,
00000010
00001000
00000010
00001000
00000001
00000010
00000001
00000010
,
00000100
00010000
00000100
00010000
00001000
01000000
00001000
01000000
,
00100000
01000000
00100000
01000000
00100000
01000000
00100000
01000000
00010000
10000000
00010000
10000000
00010000
10000000
00200000
00000000
,
00000000
00000000
00000000
00000000
00300000
00000000
01000000
00010000
20000000
00000000
00000000
00000000
30000000
00000000
00000000
00000000
,
10010000
00000000
00000000
00000000
10000000
01000000
10000000
01000000
00100000
00010000
00100000
00010000
00001000
00010000
00001000
00010000
,
00002000
00000000
00000000
00000000
,
00003000
00000000
00000000
00000000
,
00000000
00000000
00000000
00000000
;
