
//----- song ID: hika -----//
#TITLE:ヒカリユリイカ;
#ARTIST:ここなつ;
#TITLETRANSLIT:Hikari eureka;
#ARTISTTRANSLIT:CocoNatsu;
#BANNER:Hikari eureka.png;
#BACKGROUND:Hikari eureka-bg.png;
#CDTITLE:./CDTitles/DDR A20.png;
#MUSIC:Hikari eureka.ogg;
#SAMPLESTART:40.055;
#SAMPLELENGTH:15;
#BPMS:0=140;
#NOTES:
     dance-single:
     :
     Beginner:
     2:
     :
0000
0000
0000
0000
,
0000
0000
0000
0000
,
0000
0000
0000
0000
,
0000
0000
0000
0000
,
0000
0000
0000
0000
,
0000
0000
0000
0000
,
0001
0000
0001
0000
,
0001
0000
0000
0000
,
0001
0000
0100
0000
,
0001
0000
0000
0000
,
0001
0000
0010
0000
,
0001
0000
0000
0000
,
0001
0000
0001
0000
,
0001
0000
0000
0000
,
1000
0000
1000
0000
,
1000
0000
1000
0000
,
0100
0000
0100
0000
,
0100
0000
0100
0000
,
1000
0000
0000
0000
,
1000
0000
0000
0000
,
1000
0000
1000
0000
,
1000
0000
0000
0000
,
1000
0000
0010
0000
,
1000
0000
0000
0000
,
0001
0000
0100
0000
,
0001
0000
0000
0000
,
0001
0000
0100
0000
,
0001
0000
0000
0000
,
1000
0000
0100
0000
,
1000
0000
0000
0000
,
1000
0000
0100
0000
,
1000
0000
0000
0000
,
0001
0000
0010
0000
,
0001
0000
0000
0000
,
0001
0000
0010
0000
,
0001
0000
0000
0000
,
1000
0000
0010
0000
,
1000
0000
0000
0000
,
1000
0000
0010
0000
,
1000
0000
0000
0000
,
0001
0000
0000
0000
,
0001
0000
0000
0000
,
0100
0000
0000
0000
,
0100
0000
0000
0000
,
0001
0000
0000
0000
,
0001
0000
0000
0000
,
0020
0000
0000
0000
,
0030
0000
0000
0000
,
2000
0000
0000
0000
,
3000
0000
0000
0000
,
2000
0000
0000
0000
,
3000
0000
0000
0000
,
1000
0000
0010
0000
,
1000
0000
0000
0000
,
0000
0000
0000
0000
,
0000
0000
0000
0000
,
0001
0000
0010
0000
,
0001
0000
0000
0000
,
0001
0000
0100
0000
,
0001
0000
0000
0000
,
0002
0000
0000
0000
,
0003
0000
0000
0000
,
0002
0000
0000
0000
,
0003
0000
0000
0000
,
1000
0000
1000
0000
,
1000
0000
0000
0000
,
0001
0000
0000
0000
,
1001
0000
0000
0000
,
0000
0000
0000
0000
;
#NOTES:
     dance-single:
     :
     Easy:
     5:
     :
0000
0000
0000
0000
,
0000
0000
0000
0000
,
0000
0000
0000
0000
,
0000
0000
0000
0000
,
0000
0000
0000
0000
,
0000
0000
0000
0000
,
0000
1000
0010
1000
,
0100
0010
0001
0000
,
0010
0001
0100
0000
,
0010
1000
0100
0000
,
1000
1000
0100
0000
,
0001
0001
0100
0000
,
1000
0010
0100
0010
,
1000
0100
0010
0000
,
0001
0100
0001
0000
,
0100
0001
0100
0000
,
1000
0100
1000
0000
,
0100
1000
0100
0000
,
0001
0010
0001
0000
,
0010
0001
0010
0000
,
1000
0010
1000
0000
,
0100
0001
0100
0000
,
0001
1000
0100
0010
,
0000
0010
0000
0000
,
1000
0001
1000
0001
,
1000
0000
1001
0000
,
0001
1000
0001
1000
,
0001
0000
1001
0000
,
0010
0010
0010
0000
,
0100
0100
0100
0000
,
0020
0000
0230
0000
,
0310
0000
0110
0000
,
0001
1000
0001
1000
,
0001
0000
1001
0000
,
1000
0001
1000
0001
,
1000
0000
1001
0000
,
0100
0100
0100
0000
,
0010
0010
0010
0000
,
2000
0000
3200
0000
,
0310
0000
0010
0010
,
0001
1000
0001
0000
,
1000
0100
0010
0000
,
0001
1000
0001
0000
,
0010
0100
1000
0000
,
0010
0100
0010
0000
,
1000
0001
0010
0100
,
0110
0000
1001
0000
,
0110
0000
1001
0000
,
2000
0000
0000
0000
,
3020
0000
0000
0000
,
0230
0000
0000
0000
,
0302
0000
0000
0000
,
0023
0000
0000
0000
,
0230
0000
0000
0000
,
0300
0000
0000
0000
,
0000
0000
0000
0000
,
0001
1000
0001
1000
,
0001
1000
0001
0000
,
1000
0001
1000
0001
,
1000
0001
1000
0000
,
0010
0100
0010
0000
,
0100
0010
0100
0000
,
0010
0010
0010
0010
,
0000
0010
0000
0000
,
1000
0100
0010
0000
,
0001
0010
0100
0000
,
1000
0100
0010
0001
,
2002
3003
0000
0000
,
0000
0000
0000
0000
;
#NOTES:
     dance-single:
     :
     Medium:
     8:
     :
0000
0000
0000
0000
,
0000
0000
0000
0000
,
0000
0000
0000
0000
,
0000
0000
0000
0000
,
0000
0000
0000
0000
,
0000
0000
0000
0000
,
0000
0000
0001
0000
0100
0000
0001
1000
,
0000
0001
0000
1000
0000
0010
1000
0100
,
1000
0000
0100
0000
0100
0000
0010
0001
,
0000
0010
0100
0000
2000
0000
3001
0000
,
0100
0000
0010
0000
0010
0000
1000
0010
,
0000
1000
0200
0000
0300
0000
1000
0000
,
0010
0000
0010
0100
0000
0001
0000
0010
,
0000
0001
0000
0010
0000
0200
0000
0000
,
1300
0100
1000
0000
2000
0000
3000
0000
,
0001
0100
0001
0000
0002
0000
0003
0000
,
1000
0010
1000
0000
2000
0000
3000
0000
,
0001
0010
0001
0010
0001
0000
1000
0000
,
0020
0000
0000
0130
0000
0000
1001
0000
,
0200
0000
0000
0310
0000
0000
1001
0000
,
2001
0100
0001
0100
,
3002
0100
1000
0100
,
1003
0100
0010
0000
0001
0100
0010
1000
,
0000
0001
1000
0000
0010
0000
0010
0000
,
1000
0100
0010
0000
0001
0100
0010
0000
,
1000
0010
0100
0000
0110
0000
1001
0000
,
0010
1000
0001
0000
0100
0001
1000
0000
,
0010
1000
0001
0000
1001
0000
0110
0000
,
0001
0000
0000
0001
0000
0000
0000
0000
0100
0000
0000
0000
0010
0000
0000
0000
,
1000
0000
0000
1000
0000
0000
2000
0000
0000
0000
0000
0000
3000
0000
0000
0000
,
0001
0000
0001
1000
0000
0100
0000
0020
,
0000
0030
0110
1001
,
0001
0010
0100
0000
1000
0010
0100
0000
,
0001
0100
0010
0000
0110
0000
1001
0000
,
0100
0001
1000
0000
0010
1000
0001
0000
,
0100
0001
1000
0000
1001
0000
0110
0000
,
1000
0000
0000
1000
0000
0000
2000
0000
0000
0000
0000
0000
3000
0000
0000
0000
,
0001
0000
0000
0001
0000
0000
0002
0000
0000
0000
0000
0000
1003
0000
0000
0000
,
1000
0000
0001
0000
0100
0000
0010
0200
,
0000
0300
0110
1001
,
0010
0000
0010
0000
1000
0100
1000
0000
,
0010
0000
0010
0000
0100
0001
0100
0000
,
1000
0000
1000
0000
0001
0100
0001
0000
,
1000
0000
1000
0000
0001
0010
0001
0000
,
0001
0000
0001
0000
1000
0100
1000
0000
,
0001
0000
0001
0000
1000
0010
1000
0010
,
0000
0000
0000
0110
0000
0000
0000
1001
,
0000
0000
0000
0010
0001
0000
1000
0000
,
0002
0023
0230
2300
,
3002
0203
0320
1030
,
2000
3200
0320
0032
,
2003
3020
0230
0301
,
1000
1000
0100
0100
,
0001
0001
0100
0200
,
0000
0000
0000
0000
,
0310
1000
1100
0101
,
0000
0000
1001
0000
0001
0100
0010
0000
,
1000
0010
0100
0000
0110
0000
1001
0000
,
0010
1000
0001
0000
0100
0001
1000
0000
,
0010
1000
0001
0000
1001
0000
0110
0000
,
0001
0000
0000
0001
0000
0000
0002
0000
0000
0000
0000
0000
0003
0000
0000
0000
,
1000
0000
0000
1000
0000
0000
2000
0000
0000
0000
0000
0000
3001
0000
0000
0000
,
0001
0000
1000
0000
0010
0000
0100
0020
,
0000
0030
0110
1001
,
1000
1000
0001
0001
,
1000
1000
0001
0001
,
1000
0000
0010
0000
0100
0010
0200
0020
,
0000
0330
0000
0000
,
0000
0000
0000
0000
;
#NOTES:
     dance-single:
     :
     Hard:
     11:
     :
0000
0000
0000
0000
,
0000
0000
0000
0000
,
0000
0000
0000
0000
,
0000
0000
0000
0000
,
0000
0000
0000
0000
,
0000
0000
0000
0000
,
0000
0000
0001
0010
0001
0000
0100
0010
,
0000
0010
0000
1000
0000
0010
1000
0100
,
1000
0000
1010
0000
0110
0000
0001
0100
,
0000
1000
0200
0000
0000
0000
0310
0000
,
1010
0000
1100
0000
0101
0000
1000
0100
,
0000
0001
0200
0000
0000
0000
0310
0000
,
0001
0100
0010
0100
0000
0100
0010
1000
,
0100
0010
0001
0010
0000
0010
0100
0000
,
1000
0100
0001
0100
0001
0100
1000
0000
,
0001
0100
1000
0100
1000
0100
0001
0000
,
1000
0010
0001
0010
0001
0010
1000
0001
,
0010
0001
0010
0100
0010
0000
0001
0100
,
0010
0000
0000
0010
0000
0000
0010
0000
0000
0000
0000
0000
1001
0000
0000
0000
,
0100
0000
0000
0100
0000
0000
0100
0000
0000
0000
0000
0000
0110
0000
0000
0000
,
0100
0000
0001
0000
0100
0000
0001
0000
0010
0000
0100
0010
0000
0100
0010
0000
,
0100
0000
1000
0000
0100
0000
1000
0000
0010
0000
0100
0010
0000
0100
0010
0000
,
1000
0010
1000
0010
0100
0001
0100
0100
,
0000
0100
0100
0000
1010
0000
0101
0000
,
1001
0010
0100
1000
0010
0100
1000
0100
,
0010
1000
0001
0010
0100
1000
1001
0000
,
1001
0010
0100
0001
0010
0100
0001
0100
,
0010
0001
1000
0010
0100
0001
1001
1000
,
0100
0000
0000
0010
0000
0000
0010
0000
0001
0000
0100
0000
0010
0000
1000
0000
,
0100
0000
0000
0100
0000
0000
0220
0000
0000
0000
0330
0000
0000
0000
0010
0000
,
0001
0100
0010
0100
0000
0100
0010
0200
,
0000
0301
0011
1100
,
1001
0010
0100
0010
1000
0010
0100
0010
,
0001
0100
0010
0100
1000
0100
0110
0000
,
1001
0010
0100
0010
0001
0010
0100
0010
,
1000
0100
0010
0100
0001
0100
0110
0000
,
0001
0000
0000
0010
0000
0000
0220
0000
0000
0000
0000
0000
0330
0000
0001
0000
,
1000
0000
0000
0010
0000
0000
0220
0000
0000
0000
0330
0000
0110
0000
0000
0000
,
1000
0100
1000
0100
0010
0001
0010
0002
,
0000
0010
1000
0103
,
0001
1000
0001
0000
0001
0100
0010
1000
,
0001
1000
0001
0000
1000
0100
0010
0001
,
1000
0001
1000
0000
1000
0100
0010
0001
,
1000
0001
1000
0000
0001
0100
0010
1000
,
0001
0010
0001
0000
1000
0010
1000
0000
,
0001
0100
0001
0000
1000
0100
0010
0001
,
0000
1000
0100
0010
0000
0001
0100
0010
,
0000
1000
0100
0010
0001
0000
1001
0000
,
0002
0103
2000
3100
,
0002
0013
2000
3100
,
0020
0130
2000
3100
,
0002
0013
0200
0310
,
0010
0000
0010
0000
1000
0100
1000
0000
,
0010
0000
0010
0000
0001
0100
0001
0200
,
0000
0000
0000
0000
0000
0000
0000
0310
,
0000
0010
0010
0000
1010
0000
0011
0000
,
0000
0000
1001
0100
0010
1000
0010
0001
,
0100
0010
0001
0010
0100
0001
0010
0000
,
0011
1000
0001
0010
0100
0001
0100
1000
,
0010
0100
1000
0100
0010
1000
0100
0000
,
0010
0000
0000
0010
0000
0000
0022
0000
0000
0000
0033
0000
1001
0000
0000
0000
,
0010
0000
0000
0010
0000
0000
2020
0000
0000
0000
3030
0000
1001
0000
0000
0000
,
1000
0010
0100
0010
0001
0010
0100
0020
,
0000
0001
0100
1030
,
1000
0100
0010
0000
0001
0100
0010
0000
,
1000
0010
0100
0000
0001
0010
0100
0000
,
1000
0100
0010
0001
0010
0100
1000
2002
,
0000
3003
0000
0000
,
0000
0000
0000
0000
;
#NOTES:
     dance-double:
     :
     Easy:
     5:
     :
00000000
00000000
00000000
00000000
,
00000000
00000000
00000000
00000000
,
00000000
00000000
00000000
00000000
,
00000000
00000000
00000000
00000000
,
00000000
00000000
00000000
00000000
,
00000000
00000000
00000000
00000000
,
00000000
10000000
00100000
10000000
,
00100000
01000000
00010000
00000000
,
00100000
00010000
01000000
00000000
,
00100000
10000000
01000000
00000000
,
00010000
00001000
00010000
00000000
,
00000100
00001000
00000100
00000000
,
00001000
00000100
00000010
00000000
,
00000001
00000100
00000010
00000000
,
00001000
00000100
00001000
00000000
,
00000100
00010000
00000100
00000000
,
00010000
00001000
00010000
00000000
,
00001000
00100000
00001000
00000000
,
00010000
10000000
01000000
00000000
,
10000000
00010000
01000000
00000000
,
00001000
00010000
00001000
00000000
,
00000010
00000100
00000010
00000000
,
00001000
00010000
01000000
10000000
,
00000000
10000000
00000000
00000000
,
00100000
01000000
00100000
01000000
,
00100000
00000000
01100000
00000000
,
00001000
00010000
00001000
00010000
,
00001000
00000000
00011000
00000000
,
00001000
00001000
00001000
00000000
,
00010000
00010000
00010000
00000000
,
00002000
00000000
00023000
00000000
,
00031000
00000000
00010000
00000000
,
00000100
00010000
00001000
00010000
,
00000100
00000000
00011000
00000000
,
00000010
00000100
00000010
00000100
,
00000010
00000000
00000110
00000000
,
00000001
00000001
00000001
00000000
,
00000100
00000100
00000100
00000000
,
00000020
00000000
00020030
00000000
,
00031000
00000000
00010000
00000000
,
00001000
00010000
00001000
00000000
,
00010000
00001000
00010000
00000000
,
01000000
10000000
01000000
00000000
,
10000000
00100000
01000000
00000000
,
00001000
00010000
00001000
00000000
,
00010000
00001000
00000010
00000000
,
00000011
00000000
00000110
00000000
,
00001100
00000000
00001001
00000000
,
00000002
00000000
00000000
00000000
,
00000203
00000000
00000000
00000000
,
00000320
00000000
00000000
00000000
,
00020030
00000000
00000000
00000000
,
00032000
00000000
00000000
00000000
,
02003000
00000000
00000000
00000000
,
03000000
00000000
00000000
00000000
,
00000000
00000000
00000000
00000000
,
00000001
00000010
00000100
00000000
,
00000010
00000100
00001000
00000000
,
00000010
00000100
00001000
00000000
,
00010000
00001000
00010000
00000000
,
00001000
00010000
00100000
00000000
,
00010000
00100000
01000000
00000000
,
00100000
10000000
01000000
00010000
,
00002000
00000000
00000000
00000000
,
00013000
00000000
00000100
00000000
,
00000010
00000000
00000001
00000000
,
00000001
00000100
00000010
00001000
,
00002002
00003003
00000000
00000000
,
00000000
00000000
00000000
00000000
;
#NOTES:
     dance-double:
     :
     Medium:
     8:
     :
00000000
00000000
00000000
00000000
,
00000000
00000000
00000000
00000000
,
00000000
00000000
00000000
00000000
,
00000000
00000000
00000000
00000000
,
00000000
00000000
00000000
00000000
,
00000000
00000000
00000000
00000000
,
00000000
00000000
00100000
00000000
10000000
00000000
00100000
10000000
,
00000000
00010000
00000000
00100000
00000000
00010000
10000000
01000000
,
10000000
00000000
01000000
00000000
01000000
00000000
00100000
00001000
,
00000000
00010000
00001000
00000000
00020000
00000000
00031000
00000000
,
00010000
00000000
00000100
00000000
00000100
00000000
00001000
00000100
,
00000000
00001000
00000200
00000000
00000300
00000000
00000010
00000000
,
00000001
00000000
00000001
00000100
00000000
00000010
00000000
00001000
,
00000000
00000010
00000000
00000100
00000000
00000002
00000000
00000000
,
00000103
00000010
00000100
00000000
00002000
00000000
00003000
00000000
,
00010000
00001000
00010000
00000000
02000000
00000000
03000000
00000000
,
00100000
01000000
00100000
00000000
00020000
00000000
00030000
00000000
,
01000000
00100000
01000000
00000000
00010000
00000000
10000000
00000000
,
00200000
00000000
00000000
01300000
00000000
00000000
10010000
00000000
,
02000000
00000000
00000000
03010000
00000000
00000000
00011000
00000000
,
00012000
01000000
00010000
01000000
,
00023000
00001000
00000100
00001000
,
00030100
00001000
00000100
00000000
00001000
00000100
00001000
00000100
,
00000000
00000010
00000001
00000000
00000100
00000000
00000100
00000000
,
00000001
00000010
00000100
00000000
00001000
00000010
00001000
00000000
,
00000100
00010000
00001000
00000000
00011000
00000000
00011000
00000000
,
00001000
00100000
00010000
00000000
00100000
00010000
00100000
00000000
,
00010000
01000000
00100000
00000000
10000000
00000000
01100000
00000000
,
00010000
00000000
00000000
00010000
00000000
00000000
00000000
00000000
10000000
00000000
00000000
00000000
01000000
00000000
00000000
00000000
,
00010000
00000000
00000000
00010000
00000000
00000000
00020000
00000000
00000000
00000000
00000000
00000000
00030000
00000000
00000000
00000000
,
00001000
00000000
00010000
00001000
00000000
00010000
00000000
00002000
,
00000000
00003000
00011000
00011000
,
00010000
00000100
00001000
00000000
00000100
00001000
00000100
00000000
,
00001000
00000010
00000100
00000000
00000001
00000000
00000110
00000000
,
00000001
00000100
00000010
00000000
00001000
00000100
00000010
00000000
,
00000100
00001000
00010000
00011000
,
00010000
00000000
00000000
00010000
00000000
00000000
00020000
00000000
00000000
00000000
00000000
00000000
00030000
00000000
00000000
00000000
,
00100000
00000000
00000000
00100000
00000000
00000000
00200000
00000000
00000000
00000000
00000000
00000000
10300000
00000000
00000000
00000000
,
01000000
00000000
10000000
00000000
00100000
00000000
01000000
00020000
,
00000000
00030000
01000000
01000000
,
00100000
00000000
00100000
00000000
10000000
01000000
10000000
00000000
,
01000000
00000000
01000000
00000000
00100000
00010000
00100000
00000000
,
00001000
00000000
00001000
00000000
00010000
00001000
00010000
00000000
,
00001000
00000000
00001000
00000000
00000100
00000010
00000100
00000000
,
00000010
00000000
00000010
00000000
00001000
00000100
00001000
00000000
,
00000010
00000000
00000010
00000000
00000001
00001000
00000001
00001000
,
00000000
00000000
00000000
00001100
00000000
00000000
00000000
00011000
,
00000000
00000000
00000000
00100000
00010000
00000000
10000000
00000000
,
00200000
20300000
32000000
03020000
,
00032000
00003020
00000032
00002003
,
00003002
00000203
00002300
00023000
,
00230000
20300000
30020000
10030000
,
00100000
00100000
10000000
10000000
,
00010000
00010000
01000000
02000000
,
00000000
00000000
00000000
00000000
,
03100000
10000000
11000000
01010000
,
00000000
00000000
00011000
00000000
00010000
00000100
00001000
00000000
,
00000010
00010000
00001000
00000000
00010000
00000000
00011000
00000000
,
00001000
01000000
00010000
00000000
00100000
00001000
00010000
00000000
,
00001000
00010000
00001000
00000000
00010000
00000000
00011000
00000000
,
00001000
00000000
00000000
00001000
00000000
00000000
00002000
00000000
00000000
00000000
00000000
00000000
00003000
00000000
00000000
00000000
,
00010000
00000000
00000000
00010000
00000000
00000000
00020000
00000000
00000000
00000000
00000000
00000000
00031000
00000000
00000000
00000000
,
00001000
00000000
00000010
00000000
00000001
00000000
00000100
00000020
,
00000000
00000030
00000100
00001001
,
00000001
00001000
00000001
00001000
,
00000001
00000100
00001000
00010000
,
00100000
00000000
10000000
00000000
00010000
10000000
00020000
20000000
,
00000000
30030000
00000000
00000000
,
00000000
00000000
00000000
00000000
;
#NOTES:
     dance-double:
     :
     Hard:
     11:
     :
00000000
00000000
00000000
00000000
,
00000000
00000000
00000000
00000000
,
00000000
00000000
00000000
00000000
,
00000000
00000000
00000000
00000000
,
00000000
00000000
00000000
00000000
,
00000000
00000000
00000000
00000000
,
00000000
00000000
00000001
00001000
00000001
00000000
00000100
00000010
,
00000000
00000010
00000000
00001000
00000000
00000001
00000100
00001000
,
00010000
00000000
00011000
00000000
01001000
00000000
00010000
01000000
,
00000000
10000000
02000000
00000000
00000000
00000000
03010000
00000000
,
10010000
00000000
11000000
00000000
00110000
00000000
10000000
00100000
,
00000000
10000000
00200000
00000000
00000000
00000000
01300000
00000000
,
00010000
01000000
00100000
01000000
00000000
00100000
10000000
01000000
,
00100000
00010000
00100000
00001000
00000000
00001000
00010000
00000000
,
00001000
00000010
00000001
00000010
00000001
00000000
00000100
00000000
,
00000001
00000100
00001000
00000100
00001000
00000000
00010000
00000000
,
00010000
00100000
10000000
00100000
10000000
00000000
01000000
00000000
,
10000000
01000000
00010000
01000000
00010000
00000000
00001000
00010000
,
00001000
00000000
00000000
00001000
00000000
00000000
00001000
00000000
00000000
00000000
00000000
00000000
00001100
00000000
00000000
00000000
,
00000010
00000000
00000000
00000010
00000000
00000000
00000010
00000000
00000000
00000000
00000000
00000000
00000011
00000000
00000000
00000000
,
00000001
00000010
00000001
00000010
00001000
00000010
00001000
00010000
,
01000000
00010000
01000000
00010000
01000000
10000000
01000000
10000000
,
00100000
00010000
00100000
00010000
00001000
00010000
00001000
00010000
,
00000000
00001000
00011000
00000000
00000000
00000000
00000000
00000000
,
00001000
00000100
00000001
00000010
00000100
00000001
00000100
00000010
,
00000001
00000100
00000010
00010000
00001000
01000000
00100000
10000000
,
00010000
00100000
01000000
00010000
01000000
00100000
00010000
10000000
,
00100000
10000000
00010000
01000000
00001000
00010000
00000100
00001000
,
00000010
00000000
00000000
00000100
00000000
00000000
00000010
00000000
00001000
00000000
00000100
00000000
00010000
00000000
00000100
00000000
,
00010000
00000000
00000000
00001000
00000000
00000000
00022000
00000000
00000000
00000000
00033000
00000000
00000000
00000000
00100000
00000000
,
00010000
01000000
00100000
00010000
00000000
00001000
00010000
00002000
,
00000000
00000000
00013000
00001000
00010000
00000000
00011000
00000000
,
00010000
01000000
10000000
00100000
01000000
10000000
01000000
00100000
,
10000000
01000000
00100000
00001000
00010000
00000100
00000010
00000001
,
00001000
00000010
00000100
00001000
00000100
00000010
00001000
00000001
,
00000010
00000001
00001000
00000100
00010000
00001000
01000000
00010000
,
00100000
00000000
00000000
01000000
00000000
00000000
02200000
00000000
00000000
00000000
00000000
00000000
03300000
00000000
01000000
00000000
,
10000000
00000000
00000000
00100000
00000000
00000000
02200000
00000000
00000000
00000000
03300000
00000000
01000000
00000000
00000000
00000000
,
00010000
01000000
00010000
01000000
00001000
00010000
00001000
00020000
,
00000000
00001000
00001000
00031000
,
00010000
00001000
00010000
00000000
00001000
00000010
00000100
00000000
,
00001000
00000010
00001000
00000000
00000001
00000100
00000010
00000000
,
00001000
00000100
00001000
00000000
00000100
00010000
00001000
00000000
,
00010000
00001000
00010000
00000000
00001000
00100000
00010000
00000000
,
01000000
00010000
01000000
00000000
00100000
10000000
01000000
00000000
,
10000000
01000000
10000000
00000000
01000000
00010000
00001000
00010000
,
00000000
00100000
00010000
00001000
00000000
00000010
00001000
00010000
,
00000000
01000000
00010000
00001000
00000010
00000000
00000001
00000000
,
00000002
00000103
00000200
00000310
,
00000020
00001030
00002000
00003100
,
00002000
00013000
00020000
00130000
,
00200000
10300000
20000000
30100000
,
10000000
00000000
10000000
00000000
00010000
01000000
00010000
00000000
,
00100000
00000000
00100000
00000000
01000000
10000000
01000000
00200000
,
00000000
00000000
00000000
00000000
00000000
00000000
00000000
00310000
,
00000000
00100000
00100000
00000000
00011000
00000000
00011000
00000000
,
00000000
00000000
00000001
00000100
00000010
00000001
00000010
00000100
,
00000001
00000010
00000100
00010000
00001000
00100000
01000000
10000000
,
00010000
01000000
00100000
00010000
00100000
01000000
00010000
10000000
,
01000000
10000000
00010000
00100000
00001000
00010000
00000010
00001000
,
00000100
00000000
00000000
00000010
00000000
00000000
00000220
00000000
00000000
00000000
00000000
00000000
00000330
00000000
00000010
00000000
,
00000001
00000000
00000000
00000100
00000000
00000000
00000220
00000000
00000000
00000000
00000330
00000000
00000010
00000000
00000000
00000000
,
00001000
00000010
00001000
00000010
00010000
00001000
00010000
00002000
,
00000000
00010000
00010000
00013000
,
00010000
01000000
10000000
00000000
00010000
01000000
10000000
00000000
,
00010000
00100000
10000000
00000000
00010000
00100000
10000000
00000000
,
00100000
00001000
00010000
00001000
00000100
00000001
00000010
00000220
,
00000000
00000330
00000000
00000000
,
00000000
00000000
00000000
00000000
;
