
//----- song ID: heli -----//
#TITLE:Helios;
#ARTIST:xac;
#BANNER:Helios.png;
#BACKGROUND:Helios-bg.png;
#CDTITLE:./CDTitles/DDR A20.png;
#MUSIC:Helios.ogg;
#SAMPLESTART:96.027;
#SAMPLELENGTH:15;
#BPMS:0=182;
#NOTES:
     dance-single:
     :
     Beginner:
     4:
     :
0000
0000
0000
0000
,
0000
0000
0000
0000
,
0000
0000
0000
0000
,
0000
0000
0000
0000
,
0000
0000
0000
0000
,
0000
0000
0000
0000
,
0000
0000
0000
0000
,
0000
0000
0000
0000
,
0000
0000
0000
0000
,
1001
0000
0000
0000
,
0110
0000
0000
0000
,
1001
0000
0000
0000
,
0110
0000
0000
0000
,
0001
0000
0001
0000
,
0100
0000
0100
0000
,
1000
0000
1000
0000
,
0100
0000
0100
0000
,
0001
0001
0001
0000
,
1000
1000
1000
0000
,
0001
0001
0001
0000
,
1000
1000
1000
0000
,
0010
0010
0010
0000
,
0100
0100
0100
0000
,
0010
0010
0010
0000
,
0100
0100
0100
0000
,
0001
0000
0010
0000
,
0100
0000
1000
0000
,
0010
0000
0100
0000
,
0001
0000
1000
0000
,
0001
0000
0100
0000
,
0010
0000
1000
0000
,
0100
0000
0010
0000
,
0001
0000
1000
0000
,
0010
0000
0001
0000
,
0100
0000
0001
0000
,
0010
0000
0001
0000
,
0100
0000
0001
0000
,
0010
0000
1000
0000
,
0100
0000
1000
0000
,
0010
0000
1000
0000
,
0100
0000
0000
0000
,
1001
0000
0000
0000
,
0000
0000
0000
0000
,
0000
0000
0000
0000
,
0000
0000
0000
0000
,
0000
0000
0000
0000
,
0000
0000
0000
0000
,
0000
0000
0000
0000
,
0000
0000
0000
0000
,
0002
0000
0000
0000
,
0003
0000
0000
0000
,
0200
0000
0000
0000
,
0300
0000
0000
0000
,
2000
0000
0000
0000
,
3000
0000
0000
0000
,
0020
0000
0000
0000
,
0030
0000
0000
0000
,
1001
0000
0000
0000
,
0100
0100
0100
0000
,
0010
0000
0010
0000
,
0100
0100
0100
0000
,
0001
0000
0001
0000
,
0100
0100
0100
0000
,
1000
0000
1000
0000
,
0100
0100
0100
0000
,
0001
0000
0010
0000
,
1000
0000
0100
0000
,
0001
0000
0100
0000
,
1000
0000
0010
0000
,
0001
0000
0010
0000
,
1000
0000
0100
0000
,
0010
0010
0010
0000
,
0100
0100
0100
0000
,
0002
0000
0003
0000
,
1000
0000
0010
0000
,
0100
0000
0001
0000
,
1000
0000
0010
0000
,
2000
0000
3000
0000
,
0001
0000
0010
0000
,
0100
0000
1000
0000
,
0001
0000
0010
0000
,
0200
0000
0300
0000
,
0010
0000
0001
0000
,
0010
0000
1000
0000
,
0001
0000
0100
0000
,
0001
0001
0001
0000
,
0100
0100
0100
0000
,
1000
1000
1000
0000
,
0010
0010
0010
0000
,
1001
0000
0000
0000
,
0000
0000
0000
0000
;
#NOTES:
     dance-single:
     :
     Easy:
     8:
     :
0000
0000
0000
0000
,
0000
0000
0000
0000
,
0000
0000
0000
0000
,
0000
0000
0000
0000
,
0000
0000
0000
0000
,
0000
0000
0000
0000
,
0000
0000
0000
0000
,
0000
0000
0000
0000
,
0000
0000
0000
0000
,
0110
0000
1000
0000
0000
1000
0000
0000
,
0110
0000
0001
0000
0000
0001
0000
0000
,
1001
0000
0100
0000
0000
0100
0000
0000
,
1001
0000
0010
0000
0000
0010
0000
0000
,
0002
0000
0000
1003
2000
0000
0000
3001
,
0002
0000
0000
1003
2000
0000
0000
3010
,
0020
0000
0000
0130
0200
0000
0000
0301
,
0001
0010
1000
0100
,
0010
0100
0010
0000
0001
0000
0010
0000
,
0100
1000
0100
0000
1000
0000
0001
0000
,
0100
0010
0100
0000
0010
0000
1000
0000
,
0001
0100
0001
0000
1000
0000
0001
0000
,
1000
0100
0010
0000
0001
0000
1000
0000
,
0001
0100
0010
0000
1000
0000
0001
0000
,
0010
0010
0010
0000
0100
0100
0100
0000
,
0001
0100
1000
0010
,
1000
0000
0000
0100
0000
0000
0001
0000
,
0000
0100
0000
0000
1000
0000
1001
0000
,
0001
0000
0000
0010
0000
0000
1000
0000
,
0000
0010
0000
0000
0001
0000
1001
0000
,
0010
0000
0000
0001
0000
0000
0100
0000
,
0000
0001
0000
0000
0010
0000
0110
0000
,
0010
0000
0000
1000
0000
0000
0100
0000
,
0000
1000
0000
0000
0010
0000
0110
0000
,
0001
0000
0000
0010
0000
0000
1000
0000
,
0000
0100
0000
0000
0001
0000
1001
0000
,
1000
0000
0000
0010
0000
0000
0001
0000
,
0000
0100
0000
0000
1000
0000
1001
0000
,
0010
0010
0001
0001
,
0100
0100
1000
1000
,
0010
0010
0010
0000
0100
0100
0100
0000
,
0020
0000
0000
0030
,
1001
0000
0000
0000
,
0000
0000
0000
0000
,
2000
0000
0000
0000
,
0000
0000
3000
0000
,
0020
0000
0000
0000
,
0000
0000
0030
0000
,
0002
0000
0000
0000
,
0000
0000
0003
0000
,
2001
0000
0000
3000
,
0200
0000
0000
0300
,
0020
0000
0000
0030
,
0002
0000
0000
0003
,
0200
0000
0000
0300
,
0020
0000
0000
0030
,
1000
0100
0100
0000
,
0010
0001
1000
0001
,
1001
0000
0000
1001
0000
0000
0000
0000
,
0001
0100
0010
1000
,
1001
0000
0000
1001
0000
0000
0000
0000
,
1000
0100
0010
0001
,
0110
0000
0000
0110
0000
0000
0000
0000
,
1000
0010
0100
0001
,
0110
0000
0000
0110
0000
0000
0000
0000
,
1000
1000
0001
0001
,
1000
0010
0001
0010
,
1000
0010
0001
0000
,
1000
0100
0001
0100
,
1000
0100
0001
0000
,
1000
0010
0001
0010
,
1000
0010
0001
0000
,
1000
1000
1000
0000
0001
0001
0001
0000
,
1000
0100
0010
0001
,
2000
0010
0010
3010
,
0002
0010
1000
0103
,
2000
3100
0002
0103
,
2000
0000
3100
0000
0100
0010
0100
0000
,
0002
0010
0010
0013
,
2000
0010
0001
3100
,
0002
0103
2000
3100
,
0002
0000
0103
0000
0100
0010
0100
0000
,
0200
0010
0010
0310
,
0002
0010
1000
0103
,
2000
3100
0002
0103
,
0020
0000
0130
0000
0100
0010
0100
0000
,
0001
0001
0010
0010
,
1000
1000
0100
0100
,
0010
0010
0010
0000
0100
0100
0100
0000
,
0020
0000
0000
0030
,
1001
0000
0000
0000
,
0000
0000
0000
0000
;
#NOTES:
     dance-single:
     :
     Medium:
     12:
     :
0000
0000
0000
0000
,
0000
0000
0000
0000
,
0000
0000
0000
0000
,
0000
0000
0000
0000
,
0000
0000
0000
0000
,
0000
0000
0000
0000
,
0000
0000
0000
0000
,
0000
0000
0000
0000
,
0000
0000
0000
0000
,
0120
0000
0031
0000
0000
1001
0000
0000
,
0102
0000
1003
0000
0000
1010
0000
0100
,
0120
0000
1030
0000
0000
1001
0000
0000
,
2100
0000
3001
0000
0000
0011
0000
0100
,
2000
0000
0000
3010
0000
0000
0001
0000
0002
0000
0000
0013
0000
0000
1000
0000
,
2000
0000
0000
3100
0000
0000
0001
0000
0002
0000
0000
0103
0000
0000
1000
0000
,
0100
0000
0000
0100
0000
0000
0100
0000
0010
0000
0000
0010
0000
0000
0010
0000
,
0001
1000
0001
1000
0001
1000
0001
1000
,
0100
0010
0001
1000
0010
0100
0001
1000
,
0100
0010
0001
1000
0010
0100
0001
0000
,
0100
0010
1000
0001
0010
0100
1000
0001
,
0100
0010
1000
0001
0010
0100
1000
0000
,
0010
1000
0001
1000
0100
1000
0001
1000
,
0010
1000
0001
1000
0100
1000
0001
0000
,
1000
1000
1000
1000
0001
0001
0001
0001
,
1000
0100
0010
0001
0100
0010
1000
0000
,
0001
0010
0000
0100
1000
0000
0001
0010
,
0000
0100
1000
0000
0011
0000
1100
0000
,
1000
0010
0000
0100
0001
0000
1000
0010
,
0000
0100
0001
0000
1010
0000
0101
0000
,
0010
0100
0000
0001
1000
0000
0010
0100
,
0000
0001
1000
0000
0110
0000
1001
0000
,
0100
0010
0000
0001
1000
0000
0100
0010
,
0000
0001
1000
0000
0110
0000
1001
0000
,
0010
1000
0000
1000
0100
0000
0100
0001
,
0000
0001
0010
0000
1100
0000
0011
0000
,
0010
0001
0000
0001
0100
0000
0100
1000
,
0000
1000
0010
0000
0101
0000
1010
0000
,
0001
0100
0010
0000
1000
0100
0010
0000
,
0001
0100
0010
0000
1000
0100
0010
0000
,
0100
0100
0100
0100
0010
0010
0010
0010
,
0001
0100
0010
1000
0010
0100
0001
1000
,
0002
0000
0000
0010
,
0000
1000
0000
0000
0100
0000
0000
0000
,
2003
0000
0000
0010
0000
0000
0001
0000
,
0000
0100
0000
0000
0001
0000
0000
0000
,
3020
0000
0000
1000
0000
0000
0100
0000
,
0000
0001
0000
0000
1000
0000
0000
0000
,
0230
0000
1000
0000
0000
0010
0000
0000
,
0001
0000
0000
0010
0300
0000
0000
0000
,
2002
0000
0000
3000
,
0200
0000
0000
0003
,
0020
0000
0000
0300
,
2000
0000
0000
0030
,
0200
0000
0000
3000
,
0020
0000
0000
0300
,
0032
0000
0100
0000
0103
0000
0000
0100
,
0010
0010
0100
0001
1000
0001
0100
0000
,
0001
0010
0100
1000
0001
0010
0100
0000
,
1000
0100
0010
0001
1000
0100
0010
0000
,
0001
0100
0010
1000
0001
0100
0010
0000
,
1000
0010
0100
0001
1000
0010
0100
0000
,
0010
1000
0100
0001
0100
1000
0010
0000
,
0100
0001
0010
1000
0010
0001
0100
0000
,
1000
0100
0001
0010
0001
0100
1000
0000
,
0100
0100
0100
0100
0010
0010
0010
0010
,
1000
0020
0000
0031
0000
0010
0000
1000
,
0000
0100
0000
0010
0000
0001
1000
0000
,
0001
0020
0000
1030
0000
0010
0000
0001
,
0000
0100
0000
0010
0000
1000
0001
0000
,
1000
0200
0000
0301
0000
0100
0000
1000
,
0000
0010
0000
0100
0000
0001
1000
0000
,
0001
1000
0001
1000
0001
1000
0001
1000
,
0001
0100
0010
1000
0100
0010
0001
0000
,
1000
0100
0001
0100
0010
0100
1000
0000
,
0010
1000
0100
0010
0000
0010
0001
0000
,
0100
0010
1000
0010
0000
0010
0200
0000
,
0001
0010
1000
0310
,
0001
0100
1000
0100
0010
0100
0001
0000
,
0010
0001
1000
0001
0000
0001
0100
0000
,
0010
1000
0010
0100
0000
0100
0020
0000
,
1000
0100
0001
0130
,
1000
0010
0001
0010
0100
0010
1000
0000
,
0010
1000
0001
1000
0000
1000
0100
0000
,
0010
0001
0100
0010
0000
0010
0200
0000
,
1000
0010
0001
0310
,
1000
0100
0010
0000
0001
0100
0010
0000
,
1000
0100
0010
0000
0001
0100
0010
0000
,
0100
0100
0100
0100
0010
0010
0010
0010
,
0200
0000
0000
0300
,
1001
0000
0000
0000
,
0000
0000
0000
0000
;
#NOTES:
     dance-single:
     :
     Hard:
     16:
     :
0000
0000
0000
0000
,
0000
0000
0000
0000
,
0000
0000
0000
0000
,
0000
0000
0000
0000
,
0000
0000
0000
0000
,
0000
0000
0000
0000
,
0000
0000
0000
0000
,
0000
0000
0000
0000
,
0000
0000
0000
0000
,
0110
0000
0000
0000
1000
0000
0000
0001
0000
0000
0110
0000
0000
0000
0000
0000
,
1010
0000
0000
0000
0001
0000
0000
0100
0000
0000
1010
0000
0000
0000
0010
0100
,
0010
0000
0000
0000
0001
0000
0000
0100
0000
0000
0011
0000
0000
0000
0000
0000
,
1001
0000
0000
0000
0010
0000
0000
0100
0000
0000
1001
0000
0000
0000
0010
0100
,
0020
0000
0000
2030
0000
0000
3200
0000
0320
0000
0000
0032
0000
0000
0203
0000
,
0302
0000
0000
0023
0000
0000
2030
0000
3002
0000
0000
0203
0000
0000
2300
0000
,
3020
0000
0000
0032
0000
0000
2003
0000
3200
0000
0000
0302
0000
0000
1003
0000
,
0001
1000
0001
1000
0001
1000
0001
1000
0001
0100
0001
0100
0001
0100
0001
0100
,
0010
0000
1000
0000
0010
0000
0100
0010
0100
0000
0001
1000
0001
0000
0100
0000
,
0001
0000
1000
0000
0100
0000
1000
0001
1000
0000
0100
0010
0100
0000
1000
0000
,
0001
0000
0010
0000
0100
0000
1000
0100
1000
0000
0001
0100
0001
0000
1000
0000
,
0001
0000
0100
0000
0010
0000
1000
0010
1000
0010
1000
0000
0001
0000
1000
0000
,
0001
0000
0010
0000
0001
0000
1000
0001
1000
0000
1000
0100
1000
0000
0001
0000
,
1000
0000
0010
0000
1000
0000
0001
1000
0001
0000
0001
0100
0001
0000
1000
0000
,
0001
0001
0010
0010
0100
0100
1000
1000
,
0010
0000
0010
0000
0100
0000
0100
0000
0010
0100
0010
0100
0010
0100
0010
0100
,
0001
0100
1000
0001
0010
1000
0001
0100
,
1000
0001
0010
1000
0001
0100
0110
0000
,
1000
0100
0001
1000
0010
0001
1000
0100
,
0001
1000
0010
0001
1000
0100
0110
0000
,
0001
0010
1000
0001
0100
1000
0001
0010
,
1000
0001
0100
1000
0001
0010
0110
0000
,
1000
0010
0001
1000
0100
0001
1000
0010
,
0001
1000
0100
0001
1000
0010
0110
0000
,
1000
0000
0010
0000
1000
0001
1000
0001
2000
0000
0000
0000
3100
0000
0010
0000
,
0001
0000
0010
0000
0001
1000
0001
1000
0002
0000
0000
0000
0103
0000
0010
0000
,
1000
0000
0100
0000
1000
0010
1000
0010
2000
0000
0000
0000
3100
0000
0010
0000
,
0001
0000
0100
0000
0001
0010
0001
0010
0002
0000
0000
0000
0103
0000
0010
0000
,
0110
1000
0001
0000
0110
0001
1000
0000
,
0011
1000
0100
0000
1010
0001
0100
0000
,
0010
0010
1000
1000
0100
0100
0010
0010
,
0001
0000
0001
0000
0100
0000
0100
0000
0010
0100
0001
1000
0010
0100
0001
1000
,
0002
0000
0000
0000
0000
0000
0010
0010
,
0000
1000
1000
0000
0100
0100
0000
1003
,
2000
0000
0000
0010
0010
0000
0001
0001
,
0000
0100
0100
0000
0001
0001
0000
3010
,
0020
0000
0000
1000
1000
0000
0100
0100
,
0000
0001
0001
0000
1000
1000
0000
0130
,
0200
0000
1000
1000
0000
0010
0010
0000
,
0001
0001
0000
0010
0310
0000
0000
0000
,
2002
0000
0000
0003
,
0200
0000
0000
3000
,
0002
0000
0000
0300
,
2000
0000
0000
0003
,
0020
0000
0000
3000
,
0002
0000
0000
0030
,
2003
0000
0010
0000
3010
0000
0000
0010
,
0100
0000
0100
0000
0010
0000
1000
0001
0100
0001
1000
0000
0100
0000
0000
0000
,
1001
0100
0010
1001
0100
0010
1001
0000
,
0110
0000
0001
0000
1000
0000
0110
0000
0001
0000
1000
0000
0100
0010
0100
0010
,
0001
0100
1000
0011
0100
1000
0011
0000
,
1010
0000
0100
0000
0001
0000
1010
0000
0100
0000
0001
0000
1000
0001
1000
0001
,
1000
0100
0010
1001
0100
0010
1001
0000
,
0110
0000
1000
0000
0001
0000
0110
0000
1000
0000
0001
0000
0100
0010
0100
0010
,
1000
0100
0010
1001
0100
0010
1001
0000
,
1000
0100
1000
0100
1000
0100
1000
0100
0010
0100
0010
0100
0010
0100
0010
0100
,
1000
0100
0001
0100
0010
0100
0001
0100
,
1000
0100
0001
0100
0010
0100
1000
0000
,
0001
0100
1000
0100
0010
0100
1000
0100
,
0001
0100
1000
0100
0010
0100
0001
0000
,
1000
0010
0001
0010
0100
0010
0001
0010
,
1000
0010
0001
0010
0100
0010
1000
0000
,
0001
0001
0100
0100
0010
0010
1000
1000
,
0001
0000
0100
0000
0010
0000
1000
0000
0100
0010
0001
1000
0100
0010
0001
1000
,
0001
0000
0010
0000
0001
0000
1000
0001
0010
0001
1000
0000
0001
0000
0000
0000
,
0120
0001
0130
0210
1000
0310
0110
0001
,
1002
0010
1003
2001
0010
3001
0120
0000
,
1000
0000
0000
0000
0100
0000
0000
0000
0001
0000
0000
0000
0130
0010
1000
0100
,
0010
0000
0001
0000
0010
0000
0100
1000
0001
1000
0100
0000
0010
0000
0000
0000
,
0012
1000
0013
0021
0100
0031
0011
1000
,
2100
0001
3100
1200
0010
1300
0120
0000
,
1000
0000
0000
0000
0100
0000
0000
0000
0001
0000
0000
0000
0130
0010
0001
0100
,
0010
0000
1000
0000
0001
0000
1000
0100
0010
0100
1000
0000
0010
0000
0000
0000
,
0201
0010
0301
0102
1000
0103
0101
0010
,
1020
0100
1030
2010
0001
3010
0210
0000
,
0001
0000
0000
0000
0010
0000
0000
0000
1000
0000
0000
0000
0301
0100
0010
1000
,
0001
1000
0001
0000
0110
0001
1000
0000
,
0011
1000
0100
0000
1010
0001
0100
0000
,
0010
0010
1000
1000
0100
0100
0010
0010
,
0001
1000
0001
1000
0001
1000
0001
1000
0010
0100
0010
0100
0010
0100
0010
0100
,
0001
0000
0000
0000
,
0000
0000
0000
0000
;
#NOTES:
     dance-double:
     :
     Easy:
     8:
     :
00000000
00000000
00000000
00000000
,
00000000
00000000
00000000
00000000
,
00000000
00000000
00000000
00000000
,
00000000
00000000
00000000
00000000
,
00000000
00000000
00000000
00000000
,
00000000
00000000
00000000
00000000
,
00000000
00000000
00000000
00000000
,
00000000
00000000
00000000
00000000
,
00000000
00000000
00000000
00000000
,
00000020
00000000
00001000
00000000
00000000
00001030
00000000
00000000
,
00020000
00000000
00001000
00000000
00000000
00031000
00000000
00000000
,
00000200
00000000
00001000
00000000
00000000
00001300
00000000
00000000
,
00020000
00000000
00001000
00000000
00000000
00031000
00000000
00000000
,
00100000
00000000
00000000
00010000
01000000
00000000
00000000
00100000
,
10000000
00000000
00000000
01000000
00100000
00000000
00000000
00010000
,
01000000
00000000
00000000
00001000
00010000
00000000
00000000
00000010
,
00001000
00000001
00000010
00000100
,
00001000
00000100
00001000
00000000
00000100
00000000
00000010
00000000
,
00000001
00000100
00000001
00000000
00000100
00000000
00000010
00000000
,
00010000
00001000
00010000
00000000
01000000
00000000
00100000
00000000
,
00010000
10000000
00010000
00000000
01000000
00000000
00100000
00000000
,
10000000
01000000
00100000
00000000
00010000
00000000
00001000
00000000
,
00000100
00000010
00000001
00000000
00001000
00000000
00000001
00000000
,
00000100
00000100
00000100
00000000
00000010
00000010
00000010
00000000
,
00001000
00000100
00000001
00000010
,
00000001
00000000
00000000
00000100
00000000
00000000
00001000
00000000
,
00000000
00010000
00000000
00000000
00001000
00000000
00011000
00000000
,
00010000
00000000
00000000
00100000
00000000
00000000
10000000
00000000
,
00000000
01000000
00000000
00000000
00100000
00000000
01100000
00000000
,
10000000
00000000
00000000
01000000
00000000
00000000
00010000
00000000
,
00000000
00001000
00000000
00000000
00010000
00000000
00011000
00000000
,
00001000
00000000
00000000
00000010
00000000
00000000
00000001
00000000
,
00000000
00000100
00000000
00000000
00000010
00000000
00000110
00000000
,
00010000
00000000
00000000
00001000
00000000
00000000
00000010
00000000
,
00000000
00001000
00000000
00000000
00010000
00000000
00011000
00000000
,
00001000
00000000
00000000
00010000
00000000
00000000
00100000
00000000
,
00000000
00010000
00000000
00000000
00001000
00000000
00011000
00000000
,
00100000
00100000
10000000
10000000
,
01000000
01000000
00100000
00100000
,
00010000
00010000
00010000
00000000
10000000
10000000
10000000
00000000
,
00200000
00000000
00000000
00300000
,
10010000
00000000
00000000
00000000
,
00000000
00000000
00000000
00000000
,
00200000
00000000
00000000
00000000
,
00000000
00000000
00300000
00000000
,
00002000
00000000
00000000
00000000
,
00000000
00000000
00003000
00000000
,
00000020
00000000
00000000
00000000
,
00000000
00000000
00000030
00000000
,
00001002
00000000
00000000
00000003
,
00000200
00000000
00000000
00000300
,
00002000
00000000
00000000
00003000
,
00020000
00000000
00000000
00030000
,
02000000
00000000
00000000
03000000
,
20000000
00000000
00000000
30000000
,
00100000
01000000
01000000
00000000
,
00100000
10000000
01000000
00100000
,
10010000
00000000
00000000
10010000
00000000
00000000
00000000
00000000
,
10000000
01000000
00100000
00010000
,
00011000
00000000
00000000
00011000
00000000
00000000
00000000
00000000
,
00000010
00001000
00000001
00000100
,
00001001
00000000
00000000
00001001
00000000
00000000
00000000
00000000
,
00000001
00000010
00000100
00001000
,
00011000
00000000
00000000
00011000
00000000
00000000
00000000
00000000
,
00001000
00010000
01000000
10000000
,
00100000
00010000
00100000
10000000
,
01000000
00010000
00001000
00000000
,
00010000
00001000
00000010
00000001
,
00000100
00000010
00001000
00000000
,
00000001
00000100
00001000
00010000
,
01000000
10000000
00100000
00000000
,
01000000
01000000
01000000
00000000
00100000
00100000
00100000
00000000
,
10000000
00100000
00010000
00001000
,
00020000
00000010
00000010
00000010
,
00030200
00000010
00020300
00000010
,
00032000
00000010
00023000
00030020
,
00000230
00000000
00000310
00000000
00010000
00001000
00010000
00000000
,
00002000
00100000
00100000
00100000
,
02003000
00100000
03002000
00100000
,
00023000
00100000
00032000
00203000
,
02300000
00000000
03100000
00000000
00001000
00010000
00001000
00000000
,
00020000
00000100
00000100
00000100
,
00030020
00000100
00020030
00000100
,
00032000
00000100
00023000
00030200
,
00000320
00000000
00000130
00000000
00010000
00001000
00010000
00000000
,
00100000
00100000
10000000
10000000
,
01000000
01000000
00100000
00100000
,
00001000
00001000
00001000
00000000
00010000
00010000
00010000
00000000
,
00002000
00000000
00000000
00003000
,
00011000
00000000
00000000
00000000
,
00000000
00000000
00000000
00000000
;
#NOTES:
     dance-double:
     :
     Medium:
     12:
     :
00000000
00000000
00000000
00000000
,
00000000
00000000
00000000
00000000
,
00000000
00000000
00000000
00000000
,
00000000
00000000
00000000
00000000
,
00000000
00000000
00000000
00000000
,
00000000
00000000
00000000
00000000
,
00000000
00000000
00000000
00000000
,
00000000
00000000
00000000
00000000
,
00000000
00000000
00000000
00000000
,
00000020
00000000
00001030
00000000
00000000
00001010
00000000
00000000
,
00200000
00000000
00310000
00000000
00000000
00110000
00000000
00000000
,
00000200
00000000
00001300
00000000
00000000
00001100
00000000
00000000
,
02000000
00000000
03010000
00000000
00000000
01010000
00000000
00000000
,
00010000
01000000
00100000
00000000
10000000
01000000
00100000
00000000
,
00001000
00010000
00000010
00000000
00001000
00000001
00000010
00000000
,
00000100
00001000
00000010
00000000
00000100
00000001
00000010
00000000
,
00001000
00010000
00001000
00010000
00001000
00010000
00001000
00010000
,
00001000
00100000
00010000
10000000
00010000
01000000
00001000
00010000
,
00001000
01000000
00010000
10000000
00010000
00100000
00001000
00010000
,
00001000
00100000
00010000
10000000
00010000
01000000
00001000
00010000
,
00001000
01000000
00010000
10000000
00010000
00100000
00001000
00000000
,
00010000
00000010
00001000
00000001
00001000
00000100
00010000
00001000
,
00010000
00000100
00001000
00000001
00001000
00000010
00010000
00001000
,
00100000
00100000
00010000
00010000
10000000
10000000
01000000
01000000
,
00100000
00010000
01000000
00100000
10000000
00100000
01000000
00000000
,
10000000
01000000
00000000
00010000
00001000
00000000
00000010
00000001
,
00000000
00000010
00001000
00000000
00000010
00000000
00000110
00000000
,
00000001
00000100
00000000
00001000
00010000
00000000
00100000
10000000
,
00000000
00100000
00010000
00000000
00100000
00000000
01100000
00000000
,
10000000
00100000
00000000
00010000
00001000
00000000
00000100
00000001
,
00000000
00000100
00001000
00000000
00000100
00000000
00000110
00000000
,
00000001
00000010
00000000
00001000
00010000
00000000
01000000
10000000
,
00000000
01000000
00010000
00000000
01000000
00000000
01100000
00000000
,
00001000
00010000
00000000
10000000
00010000
00000000
00001000
00010000
,
00000000
10000000
00010000
00000000
00001000
00000000
00011000
00000000
,
00010000
00001000
00000000
00000001
00001000
00000000
00010000
00001000
,
00000000
00000001
00001000
00000000
00010000
00000000
00011000
00000000
,
00100000
00010000
10000000
00000000
00100000
01000000
00010000
00000000
,
10000000
01000000
00100000
00000000
00001000
00010000
00001000
00000000
,
00010000
00010000
00001000
00001000
00000010
00000010
00000001
00000001
,
00001000
00000010
00000100
00000001
00001000
00000100
00000010
00000001
,
00002000
00000000
00000000
00000100
,
00000000
00000001
00000000
00000000
00000010
00000000
00000000
00000000
,
00023000
00000000
00000000
01000000
00000000
00000000
01000000
00000000
,
00000000
10000000
00000000
00000000
00100000
00000000
00000000
00000000
,
00032000
00000000
00000000
00000100
00000000
00000000
00000100
00000000
,
00000000
00000001
00000000
00000000
00000010
00000000
00000000
00000000
,
00013000
00000000
01000000
00000000
00000000
00100000
00000000
00000000
,
00010000
00000000
00000000
00100000
00000000
00000000
00000000
00000000
,
20020000
00000000
00000000
00030000
,
02000000
00000000
00000000
30000000
,
00020000
00000000
00000000
03000000
,
00002000
00000000
00000000
00030000
,
00000200
00000000
00000000
00003000
,
00000002
00000000
00000000
00000300
,
00000023
00000000
00000100
00000000
00000130
00000000
00000000
00000010
,
00000100
00000000
00010000
00001000
00100000
00001000
00010000
00000000
,
00001000
01000000
00100000
01000000
00001000
00100000
01000000
00000000
,
00010000
00000100
00000010
00000100
00010000
00000010
00000100
00000000
,
00001000
00100000
01000000
00100000
00001000
01000000
00100000
00000000
,
00010000
00000010
00000100
00000010
00010000
00000100
00000010
00000000
,
00001000
00100000
00010000
01000000
00001000
00100000
01000000
00000000
,
00010000
00000010
00001000
00000100
00010000
00000010
00000100
00000000
,
00001000
00100000
00010000
01000000
00001000
00100000
01000000
00000000
,
10000000
10000000
01000000
01000000
00100000
00100000
00010000
00010000
,
10000000
01000000
00000000
00001000
00000000
00000100
00000000
00000010
,
00000000
00000001
00000000
00000100
00000000
00000010
00000100
00000000
,
00000001
00000100
00000000
00010000
00000000
01000000
00000000
00100000
,
00000000
10000000
00000000
01000000
00000000
00100000
01000000
00000000
,
10000000
01000000
00000000
00001000
00000000
00000100
00000000
00000010
,
00000000
00000001
00000000
00000100
00000000
00000010
00000100
00000000
,
00001000
00010000
00001000
00010000
00001000
00010000
00001000
00010000
,
00001000
00100000
00010000
10000000
00010000
01000000
00100000
00000000
,
20010000
00000000
00100000
00000000
00010000
00010000
30010000
00000000
,
10000000
01000000
00010000
00001000
00000000
00000100
00000001
00000000
,
00000010
00000001
00000100
00000010
00000000
00000001
00000010
00000000
,
00010000
00001000
00000010
00000001
,
00001002
00000000
00000010
00000000
00001000
00001000
00001003
00000000
,
00000001
00000100
00001000
00010000
00000000
01000000
10000000
00000000
,
00100000
10000000
01000000
00100000
00000000
10000000
00100000
00000000
,
00001000
00010000
00100000
10000000
,
20010000
00000000
01000000
00000000
00010000
00010000
30010000
00000000
,
10000000
00100000
00010000
00001000
00000000
00000010
00000001
00000000
,
00000100
00000001
00000010
00000100
00000000
00000001
00000100
00000000
,
00010000
00001000
00000100
00000001
,
00000010
00000001
00000100
00000000
00000010
00001000
00000100
00000000
,
00010000
00001000
00100000
00000000
00010000
01000000
00100000
00000000
,
10000000
10000000
01000000
01000000
00100000
00100000
00010000
00010000
,
20000000
00000000
00000000
30000000
,
01100000
00000000
00000000
00000000
,
00000000
00000000
00000000
00000000
;
#NOTES:
     dance-double:
     :
     Hard:
     16:
     :
00000000
00000000
00000000
00000000
,
00000000
00000000
00000000
00000000
,
00000000
00000000
00000000
00000000
,
00000000
00000000
00000000
00000000
,
00000000
00000000
00000000
00000000
,
00000000
00000000
00000000
00000000
,
00000000
00000000
00000000
00000000
,
00000000
00000000
00000000
00000000
,
00000000
00000000
00000000
00000000
,
00000010
00000000
00000000
00000000
00000001
00000000
00000000
00000100
00000000
00000000
00000110
00000000
00000000
00000000
00000000
00000000
,
00001000
00000000
00000000
00000000
00010000
00000000
00000000
00100000
00000000
00000000
01100000
00000000
00000000
00000000
00001000
00010000
,
00001000
00000000
00000000
00000000
00100000
00000000
00000000
01000000
00000000
00000000
01100000
00000000
00000000
00000000
00000000
00000000
,
00010000
00000000
00000000
00000000
00001000
00000000
00000000
00000010
00000000
00000000
00000110
00000000
00000000
00000000
00000010
00000100
,
00000020
00000000
00000000
00002030
00000000
00000000
00013000
00000000
00200000
00000000
00000000
00320000
00000000
00000000
00031000
00000000
,
00000200
00000000
00000000
00002300
00000000
00000000
00013000
00000000
02000000
00000000
00000000
03020000
00000000
00000000
00031000
00000000
,
00000020
00000000
00000000
00000032
00000000
00000000
00000103
00000000
00000020
00000000
00000000
00002030
00000000
00000000
00003100
00000000
,
00010000
00001000
00010000
00001000
00010000
00001000
00010000
00001000
00100000
00010000
00100000
00010000
00100000
00010000
00100000
00010000
,
10000000
00000000
01000000
00000000
00010000
00000000
01000000
00000000
10000000
00000000
01000000
00100000
01000000
00000000
00100000
00000000
,
00001000
00000000
00010000
00000000
00100000
00000000
00010000
00000000
00001000
00000000
00100000
00010000
00100000
00000000
00001000
00000000
,
00010000
00000000
00000100
00000000
00000010
00000000
00000100
00000000
00010000
00000000
00000010
00000100
00000010
00000000
00001000
00000000
,
00000100
00000000
00000010
00000000
00001000
00000000
00000010
00000100
00000010
00000000
00000001
00001000
00000001
00000000
00001000
00000000
,
00000001
00000000
00000100
00000000
00001000
00000000
00000100
00000000
00000001
00000000
00000100
00000010
00000100
00000000
00000010
00000000
,
00010000
00000000
00001000
00000000
00000010
00000000
00001000
00000000
00010000
00000000
00000010
00001000
00000010
00000000
00010000
00000000
,
00001000
00010000
01000000
10000000
00010000
01000000
00100000
10000000
,
01000000
00000000
00010000
00000000
00001000
00000000
00010000
00000000
00001000
00010000
00001000
00010000
00001000
00010000
00001000
00010000
,
00000100
00001000
00010000
00000010
00001000
00010000
00000010
00001000
,
00010000
00000100
00001000
00010000
00000100
00010000
00001000
00000000
,
01000000
00010000
00001000
00100000
00010000
00001000
00100000
00010000
,
00001000
01000000
00010000
00001000
01000000
00001000
00010000
00000000
,
00000010
00001000
00010000
00000100
00001000
00010000
00000100
00001000
,
00010000
00000010
00001000
00010000
00000010
00010000
00001000
00000000
,
00100000
00010000
00001000
01000000
00010000
00001000
01000000
00010000
,
00001000
00100000
00010000
00001000
00100000
00001000
00010000
00000000
,
00000010
00000000
00001000
00000000
00000001
00000010
00000001
00000010
00000002
00000000
00000000
00000000
00000103
00000000
00000010
00000000
,
00001000
00000000
00000010
00000000
00010000
00001000
00010000
00001000
00020000
00000000
00000000
00000000
00031000
00000000
01000000
00000000
,
00100000
00000000
01000000
00000000
00010000
10000000
00010000
10000000
00020000
00000000
00000000
00000000
10030000
00000000
01000000
00000000
,
00100000
00000000
00001000
00000000
00010000
00001000
00010000
00001000
00020000
00000000
00000000
00000000
00031000
00000000
00010000
00000000
,
00001000
00000010
00000001
00000000
00000001
00000100
00001000
00000000
,
00010000
00100000
10000000
00000000
10000000
01000000
00010000
00000000
,
00001000
00100000
00001000
00000010
00000001
00000100
00001000
01000000
,
00100000
00000000
10000000
00000000
01000000
00000000
00100000
00000000
00010000
10000000
01000000
00100000
00010000
10000000
01000000
00100000
,
00020000
00000000
00000000
00000000
00000000
00000000
01000000
01000000
,
00000000
10000000
10000000
00000000
00100000
00100000
00000000
00031000
,
00002000
00000000
00000000
00000001
00000000
00000000
00000100
00000100
,
00000000
00000001
00000001
00000000
00000010
00000010
00000000
00013000
,
00020000
00000000
00000000
10000000
00000000
00000000
01000000
01000000
,
00000000
10000000
10000000
00000000
00100000
00100000
00000000
00031000
,
00000100
00000000
00000010
00001000
00000000
00010000
00100000
00000000
,
00001000
00000010
00000000
00000100
00000001
00000000
00000000
00000000
,
00002002
00000000
00000000
00003000
,
00000200
00000000
00000000
00000003
,
00020000
00000000
00000000
00000300
,
02000000
00000000
00000000
00030000
,
00200000
00000000
00000000
03000000
,
20000000
00000000
00000000
00300000
,
32000000
00000000
00100000
00000000
03100000
00000000
00000000
00100000
,
10000000
00000000
00100000
00000000
00010000
00000000
10000000
00010000
10000000
00010000
10000000
00000000
01000000
00000000
00000000
00000000
,
10000000
01000000
00001000
00010000
00000010
00000001
00001001
00000000
,
00000010
00000000
00010000
00000000
00001000
00000000
00010000
00000000
00000100
00000000
00001000
00000000
00000010
00000100
00000010
00000100
,
00000001
00000100
00010000
00001000
00100000
10000000
10010000
00000000
,
00100000
00000000
00001000
00000000
00010000
00000000
00001000
00000000
00100000
00000000
00010000
00000000
01000000
00100000
01000000
00100000
,
10000000
00100000
00001000
00010000
00000100
00000001
00001001
00000000
,
00000100
00000000
00010000
00000000
00001000
00000000
00010000
00000000
00000010
00000000
00001000
00000000
00000100
00000010
00000100
00000010
,
00000001
00000010
00010000
00001000
01000000
10000000
10010000
00000000
,
00100000
01000000
00100000
01000000
00100000
01000000
00100000
01000000
00010000
01000000
00010000
01000000
00010000
01000000
00010000
01000000
,
00100000
00010000
00001000
00100000
00010000
00001000
00000100
00010000
,
00001000
00000100
00000010
00001000
00000100
00000010
00000001
00000000
,
00000010
00001000
00010000
00000010
00001000
00010000
01000000
00001000
,
00010000
01000000
00100000
00010000
01000000
00100000
10000000
00000000
,
00100000
00010000
00001000
00100000
00010000
00001000
00000100
00010000
,
00001000
00000100
00000010
00001000
00000100
00000010
00000001
00000000
,
00001000
00000001
00000100
00001000
00010000
01000000
10000000
00100000
,
00010000
00000000
00100000
00000000
10000000
00000000
00010000
00000000
10000000
01000000
00100000
00010000
10000000
01000000
00100000
00010000
,
10000000
00000000
00000000
00000000
01000000
00000000
00100000
00001000
00010000
00001000
00100000
00000000
00010000
00000000
00000000
00000000
,
00002000
00010000
01003000
02000000
00010000
03001000
00010000
00000010
,
00002000
00000010
00003001
00000002
00000010
00001003
00000200
00000000
,
00000001
00000000
00000000
00000000
00000010
00000000
00000000
00000000
00001300
00000000
00000000
00000000
00000001
00000100
00000010
00001000
,
00000001
00000000
00000000
00000000
00000100
00000000
00000010
00010000
00001000
00010000
00000010
00000000
00001000
00000000
00000000
00000000
,
00020000
00001000
00030100
00000200
00001000
00010300
00001000
00100000
,
00020000
00100000
10030000
20000000
00100000
30010000
02000000
00000000
,
10000000
00000000
00000000
00000000
00100000
00000000
00000000
00000000
03010000
00000000
00000000
00000000
10000000
01000000
00100000
00010000
,
10000000
00000000
00000000
00000000
00100000
00000000
01000000
00001000
00010000
00001000
01000000
00000000
00010000
00000000
00000000
00000000
,
00002000
00010000
00103000
00200000
00010000
00301000
00010000
00000100
,
00002000
00000100
00003001
00000002
00000100
00001003
00000020
00000000
,
00000001
00000000
00000000
00000000
00000100
00000000
00000000
00000000
00001030
00000000
00000000
00000000
00000001
00000010
00000100
00001000
,
00000001
00000100
00001000
00000000
00010000
01000000
10000000
00000000
,
10000000
00100000
00010000
00000000
00001000
00000010
00000001
00000000
,
00001000
00000010
00000001
00000010
00001000
00010000
01000000
00100000
,
10000000
00010000
10000000
00010000
10000000
00010000
10000000
00010000
01000000
00100000
01000000
00100000
01000000
00100000
01000000
00100000
,
10000000
00000000
00000000
00000000
,
00000000
00000000
00000000
00000000
;
