
//----- song ID: haum -----//
#TITLE:ホーンテッド★メイドランチ;
#ARTIST:日向美ビタースイーツ♪;
#TITLETRANSLIT:Haunted maid lunch;
#ARTISTTRANSLIT:Hinatabi Bitter Sweets♪;
#BANNER:Haunted maid lunch.png;
#BACKGROUND:Haunted maid lunch-bg.png;
#CDTITLE:./CDTitles/DDR A20.png;
#MUSIC:Haunted maid lunch.ogg;
#SAMPLESTART:32.184;
#SAMPLELENGTH:15;
#BPMS:0=188;
#NOTES:
     dance-single:
     :
     Beginner:
     4:
     :
0000
0000
0000
0000
,
0000
0000
0000
0000
,
0000
0000
0000
0000
,
0000
0000
0000
0000
,
0000
0000
0000
0000
,
0000
0000
0000
0000
,
0000
0000
0000
0000
,
0000
0000
0000
0000
,
0000
0000
0000
0000
,
0000
0000
0001
0000
,
0001
0000
0010
0000
,
0100
0000
1000
0000
,
1000
0000
0010
0000
,
0100
0000
0001
0000
,
0010
0000
0001
0000
,
0010
0000
1000
0000
,
0010
0000
1000
0000
,
0000
0000
1001
0000
,
0000
0000
0100
0100
,
0100
0000
1001
0000
,
0000
0000
0010
0010
,
0010
0000
1001
0000
,
0000
0000
0100
0100
,
0100
0000
0020
0000
,
0000
0000
0030
0000
,
0000
0000
0001
0000
,
0001
0000
0020
0000
,
0030
0000
1000
0000
,
1000
0000
0020
0000
,
0030
0000
0001
0000
,
0001
0000
0200
0000
,
0300
0000
1000
0000
,
1000
0000
0200
0000
,
0300
0000
0001
0001
,
0001
0000
0100
0000
,
0010
0000
1000
1000
,
1000
0000
0100
0000
,
0010
0000
0001
0001
,
0001
0000
0010
0000
,
0100
0000
2000
0000
,
0000
0000
3000
0000
,
0000
0000
0001
0000
,
1000
0000
0020
0000
,
0030
0000
1000
0000
,
0001
0000
0020
0000
,
0030
0000
0001
0000
,
1000
0000
0200
0000
,
0300
0000
1000
0000
,
0001
0000
0200
0000
,
0300
0000
1001
0000
,
0000
0000
0100
0100
,
0100
0000
1001
0000
,
0000
0000
0010
0010
,
0010
0000
1001
0000
,
0000
0000
0100
0100
,
0100
0000
0001
0000
,
1000
0000
0001
0000
,
1001
0000
0020
0000
,
0000
0000
0030
0000
,
0000
0000
0200
0000
,
0000
0000
0300
0000
,
0000
0000
0002
0000
,
0000
0000
0003
0000
,
0000
0000
2000
0000
,
0000
0000
3000
0000
,
0000
0000
0000
0000
,
0000
0000
0000
0000
,
0000
0000
0000
0000
,
0000
0000
0000
0000
,
0000
0000
0000
0000
,
0000
0000
0000
0000
,
0000
0000
0000
0000
,
0000
0000
0000
0000
,
0000
0000
0000
0000
,
0000
0000
0002
0000
,
0003
0000
0020
0000
,
0030
0000
2000
0000
,
3000
0000
0200
0000
,
0300
0000
0002
0000
,
0003
0000
0200
0000
,
0300
0000
2000
0000
,
3000
0000
0020
0000
,
0030
0000
1001
0000
,
0000
0000
0010
0010
,
0010
0000
1001
0000
,
0000
0000
0100
0100
,
0100
0000
1001
0000
,
0000
0000
0010
0010
,
0010
0000
1000
0000
,
0001
0000
1000
0000
,
1001
0000
0000
0000
,
0000
0000
0000
0000
;
#NOTES:
     dance-single:
     :
     Easy:
     7:
     :
0000
0000
0000
0000
,
0000
0000
0000
0000
,
0000
0000
0000
0000
,
0000
0000
0000
0000
,
0000
0000
0000
0000
,
0000
0000
0000
0000
,
0000
0000
0000
0000
,
0000
0000
0000
0000
,
0000
0000
0000
0000
,
0000
0000
0001
0010
,
0001
0000
0100
0010
,
1000
0000
0010
0100
,
0010
0000
1000
0001
,
1001
0000
1000
0100
,
1000
0000
1000
0010
,
1000
0000
0001
0100
,
0001
0000
0001
0010
,
0001
0010
0000
0001
,
0001
0100
0010
1000
,
2002
3003
0000
1000
,
1000
0100
0010
0001
,
2002
3003
0000
0010
,
0010
0100
0001
0010
,
0220
0330
0000
0100
,
0100
1000
0001
1000
,
2002
3003
0010
1000
,
0010
1000
0010
0100
,
0010
0000
0100
0001
,
0100
0001
0010
0001
,
0010
0000
1000
0100
,
1000
0100
0010
0100
,
0010
0000
0001
0010
,
0001
0010
0100
0010
,
2002
3003
0000
1000
,
1000
0010
0100
0001
,
2002
3003
0000
0001
,
0001
0010
0100
1000
,
2002
3003
0000
0100
,
0100
0010
1000
0100
,
0220
0330
0000
0010
,
0010
0001
1000
0001
,
2002
3003
0100
0001
,
0100
0001
0100
0010
,
0100
0000
0010
1000
,
0010
1000
0100
1000
,
0100
0000
0001
0010
,
0001
0010
0100
0010
,
0100
0000
1000
0100
,
1000
0100
0010
0100
,
2002
3003
1000
0100
,
1000
0010
0100
0100
,
0100
0100
0001
0100
,
0001
0010
0100
0100
,
0100
0000
1000
0001
,
1000
0001
1001
1001
,
0110
0000
1001
0000
,
0110
0000
0001
1000
,
1001
0000
0002
0000
,
0103
0000
2000
0000
,
3100
0000
0002
0000
,
0013
0000
2000
0000
,
3010
0000
0002
0000
,
0010
0000
0100
0000
,
1003
0000
2000
0000
,
0010
0000
0100
0000
,
3001
0000
0000
0000
,
0000
0000
0000
0000
,
0000
0000
0000
0000
,
0000
0000
0000
0000
,
0000
0000
0000
0000
,
0000
0000
0000
0000
,
0000
0000
0000
0000
,
0000
0000
0000
0000
,
0000
0000
0000
0000
,
0000
0000
0002
0000
,
0000
0003
0020
0000
,
0000
0030
2000
0000
,
0000
3000
0200
0000
,
0000
0300
0001
0010
,
0001
0010
0001
0100
,
0001
0000
1000
0010
,
1000
0010
1000
0100
,
1000
0000
0001
0100
,
0001
0010
0100
0100
,
0100
0100
1000
0100
,
1000
0010
0100
0100
,
0100
0000
0001
1000
,
0001
1000
1001
1001
,
0110
0000
1001
0000
,
0110
0000
1000
0001
,
1001
0000
0000
0000
,
0000
0000
0000
0000
;
#NOTES:
     dance-single:
     :
     Medium:
     11:
     :
0000
0000
0000
0000
,
0000
0000
0000
0000
,
0000
0000
0000
0000
,
0000
0000
0000
0000
,
0000
0000
0000
0000
,
0000
0000
0000
0000
,
0000
0000
0000
0000
,
0000
0000
0000
0000
,
0000
0000
0000
0000
,
0000
0000
0000
0000
1000
0010
1000
0000
,
0100
0010
0001
0000
0100
0001
0100
0000
,
0010
1000
0100
0000
0010
0001
1000
0000
,
0010
1000
0001
0000
1001
0000
0110
0000
,
1001
0000
0110
0000
0001
0010
0001
0000
,
0001
0100
0001
0000
1000
0010
1000
0000
,
1000
0100
1000
0000
0010
1000
0001
0000
,
0100
0010
1000
0000
1010
0000
0101
0000
,
1000
0100
0010
0001
0000
0001
0001
0000
,
1000
0100
1000
0000
0010
0100
0010
0000
,
1010
0000
0110
0000
0000
1000
1000
0000
,
0001
0010
0100
0000
1000
0100
0010
0000
,
0011
0000
0110
0000
0000
0010
0010
0000
,
0001
1000
0001
0000
0100
0010
0100
0000
,
0101
0000
0110
0000
0000
0010
1000
0010
,
0100
0001
0100
0000
1001
0000
0110
0000
,
2002
0000
3003
0000
0001
0100
0001
0000
,
1000
0100
0010
0000
0001
0100
0010
0000
,
1000
0000
1000
0000
0010
0100
0010
0000
,
1000
0001
0100
0000
0010
1000
0100
0000
,
2002
0000
3003
0000
0010
0100
0010
0000
,
1000
0001
0100
0000
0001
1000
0010
0000
,
0100
0000
0100
0000
0001
0010
0100
0000
,
1000
0010
0100
0000
0001
1000
0001
0000
,
2002
0000
3003
0000
0000
0010
0100
0010
,
1000
0001
1000
0000
0100
0010
0001
0000
,
0011
0000
1010
0000
0000
0001
0100
0001
,
0010
0100
0010
0000
0001
1000
0100
0000
,
1100
0000
1010
0000
0000
1000
0100
1000
,
0001
0010
0001
0000
0100
0010
1000
0000
,
1010
0000
0011
0000
0000
0100
0010
1000
,
0001
0010
0100
0000
1000
0001
1000
0000
,
2002
0000
3003
0000
1000
0010
1000
0000
,
0001
0010
0100
0000
1000
0010
0100
0000
,
0001
0000
0001
0000
0100
0010
0100
0000
,
0001
1000
0010
0000
0100
0001
0010
0000
,
2002
0000
3003
0000
0100
0010
0100
0000
,
0001
1000
0010
0000
1000
0001
0100
0000
,
0010
0000
0010
0000
1000
0100
0010
0000
,
0001
0100
0010
0000
1000
0001
1000
0000
,
2002
0000
3003
0000
0000
0010
1000
0010
,
0100
0001
0010
0000
0011
0000
1001
0000
,
1100
0000
0110
0000
0000
0010
0001
0010
,
0100
1000
0010
0000
1010
0000
0010
1000
,
0100
0000
0110
0000
0000
0100
1000
0100
,
0010
0001
1000
0000
1001
0000
0110
0000
,
1001
0000
0100
0010
1000
0000
0100
0010
,
0001
0000
1001
0000
1000
1000
0000
0001
,
0001
1001
2000
0000
,
0001
0000
0100
0000
,
0001
0000
3002
0000
,
1000
0000
0100
0000
,
1000
0000
0023
0000
,
1000
0000
0001
0000
,
0100
0000
0230
0000
,
0001
0000
1000
0000
,
0010
0000
0300
0000
,
0000
0000
0000
0000
,
0000
0000
0000
0000
,
0000
0000
0000
0000
,
0000
0000
0000
0000
,
0000
0000
0000
0000
,
0000
0000
0000
0000
,
0000
0000
0000
0000
,
0000
0000
0000
0000
,
0000
0000
2002
0000
,
0000
3000
0200
0000
,
0000
0303
2002
0000
,
0000
0003
0020
0000
,
0000
3030
0010
0100
,
0001
0000
1000
0100
1000
0000
0001
0000
,
0100
0000
0001
0010
0001
0000
0100
0000
,
0010
0000
1000
0000
0001
1000
0001
1000
,
0001
0000
0000
0000
0000
0010
0001
0010
,
0100
1000
0010
0000
1010
0000
1001
0000
,
0101
0000
0110
0000
0000
0010
1000
0010
,
0100
0001
0010
0000
0011
0000
0010
0001
,
0100
0000
0110
0000
0000
0100
0001
0100
,
0010
1000
0001
0000
1001
0000
0110
0000
,
1001
0000
0100
0010
0001
0000
0100
0010
,
1000
0000
1001
0000
0001
0001
0000
1000
,
1000
2002
0000
3003
,
0000
0000
0000
0000
;
#NOTES:
     dance-single:
     :
     Hard:
     15:
     :
0000
0000
0000
0000
,
0000
0000
0000
0000
,
0000
0000
0000
0000
,
0000
0000
0000
0000
,
0000
0000
0000
0000
,
0000
0000
0000
0000
,
0000
0000
0000
0000
,
0000
0000
0000
0000
,
0000
0000
0000
0000
,
0000
0000
0000
0000
0001
0100
0010
0100
,
0001
0000
0010
0000
0100
0000
1000
0001
1000
0000
0010
0000
0100
0000
0001
0000
,
0100
0000
0010
0000
1000
0000
0100
0010
0100
0000
1000
0000
0001
0000
0100
0000
,
0010
1000
0010
0100
0001
0010
0001
0010
,
0100
1000
0100
1000
0001
0100
1000
0100
,
0001
0000
0010
0000
0100
0000
1000
0010
1000
0000
0100
0000
0001
0000
0100
0000
,
1000
0000
0010
0000
0100
0000
0001
0010
0001
0000
0100
0000
0010
0000
1000
0000
,
0100
0010
0001
0100
0110
0000
1001
0000
,
0001
0010
0100
1000
0000
0001
0001
0100
,
0001
0010
0100
1000
0010
0001
0010
1000
,
0100
1000
0100
0000
1000
0010
1000
0000
0000
0000
0010
0000
0010
0000
0100
0000
,
0010
1000
0100
0001
0100
1000
0010
0100
,
0001
0010
0001
0000
0100
0001
0100
0000
0000
0000
0001
0000
0001
0000
0100
0000
,
0010
1000
0100
0001
0100
1000
0001
0100
,
0010
1000
0010
0000
0100
0001
0100
0000
0000
0000
0010
0000
1000
0000
0010
0000
,
0100
0001
0100
0001
0010
0010
0100
0100
,
1001
0000
0000
0000
0110
0000
0000
0000
0001
0000
0100
0000
0010
1000
0001
0000
,
0010
0000
0100
0000
1000
0000
0001
0000
0100
0000
0010
0000
1000
0001
0100
0000
,
0010
0000
1000
0000
0100
0000
0001
0000
0100
0000
1000
0000
0001
0100
0010
0000
,
1000
0100
0010
0001
1000
0100
1000
0010
,
1000
0000
0100
0000
0010
0001
1000
0010
0100
0000
0001
0000
0010
0001
0100
0000
,
0010
0000
1000
0000
0100
0000
0001
0000
0100
0000
1000
0000
0001
0100
0010
0000
,
1000
0000
0001
0000
0100
0000
0010
0000
1000
0000
0001
0000
0100
0001
0010
0000
,
0100
1000
0001
0100
0001
0010
0001
0100
,
0001
0000
0010
0000
0001
0010
0100
1000
0000
0000
1000
0000
1000
0000
0100
0000
,
1000
0010
0100
0001
0010
1000
0010
0001
,
0100
0001
1000
0000
0001
0010
0100
0000
0000
0000
0010
0000
0010
0000
0100
0000
,
0010
0001
0100
1000
0100
0001
0010
0100
,
1000
0010
0100
0000
0001
0010
0100
0000
0000
0000
1000
0000
1000
0000
0100
0000
,
0010
0001
0100
1000
0100
0001
1000
0100
,
0010
0001
1000
0000
0100
1000
0001
0000
0000
0000
0010
0000
0001
0000
0010
0000
,
0100
1000
0100
1000
0010
0010
0100
0100
,
1001
0000
0000
0000
0110
0000
0000
0000
0001
0000
0100
0000
0010
1000
0001
0000
,
0100
0000
0010
0000
1000
0000
0001
0000
0010
0000
0100
0000
1000
0010
0100
0000
,
0001
0000
1000
0000
0010
0000
0001
0000
0010
0000
1000
0000
0001
0010
0100
0000
,
1000
0001
0100
0001
1000
0010
0100
0010
,
1000
0000
0010
0000
0100
0001
1000
0100
0010
0000
0001
0000
0100
0001
0010
0000
,
0100
0000
1000
0000
0010
0000
0001
0000
0010
0000
1000
0000
0001
0010
0100
0000
,
1000
0000
0001
0000
0100
0000
0010
0000
1000
0000
0001
0000
0010
0001
0100
0000
,
0010
1000
0001
0010
0100
0010
0001
0010
,
0100
0000
0010
0000
0001
0100
0010
0000
1000
0000
0010
0000
0010
0000
0100
0000
,
0001
0010
0100
0010
0011
0000
0101
0000
,
1100
0000
1010
0000
1000
0100
0100
0010
,
0100
0100
1000
0010
0110
0000
1000
0001
,
1001
0000
0110
0000
1000
0001
0100
1000
,
1000
0100
0001
0001
0011
0000
0110
0000
,
1100
0000
1000
0010
0110
0000
0001
0010
,
0110
1000
0010
0100
0110
0110
0000
0110
,
0110
0000
1001
0000
0010
0001
0010
0001
,
0100
0001
0010
0000
0010
0001
0100
0001
,
0010
0000
0110
0000
0010
0001
0010
0001
,
0100
0001
0010
0000
0100
0001
0010
0001
,
0100
0000
0110
0000
0010
1000
0010
1000
,
0100
1000
0010
0000
0100
1000
0010
1000
,
0100
0000
0110
0000
0100
1000
0010
1000
,
0100
1000
0010
0000
0100
1000
0100
1000
,
0100
0110
0000
0000
,
0000
0000
0000
0000
,
0000
0000
0000
0000
,
0000
0000
0000
0000
,
0000
0000
0000
0000
,
0000
0000
0000
0000
,
0000
0000
0000
0000
,
0000
0000
0000
0000
,
0000
0000
0000
0000
,
0000
0000
2002
0000
,
0000
3003
0220
0000
,
0000
0330
2002
0000
,
0000
3003
0220
0000
,
0000
0000
0330
0000
0001
0010
0001
0000
,
0001
0100
0001
0000
1000
0010
1000
0000
,
1000
0100
1000
0000
0001
0010
0001
0100
,
0010
0000
1000
0000
0100
0000
1000
0000
0001
1000
0001
0000
1000
0001
1000
0000
,
1001
0000
0000
0000
0001
0100
0100
0010
,
1000
0100
0010
0100
1100
0000
1010
0000
,
0011
0000
0101
0000
0001
0010
0010
0100
,
0010
0010
0001
0100
0110
0000
0001
1000
,
1001
0000
0110
0000
0001
1000
0010
0001
,
0001
0010
1000
1000
1100
0000
0110
0000
,
0011
0000
0001
0100
0110
0000
1000
0100
,
0110
0001
0100
0010
0110
0110
0000
0110
,
0110
2002
0000
3003
,
0000
0000
0000
0000
;
#NOTES:
     dance-single:
     :
     Challenge:
     17:
     :
0000
0000
0000
0000
,
0000
0000
0000
0000
,
0000
0000
0000
0000
,
0000
0000
0000
0000
,
0000
0000
0000
0000
,
0000
0000
0000
0000
,
0000
0000
0000
0000
,
0000
0000
0000
0000
,
0000
0000
0000
0000
,
0000
0000
0000
0000
0000
0000
0000
0000
0001
0010
0100
1000
0001
0010
0100
1000
,
0001
0010
0100
1000
0001
0010
0100
1000
0010
1000
0001
0100
0010
1000
0001
0100
,
0010
1000
0001
0100
0010
1000
0001
0100
0001
1000
0010
0100
0001
1000
0010
0100
,
0001
1000
0010
0100
0001
1000
0010
0100
0001
0000
0010
0000
0100
0000
1000
0000
,
0001
0000
0010
0000
0100
0000
1000
0000
0001
0010
0000
0100
0010
0000
0001
0010
,
0000
0100
0010
0000
0001
0100
0001
0100
0010
1000
0000
0010
0100
0000
0010
1000
,
0000
0010
0100
0000
0010
1000
0010
1000
0001
0100
0001
1000
0001
0000
1000
0100
,
1000
0001
1000
0000
0001
1000
0001
0000
1001
0000
0000
0000
0110
0000
0000
0000
,
0001
0100
0010
1000
0000
1100
1000
1100
,
1000
1100
1000
1100
1000
1100
1000
1100
,
0001
0010
0001
0000
0001
0010
0001
0000
0000
0000
0101
0000
0001
0000
0101
0000
,
0001
0101
0001
0101
0001
0101
0001
0101
,
1000
0010
1000
0000
1000
0010
1000
0000
0000
0000
1010
0000
1000
0000
1010
0000
,
1000
1010
1000
1010
1000
1010
1000
1010
,
0001
0100
0001
0000
0001
0100
0001
0000
0000
0000
0001
0000
0100
0000
0100
0000
,
0010
1000
0010
0100
0001
0010
0100
1000
,
0001
1000
0001
1000
0001
1000
0001
1000
0001
0000
0100
0000
0010
1000
0001
0000
,
0010
0000
0100
0000
1000
0010
0100
0000
0001
0000
1000
0000
0100
0010
0001
0000
,
1000
0000
0100
0000
0010
0001
1000
0000
0010
0000
0100
0000
0001
1000
0010
0000
,
0100
0000
0010
0000
1000
0100
0010
0000
0001
0000
0100
0000
0001
0010
0100
0000
,
1000
0100
0010
0001
1000
0100
0010
0001
1000
0000
0010
0000
0100
0001
1000
0000
,
0100
0000
0010
0000
0001
0100
0010
0000
1000
0000
0001
0000
0010
0100
1000
0000
,
0001
0000
0010
0000
0100
1000
0001
0000
0100
0000
0010
0000
1000
0001
0100
0000
,
0010
0000
0100
0000
0001
0010
0100
0000
1000
0010
0100
0001
0100
0010
1000
0010
,
0100
0001
0100
0010
1000
0010
0100
0001
0000
0000
1010
0000
1000
0000
1100
0000
,
1000
1001
1000
1100
1000
1010
1000
1100
,
0001
0010
0100
0000
0010
0001
0100
0000
0000
0000
0011
0000
0001
0000
0101
0000
,
0001
0000
1001
0000
0001
0000
0101
0000
0001
1000
0100
1000
0001
0010
0100
0010
,
0001
1000
0100
0010
0001
1000
0100
1000
0000
0000
1100
0000
1000
0000
1010
0000
,
1000
1100
1000
1001
1000
1100
1000
1010
,
0100
0001
0010
0000
0100
0010
0001
0000
0000
0000
1000
0000
0010
0000
0010
0000
,
0100
0001
0010
0001
0010
1000
0010
0001
,
1001
0000
0000
0000
0110
0000
0000
0000
0001
0000
0100
0000
0010
1000
0010
0000
,
0100
0000
0001
0000
0010
1000
0010
0000
0001
0000
0100
0000
0001
0010
0001
0000
,
1000
0000
0010
0000
0001
0010
0001
0000
0010
0000
1000
0000
0100
0001
0100
0000
,
1000
0000
0010
0000
0100
0001
0100
0000
0001
1000
0100
1000
0001
1000
0100
1000
,
0001
1000
0100
1000
0001
1000
0100
0000
1000
0000
0010
0000
0100
0001
0100
0000
,
0010
0000
1000
0000
0100
0001
0100
0000
1000
0000
0010
0000
1000
0100
1000
0000
,
0001
0000
0100
0000
1000
0100
1000
0000
0100
0000
0001
0000
0010
1000
0010
0000
,
0001
0000
0100
0000
0010
1000
0010
0000
1000
0100
0010
0001
0010
0100
1000
0100
,
0010
0001
0010
0100
1000
0100
0010
0001
1000
0000
0010
0100
0010
0000
1000
0000
,
0001
0010
0100
0010
0001
0000
0010
0000
0011
0000
0001
0000
0101
0000
0100
0000
,
1100
0000
1000
0000
1010
0000
0000
0000
0001
0000
0100
0010
0100
0000
0010
0000
,
1000
0010
0100
0010
1000
0000
0010
0000
0100
0001
1000
0001
0100
0001
1000
0001
,
0100
0010
1000
0010
0100
0010
1000
0010
0100
0000
0001
0010
0001
0000
1000
0000
,
0100
0010
0001
0010
0100
0000
0010
0000
0011
0000
0000
0000
1100
0000
0000
0000
,
1001
0000
1010
0010
0110
0000
0011
0010
,
0110
1000
1010
0010
0110
1001
0000
0110
,
1001
0000
1001
0000
1000
0100
1000
0100
,
0001
0100
1000
0000
1000
0100
0001
0100
,
1000
0000
1001
0000
0001
0100
0001
0100
,
1000
0100
0001
0000
1000
0100
0001
0100
,
1000
0000
1001
0000
1000
0010
1000
0010
,
0001
0010
1000
0000
0001
0010
1000
0010
,
0001
0000
1001
0000
0001
0010
1000
0010
,
0001
0010
1000
0000
1000
0010
0001
0010
,
1000
1001
0000
0000
,
0000
0000
0000
0000
,
0000
0000
0000
0000
,
0000
0000
0000
0000
,
0000
0000
0000
0000
,
0000
0000
0000
0000
,
0000
0000
0000
0000
,
0000
0000
0000
0000
,
0000
0000
0000
0000
,
0000
0000
2002
0000
,
0000
3003
0220
0000
,
0000
0330
2020
0000
,
0000
3030
0202
0000
,
0000
0000
0303
0000
1000
0010
0100
0001
,
1000
0000
0100
0010
0100
0000
0010
0001
0010
0000
0001
0000
1000
0000
0001
0000
,
0100
0000
0010
1000
0010
0000
0100
0001
0100
0010
0100
0010
0100
0010
0100
0010
,
1000
0010
1000
0010
1000
0010
1000
0010
1000
0001
0010
0100
1000
0001
0010
0100
,
1000
0000
0000
0000
0000
0000
0000
0000
0001
0000
0100
0010
0100
0000
0001
0000
,
1000
0100
0010
0100
1000
0000
0100
0000
1100
0000
1000
0000
1010
0000
0010
0000
,
0011
0000
0001
0000
0101
0000
0000
0000
1000
0000
0010
0100
0010
0000
0100
0000
,
0001
0100
0010
0100
0001
0000
0100
0000
0010
1000
0001
1000
0010
1000
0001
1000
,
0010
0100
0001
0100
0010
0100
0001
0100
0010
0000
1000
0100
1000
0000
0001
0000
,
0010
0100
1000
0100
0010
0000
0100
0000
1100
0000
0000
0000
0011
0000
0000
0000
,
1001
0000
0101
0100
0110
0000
1100
0100
,
0110
0001
0101
0100
0110
1001
0000
0110
,
1001
0220
0000
0330
,
0000
0000
0000
0000
;
#NOTES:
     dance-double:
     :
     Easy:
     7:
     :
00000000
00000000
00000000
00000000
,
00000000
00000000
00000000
00000000
,
00000000
00000000
00000000
00000000
,
00000000
00000000
00000000
00000000
,
00000000
00000000
00000000
00000000
,
00000000
00000000
00000000
00000000
,
00000000
00000000
00000000
00000000
,
00000000
00000000
00000000
00000000
,
00000000
00000000
00000000
00000000
,
00000000
00000000
00000001
00000010
,
00000100
00000000
00001000
00000010
,
00000100
00000000
00000010
00010000
,
00001000
00000000
00010000
00001000
,
00010000
00000000
00001000
00100000
,
00010000
00000000
10000000
00100000
,
01000000
00000000
00100000
10000000
,
01000000
00000000
00010000
00001000
,
00010000
00001000
00000000
00010000
,
00010000
00001000
00000010
00000100
,
00000220
00000330
00000000
00000001
,
00000001
00000100
00000010
00001000
,
00002002
00003003
00000000
00000100
,
00000100
00010000
00001000
00010000
,
00022000
00033000
00000000
00100000
,
00100000
00010000
01000000
00100000
,
20020000
30030000
10000000
00100000
,
10000000
00100000
01000000
00010000
,
01000000
00000000
00010000
00100000
,
00010000
00100000
00001000
00010000
,
00001000
00000000
00010000
00000100
,
00001000
00000100
00000010
00000100
,
00000010
00000000
00000001
00000100
,
00000001
00000100
00000010
00010000
,
00001000
00000000
00000000
00001000
,
00001000
00010000
01000000
00100000
,
02200000
03300000
00000000
10000000
,
10000000
00100000
01000000
00010000
,
20020000
30030000
00000000
00100000
,
00100000
00001000
00010000
00001000
,
00022000
00033000
00000000
00000100
,
00000100
00001000
00000010
00000100
,
00002002
00003003
00000001
00000100
,
00000001
00000100
00000010
00001000
,
00000010
00000000
00001000
00000100
,
00001000
00000100
00010000
00001000
,
00010000
00000000
00001000
00100000
,
00010000
00100000
01000000
00100000
,
01000000
00000000
10000000
00100000
,
10000000
00100000
01000000
00001000
,
00010000
00000000
00010000
00000100
,
00000010
00000001
00001000
00001000
,
00001000
00001000
00000001
00000100
,
00001000
00010000
00001000
00010000
,
00011000
00000000
00001000
00100000
,
00010000
10000000
10010000
10010000
,
01100000
00000000
10010000
00000000
,
01100000
00000000
00010000
00001000
,
00011000
00000000
00002000
00000000
,
00010000
00000000
01000000
00000000
,
00013000
00000000
00020000
00000000
,
00001000
00000000
00000010
00000000
,
00031000
00000000
00002000
00000000
,
00010000
00000000
00100000
00000000
,
00013000
00000000
00020000
00000000
,
00001000
00000000
00000100
00000000
,
00031000
00000000
00000000
00000000
,
00000000
00000000
00000000
00000000
,
00000000
00000000
00000000
00000000
,
00000000
00000000
00000000
00000000
,
00000000
00000000
00000000
00000000
,
00000000
00000000
00000000
00000000
,
00000000
00000000
00000000
00000000
,
00000000
00000000
00000000
00000000
,
00000000
00000000
00000000
00000000
,
00000000
00000000
00000220
00000000
,
00000000
00000000
00000330
00000000
,
00000000
00000000
02200000
00000000
,
00000000
00000000
03300000
00000000
,
00000000
00000000
00000001
00000010
,
00000001
00000000
00000001
00000010
,
00000100
00000000
00010000
00001000
,
00010000
00000000
00022000
00000000
,
00033000
00000000
00001000
01000000
,
00100000
10000000
00010000
00010000
,
00010000
00010000
10000000
01000000
,
00010000
00001000
00010000
00001000
,
00011000
00000000
00010000
00000010
,
00001000
00000001
00001001
00001001
,
00000110
00000000
00001001
00000000
,
00000110
00000000
00001000
00010000
,
00011000
00000000
00000000
00000000
,
00000000
00000000
00000000
00000000
;
#NOTES:
     dance-double:
     :
     Medium:
     11:
     :
00000000
00000000
00000000
00000000
,
00000000
00000000
00000000
00000000
,
00000000
00000000
00000000
00000000
,
00000000
00000000
00000000
00000000
,
00000000
00000000
00000000
00000000
,
00000000
00000000
00000000
00000000
,
00000000
00000000
00000000
00000000
,
00000000
00000000
00000000
00000000
,
00000000
00000000
00000000
00000000
,
00000000
00000000
00000000
00000000
00000001
00000010
00000001
00000000
,
00000100
00000010
00001000
00000000
00000010
00010000
00001000
00000000
,
01000000
00010000
00100000
00000000
00010000
01000000
00010000
00000000
,
00100000
01000000
10000000
00000000
10100000
00000000
11000000
00000000
,
01010000
00000000
00011000
00000000
00001000
00000010
00001000
00000000
,
00001000
00010000
00001000
00000000
00010000
00100000
00010000
00000000
,
00010000
00001000
00010000
00000000
00001000
00000100
00001000
00000000
,
00001000
00010000
00001000
00000000
00011000
00000000
01010000
00000000
,
01000000
00100000
01000000
00100000
00000000
00010000
00010000
00000000
,
10000000
01000000
00100000
00000000
00001000
00010000
00000010
00000000
,
00001010
00000000
00000101
00000000
00000000
00000001
00000001
00000000
,
00001000
00000100
00000010
00000000
00001000
00010000
01000000
00000000
,
01100000
00000000
10010000
00000000
00000000
10000000
10000000
00000000
,
00100000
01000000
00001000
00000000
00010000
00001000
00010000
00000000
,
00011000
00000000
00001010
00000000
00000000
00000001
00000010
00000001
,
00001000
00000100
00001000
00000000
00000100
00010000
00001000
00000000
,
00022000
00000000
00033000
00000000
00010000
00100000
10000000
00000000
,
00100000
10000000
01000000
00000000
00100000
00001000
00010000
00000000
,
00001000
00000000
00010000
00000000
00001000
00000010
00000001
00000000
,
00000010
00000001
00000100
00000000
00000010
00010000
00001000
00000000
,
00010000
00000000
00001000
00000000
00100000
00010000
10000000
00000000
,
00100000
01000000
00001000
00000000
00010000
00000100
00001000
00000000
,
00000010
00000000
00000010
00000000
00000100
00000001
00001000
00000000
,
00000010
00010000
00001000
00000000
00010000
00001000
01000000
00000000
,
00100000
01000000
00010000
10000000
00000000
00100000
01000000
00100000
,
10000000
01000000
00100000
00000000
00001000
00010000
00001000
00000000
,
00001010
00000000
00000110
00000000
00000000
00001000
00000001
00001000
,
00000010
00000100
00001000
00000000
00010000
00100000
01000000
00000000
,
01100000
00000000
10010000
00000000
00000000
10000000
00100000
10000000
,
01000000
00010000
00001000
00000000
00010000
00000100
00000010
00000000
,
00000011
00000000
00001001
00000000
00000000
00000100
00000010
00000100
,
00001000
00010000
00001000
00000000
01000000
00100000
10000000
00000000
,
20020000
00000000
30030000
00000000
00100000
01000000
10000000
00000000
,
00010000
01000000
00100000
00000000
10000000
01000000
00010000
00000000
,
00001000
00000000
00010000
00000000
00000010
00000100
00000001
00000000
,
00000100
00001000
00000100
00000000
00000010
00010000
00001000
00000000
,
00010000
00000000
00001000
00000000
01000000
00100000
10000000
00000000
,
01000000
00100000
00010000
00000000
00001000
00000100
00000010
00000000
,
00000001
00000000
00000100
00000000
00000010
00001000
00000001
00000000
,
00000010
00000100
00001000
00000000
00010000
00000000
00100000
00000000
,
01000000
00000000
10000000
00000000
10000000
01000000
00100000
00000000
,
00010000
01000000
00100000
00000000
10100000
00000000
01100000
00000000
,
00110000
00000000
00011000
00000000
00001000
00000100
00000010
00000000
,
00001000
00000100
00000010
00000000
00000001
00001000
00000001
00001000
,
00000001
00000000
00001001
00000000
00000001
00000100
00000010
00000000
,
00001000
00000100
00000010
00000000
00000110
00000000
00001010
00000000
,
00011000
00000000
00010000
01000000
00100000
00000000
00010000
10000000
,
00100000
01000000
00100000
00000000
10000000
01000000
00000000
00010000
,
00001000
00011000
00020000
00000010
,
00000100
00000000
01000000
00000000
,
00001000
00000000
00032000
00100000
,
01000000
00000000
00000100
00000000
,
01000000
00000000
00023000
00000100
,
00000010
00000000
00100000
00000000
,
00000010
00000000
00032000
01000000
,
00100000
00000000
00000010
00000000
,
00100000
00000000
00003000
00000000
,
00000000
00000000
00000000
00000000
,
00000000
00000000
00000000
00000000
,
00000000
00000000
00000000
00000000
,
00000000
00000000
00000000
00000000
,
00000000
00000000
00000000
00000000
,
00000000
00000000
00000000
00000000
,
00000000
00000000
00000000
00000000
,
00000000
00000000
00000000
00000000
,
00000000
00000000
00000220
00000000
,
00000330
00000000
00020200
00000000
,
00030300
00000000
00022000
00000000
,
00033000
00000000
02020000
00000000
,
03030000
00000000
10000000
00100000
,
01000000
00000000
00001000
00010000
00001000
00000000
00010000
00000000
,
01000000
00000000
00010000
00001000
00010000
00000000
00001000
00000000
,
00000010
00000000
00000001
00000000
00000100
00000010
00000100
00000010
,
00000100
00000000
00000000
00000000
00000001
00000010
00000100
00000000
,
00001000
00000010
00000100
00000000
00000101
00000000
00000110
00000000
,
00001100
00000000
00011000
00000000
00010000
00100000
01000000
00000000
,
00010000
00100000
01000000
00000000
10000000
00010000
10000000
00010000
,
10000000
00000000
10010000
00000000
10000000
00100000
01000000
00000000
,
00010000
00100000
01000000
00000000
01100000
00000000
01010000
00000000
,
00011000
00000000
00001000
00000010
00000100
00000000
00001000
00000001
,
00000100
00000010
00000100
00000000
00000001
00000010
00000000
00001000
,
00010000
00022000
00000000
00033000
,
00000000
00000000
00000000
00000000
;
#NOTES:
     dance-double:
     :
     Hard:
     15:
     :
00000000
00000000
00000000
00000000
,
00000000
00000000
00000000
00000000
,
00000000
00000000
00000000
00000000
,
00000000
00000000
00000000
00000000
,
00000000
00000000
00000000
00000000
,
00000000
00000000
00000000
00000000
,
00000000
00000000
00000000
00000000
,
00000000
00000000
00000000
00000000
,
00000000
00000000
00000000
00000000
,
00000000
00000000
00000000
00000000
00000001
00000100
00000010
00000100
,
00000001
00000000
00000010
00000000
00001000
00000000
00010000
00001000
00010000
00000000
01000000
00000000
00100000
00000000
01000000
00000000
,
10000000
00000000
00010000
00000000
01000000
00000000
00100000
10000000
00100000
00000000
01000000
00000000
00100000
00000000
10000000
00000000
,
01000000
00100000
00001000
00010000
00000100
00001000
00000100
00001000
,
00000001
00000010
00000001
00000010
00000001
00000100
00000010
00001000
,
00000001
00000000
00000100
00000000
00000010
00000000
00001000
00000100
00001000
00000000
00000100
00000000
00010000
00000000
00000010
00000000
,
00001000
00000000
00000100
00000000
00010000
00000000
00001000
00100000
00001000
00000000
00100000
00000000
00010000
00000000
01000000
00000000
,
00001000
00100000
00010000
01000000
01100000
00000000
10010000
00000000
,
10000000
01000000
00100000
00010000
00000000
00100000
00100000
00010000
,
00100000
00001000
00000010
00000001
00001000
00000100
00000001
00000100
,
00001000
00000010
00001000
00000000
00000001
00000100
00000001
00000000
00000000
00000000
00000100
00000000
00000100
00000000
00001000
00000000
,
00000100
00000010
00010000
00001000
00010000
01000000
10000000
00100000
,
10000000
01000000
10000000
00000000
00010000
00100000
00010000
00000000
00000000
00000000
00100000
00000000
00100000
00000000
01000000
00000000
,
10000000
00100000
00010000
00001000
00000100
00000001
00001000
00000100
,
00000010
00000001
00000010
00000000
00000100
00001000
00000100
00000000
00000000
00000000
00001000
00000000
00001000
00000000
00000100
00000000
,
00010000
00001000
00010000
00001000
01000000
01000000
00100000
00100000
,
01100000
00000000
00000000
00000000
10010000
00000000
00000000
00000000
00100000
00000000
10000000
00000000
01000000
00100000
00010000
00000000
,
01000000
00000000
00100000
00000000
00010000
00000000
00001000
00000000
00010000
00000000
00000100
00000000
00001000
00000010
00000100
00000000
,
00000001
00000000
00000010
00000000
00000100
00000000
00001000
00000000
00000010
00000000
00000100
00000000
00000010
00001000
00000001
00000000
,
00000010
00000100
00010000
00001000
01000000
00010000
00100000
00010000
,
01000000
00000000
00100000
00000000
10000000
01000000
00100000
00010000
10000000
00000000
00100000
00000000
01000000
00001000
00010000
00000000
,
01000000
00000000
00010000
00000000
00001000
00000000
00000010
00000000
00000001
00000000
00000100
00000000
00000001
00001000
00000010
00000000
,
00000100
00000000
00001000
00000000
00010000
00000000
00100000
00000000
00010000
00000000
00001000
00000000
00010000
01000000
00100000
00000000
,
00010000
10000000
00100000
01000000
00001000
00100000
00001000
00010000
,
00001000
00000000
00000100
00000000
00000001
00000010
00000100
00001000
00000000
00000000
00000010
00000000
00000010
00000000
00001000
00000000
,
00000010
00010000
00100000
10000000
00010000
01000000
10000000
01000000
,
00010000
00100000
00010000
00000000
10000000
01000000
10000000
00000000
00000000
00000000
01000000
00000000
01000000
00000000
00010000
00000000
,
01000000
00100000
00001000
00010000
00001000
00000100
00000001
00000010
,
00000001
00000100
00000001
00000000
00001000
00000010
00001000
00000000
00000000
00000000
00000010
00000000
00000010
00000000
00000100
00000000
,
00000001
00000010
00001000
00010000
01000000
10000000
00010000
01000000
,
00100000
10000000
00100000
00000000
01000000
00010000
01000000
00000000
00000000
00000000
00010000
00000000
00010000
00000000
01000000
00000000
,
00001000
00010000
00001000
00010000
00000100
00000100
00000010
00000010
,
00000110
00000000
00000000
00000000
00001001
00000000
00000000
00000000
00000010
00000000
00000001
00000000
00000100
00000010
00001000
00000000
,
00000100
00000000
00000010
00000000
00001000
00000000
00010000
00000000
00001000
00000000
01000000
00000000
00010000
00100000
01000000
00000000
,
10000000
00000000
00100000
00000000
01000000
00000000
00010000
00000000
00100000
00000000
01000000
00000000
00100000
00010000
10000000
00000000
,
00100000
01000000
00001000
00010000
00000100
00001000
00000010
00001000
,
00000100
00000000
00000010
00000000
00000001
00000100
00000010
00001000
00000001
00000000
00000010
00000000
00000100
00010000
00001000
00000000
,
00000100
00000000
00001000
00000000
00010000
00000000
00100000
00000000
10000000
00000000
01000000
00000000
10000000
00010000
00100000
00000000
,
01000000
00000000
00010000
00000000
00001000
00000000
00000010
00000000
00001000
00000000
00010000
00000000
00001000
00000100
00000010
00000000
,
00001000
00000001
00000010
00000100
00010000
00000010
00010000
00001000
,
00010000
00000000
01000000
00000000
10000000
00100000
01000000
00010000
00000000
00000000
10000000
00000000
10000000
00000000
00100000
00000000
,
01000000
00001000
00010000
00000000
00011000
00000000
00001100
00000000
,
00000110
00000000
00000011
00000000
00000000
00000001
00000001
00000100
,
00000010
00010000
00001000
00000000
00011000
00000000
00010000
00100000
,
10000000
00000000
10010000
00000000
00000000
01000000
01000000
00100000
,
00001000
00010000
00001000
00010000
00011000
00000000
00001010
00000000
,
00001100
00000000
00000001
00000100
00000110
00000000
00001000
00000100
,
00000110
00001000
00010000
01000000
01100000
01100000
00000000
01100000
,
01100000
00000000
10010000
00000000
10000000
01000000
10000000
01000000
,
00100000
00010000
00100000
00000000
00001000
00010000
00001000
00010000
,
00000100
00000000
00000110
00000000
00000001
00000100
00000001
00000100
,
00000010
00001000
00000010
00000000
00010000
00000010
00010000
00001000
,
00010000
00000000
00011000
00000000
00100000
10000000
00010000
10000000
,
00100000
01000000
00010000
00000000
00100000
00001000
00010000
00001000
,
00010000
00000000
00011000
00000000
00001000
00010000
00000010
00010000
,
00000010
00001000
00000010
00000000
00000100
00000001
00000100
00000001
,
00000010
00001001
00000000
00000000
,
00000000
00000000
00000000
00000000
,
00000000
00000000
00000000
00000000
,
00000000
00000000
00000000
00000000
,
00000000
00000000
00000000
00000000
,
00000000
00000000
00000000
00000000
,
00000000
00000000
00000000
00000000
,
00000000
00000000
00000000
00000000
,
00000000
00000000
00000000
00000000
,
00000000
00000000
00022000
00000000
,
00000000
00033000
00020020
00000000
,
00000000
00030030
00020200
00000000
,
00000000
00030300
00022000
00000000
,
00000000
00000000
00033000
00000000
00100000
00010000
00110000
00000000
,
01000000
10000000
10100000
00000000
01000000
00001000
01001000
00000000
,
00001000
00010000
00010010
00000000
00000100
00000001
00000010
00000001
,
00000100
00000000
00000010
00000000
00001000
00000000
00000100
00000000
00010000
00000000
00001000
00000000
00010000
00001000
00010000
00001000
,
00010000
00000000
00000000
00000000
00100000
10000000
10000000
00010000
,
00100000
01000000
00010000
00001000
00011000
00000000
00001100
00000000
,
00000101
00000000
00001001
00000000
00000001
00000100
00000100
00000010
,
00010000
00001000
00010000
00001000
00100000
00000000
01100000
01100000
,
01100000
00000000
10010000
00000000
10000000
01000000
00100000
00100000
,
00010000
00001000
00000100
00000010
00000011
00000000
00000101
00000000
,
00001001
00000000
00000001
00000100
00001100
00000000
00010000
00100000
,
10100000
10000000
01000000
00010000
00001000
00001000
00000000
00010000
,
00010000
00022000
00000000
00033000
,
00000000
00000000
00000000
00000000
;
#NOTES:
     dance-double:
     :
     Challenge:
     17:
     :
00000000
00000000
00000000
00000000
,
00000000
00000000
00000000
00000000
,
00000000
00000000
00000000
00000000
,
00000000
00000000
00000000
00000000
,
00000000
00000000
00000000
00000000
,
00000000
00000000
00000000
00000000
,
00000000
00000000
00000000
00000000
,
00000000
00000000
00000000
00000000
,
00000000
00000000
00000000
00000000
,
00000000
00000000
00000000
00000000
00000000
00000000
00000000
00000000
00000001
00000010
00000100
00000010
00000001
00000010
00000100
00000010
,
00000001
00000010
00000100
00000010
00000001
00000010
00000100
00000010
00000100
00010000
00001000
00010000
00000100
00010000
00001000
00010000
,
00000100
00010000
00001000
00010000
00000100
00010000
00001000
00010000
00001000
00100000
00001000
00010000
00001000
00100000
00001000
00010000
,
00001000
00100000
00001000
00010000
00001000
00100000
00001000
00010000
00001000
00000000
00100000
00000000
01000000
00000000
10000000
00000000
,
00100000
00000000
01000000
00000000
00010000
00000000
00100000
00000000
01000000
00010000
00000000
00010000
00001000
00000000
00001000
00000010
,
00000000
00000010
00000001
00000000
00000001
00000100
00000001
00000100
00000010
00000100
00000000
00000100
00001000
00000000
00010000
00100000
,
00000000
00100000
10000000
00000000
10000000
01000000
10000000
01000000
00100000
00001000
00010000
00001000
00100000
00000000
00001000
00010000
,
00000100
00010000
00001000
00000000
00010000
00000100
00001000
00000000
00001100
00000000
00000000
00000000
00000110
00000000
00000000
00000000
,
00000100
00010000
00001000
00000010
00000000
00000011
00000001
00000011
,
00000001
00000011
00000001
00000011
00000001
00000011
00000001
00000011
,
00000001
00000100
00001000
00000000
00010000
00100000
10000000
00000000
00000000
00000000
10100000
00000000
10000000
00000000
10100000
00000000
,
10000000
10100000
10000000
10100000
10000000
10100000
10000000
10100000
,
10000000
01000000
00010000
00000000
00001000
00000010
00000001
00000000
00000000
00000000
00000101
00000000
00000001
00000000
00000101
00000000
,
00000001
00000101
00000001
00000101
00000001
00000101
00000001
00000101
,
00000001
00000010
00001000
00000000
00010000
01000000
10000000
00000000
00000000
00000000
10000000
00000000
00100000
00000000
00100000
00000000
,
00010000
00001000
00010000
00001000
00000010
00000001
00000100
00001000
,
00010000
00001000
00010000
00001000
00010000
00001000
00010000
00001000
00010000
00000000
01000000
00000000
00100000
00010000
10000000
00000000
,
00100000
00000000
01000000
00000000
00010000
00100000
01000000
00000000
00010000
00000000
00001000
00000000
00000010
00000001
00001000
00000000
,
00000010
00000000
00000100
00000000
00000001
00000010
00000100
00000000
00010000
00000000
00001000
00000000
00100000
00010000
10000000
00000000
,
00100000
00000000
01000000
00000000
00010000
00100000
00001000
00000000
00010000
00000000
00000100
00000000
00001000
00000100
00000010
00000000
,
00000100
00010000
00001000
00010000
00000100
00010000
00001000
00010000
00000100
00000000
00000010
00000000
00000001
00000100
00000010
00000000
,
00010000
00000000
00001000
00000000
00100000
00010000
01000000
00000000
00100000
00000000
10000000
00000000
01000000
00100000
00010000
00000000
,
00100000
00000000
00001000
00000000
00010000
00000010
00001000
00000000
00000100
00000000
00000010
00000000
00000001
00000100
00000010
00000000
,
00001000
00000000
00000100
00000000
00010000
00001000
00100000
00000000
00001000
00010000
00000010
00010000
00001000
00010000
00000010
00010000
,
00001000
00100000
00001000
00010000
00001000
00100000
00010000
01000000
00000000
00000000
11000000
00000000
10000000
00000000
10010000
00000000
,
10000000
11000000
10000000
10100000
10000000
11000000
10000000
10010000
,
10000000
00100000
00010000
00000000
00001000
00000100
00000001
00000000
00000000
00000000
00000101
00000000
00000001
00000000
00001001
00000000
,
00000001
00000101
00000001
00000011
00000001
00000101
00000001
00001001
,
00000001
00000010
00000100
00010000
00001000
00100000
01000000
10000000
00000000
00000000
10100000
00000000
10000000
00000000
10010000
00000000
,
10000000
11000000
10000000
10010000
10000000
10100000
10000000
10010000
,
10000000
01000000
00010000
00000000
00001000
00000010
00000001
00000000
00000000
00000000
00000001
00000000
00000100
00000000
00000100
00000000
,
00001000
00010000
00001000
00010000
01000000
10000000
00100000
00010000
,
00001000
00010000
00001000
00010000
00001000
00010000
00001000
00010000
00001000
00000000
00000010
00000000
00000100
00001000
00000001
00000000
,
00000100
00000000
00000010
00000000
00001000
00000100
00000010
00000000
00001000
00000000
00010000
00000000
01000000
10000000
00100000
00000000
,
01000000
00000000
00010000
00000000
10000000
01000000
00100000
00000000
00001000
00000000
00010000
00000000
00000100
00001000
00000010
00000000
,
00000100
00000000
00000010
00000000
00001000
00000100
00010000
00000000
00001000
00000000
00100000
00000000
00010000
00100000
01000000
00000000
,
00100000
00001000
00010000
00001000
01000000
00001000
00010000
00001000
00100000
00000000
01000000
00000000
10000000
00100000
01000000
00000000
,
00001000
00000000
00010000
00000000
00000100
00001000
00000001
00000000
00000100
00000000
00000001
00000000
00000010
00000100
00001000
00000000
,
00000100
00000000
00010000
00000000
00001000
01000000
00010000
00000000
01000000
00000000
00100000
00000000
01000000
00010000
00100000
00000000
,
00010000
00000000
00100000
00000000
00001000
00010000
00000100
00000000
00010000
00001000
01000000
00001000
00100000
00001000
01000000
00001000
,
00010000
00000100
00010000
00000010
00010000
00000100
00001000
00000010
00000100
00000000
00000001
00000010
00000001
00000000
00000100
00000000
,
00000010
00010000
00001000
00010000
00001000
00000000
00100000
00000000
00110000
00000000
00010000
00000000
01010000
00000000
10000000
00000000
,
10100000
00000000
00100000
00000000
00110000
00000000
00000000
00000000
00010000
00000000
00001000
00000100
00001000
00000000
00000001
00000000
,
00000010
00000100
00001000
00000100
00000010
00000000
00000001
00000000
00000100
00000010
00001000
00000010
00001000
00000010
00010000
00000010
,
00010000
00001000
00100000
00001000
00100000
00010000
01000000
00010000
01000000
00000000
00100000
10000000
00100000
00000000
10000000
00000000
,
01000000
00100000
00010000
00100000
01000000
00000000
00010000
00000000
00011000
00000000
00000000
00000000
00001010
00000000
00000000
00000000
,
00001001
00000000
00000101
00000010
00001000
00000000
01010000
00100000
,
10000000
01000000
00010000
00001000
00011000
00011000
00000000
00000110
,
00000110
00000000
00001001
00000000
00000001
00000010
00000001
00000010
,
00001000
00000010
00001000
00000000
00010000
00100000
10000000
00100000
,
00010000
00000000
01100000
00000000
10000000
01000000
10000000
01000000
,
00010000
01000000
00010000
00000000
00001000
00000100
00001000
00000100
,
00000001
00000000
00000110
00000000
00000001
00000100
00000001
00000100
,
00001000
00000100
00001000
00000000
00010000
01000000
00010000
01000000
,
10000000
00000000
01100000
00000000
10000000
00100000
00010000
00100000
,
00010000
00001000
00010000
00000000
00001000
00000010
00000001
00000010
,
00000001
00000110
00000000
00000000
,
00000000
00000000
00000000
00000000
,
00000000
00000000
00000000
00000000
,
00000000
00000000
00000000
00000000
,
00000000
00000000
00000000
00000000
,
00000000
00000000
00000000
00000000
,
00000000
00000000
00000000
00000000
,
00000000
00000000
00000000
00000000
,
00000000
00000000
00000000
00000000
,
00000000
00000000
00022000
00000000
,
00000000
00033000
00220000
00000000
,
00000000
00330000
22000000
00000000
,
00000000
33000000
20020000
00000000
,
00000000
00000000
30030000
00000000
10000000
00100000
01000000
00100000
,
00010000
00000000
00001000
00010000
00001000
00000000
00001000
00010000
00001000
00000000
00000100
00000000
00000010
00000000
00001000
00000000
,
00000001
00000000
00000010
00000100
00000010
00000000
00000010
00000001
00001000
00000100
00001000
00000100
00010000
00000100
00010000
00000100
,
00010000
00001000
00010000
00001000
00100000
00001000
00100000
00001000
00100000
00010000
10000000
01000000
00100000
00010000
10000000
01000000
,
00100000
00000000
00000000
00000000
00000000
00000000
00000000
00000000
00010000
00000000
10000000
00100000
01000000
00000000
00010000
00000000
,
00100000
00001000
00010000
00001000
00010000
00000000
00000100
00000000
00000110
00000000
00000010
00000000
00000011
00000000
00000001
00000000
,
00000101
00000000
00000100
00000000
00001100
00000000
00000000
00000000
00010000
00000000
00100000
10000000
00100000
00000000
01000000
00000000
,
00010000
00100000
01000000
00100000
00010000
00000000
00100000
00000000
00001000
00010000
00000100
00010000
00001000
00010000
00000100
00010000
,
00000100
00001000
00000100
00000010
00000100
00001000
00000100
00000010
00000001
00000000
00000100
00000010
00000100
00000000
00000001
00000000
,
00000010
00000100
00010000
00001000
00100000
00000000
01000000
00000000
11000000
00000000
00000000
00000000
10100000
00000000
00000000
00000000
,
01100000
00000000
00100000
00010000
00011000
00000000
00000010
00001000
,
00011000
00010000
00001000
00000100
00000101
00000011
00000000
00001010
,
00011000
02200000
00000000
03300000
,
00000000
00000000
00000000
00000000
;
