
//----- song ID: have2 -----//
#TITLE:HAVE YOU NEVER BEEN MELLOW (20th Anniversary Mix);
#ARTIST:nc ft. Kanae Jasmine Asaba;
#BANNER:HAVE YOU NEVER BEEN MELLOW (20th Anniversary Mix).png;
#BACKGROUND:HAVE YOU NEVER BEEN MELLOW (20th Anniversary Mix)-bg.png;
#CDTITLE:./CDTitles/DDR A20.png;
#MUSIC:HAVE YOU NEVER BEEN MELLOW (20th Anniversary Mix).ogg;
#SAMPLESTART:66.891;
#SAMPLELENGTH:15;
#BPMS:0=130;
#STAGE:16;
#NOTES:
     dance-single:
     :
     Beginner:
     2:
     :
0000
0000
0000
0000
,
0000
0000
0000
0000
,
0000
0000
0000
0000
,
0000
0000
0000
0000
,
0000
0000
0000
0000
,
0000
0000
0000
0000
,
0001
0000
0001
0000
,
1000
0000
1000
0000
,
0001
0000
1000
0000
,
0001
0000
1000
0000
,
1001
0000
0000
1000
,
0000
0000
0000
0001
,
0000
0000
0000
0100
,
0000
0000
0000
0010
,
0000
0000
0000
1000
,
0000
0000
0000
0001
,
0000
0000
0000
0100
,
0000
0000
0000
0000
,
0000
1000
0000
1000
,
0000
0010
0000
0010
,
0000
0001
0000
0001
,
0000
0010
0000
0010
,
0000
1000
0000
1000
,
0000
0100
0000
0100
,
0000
0001
0000
0001
,
0000
0000
0000
0000
,
0001
0001
0000
0002
,
0000
0000
0003
0000
,
1000
1000
0000
2000
,
0000
0000
3000
0000
,
0010
0000
0010
0000
,
0100
0000
0100
0000
,
0020
0000
0030
0000
,
0200
0000
0300
0000
,
0020
0000
0000
0000
,
0030
0000
0000
0000
,
1001
0000
0000
0000
,
0010
0010
0010
0000
,
1001
0000
0000
0000
,
0100
0100
0100
0000
,
0001
0000
0001
0000
,
1000
0000
1000
0000
,
0020
0000
0030
0000
,
0200
0000
0300
0000
,
1001
0000
0000
0000
,
0100
0100
0100
0000
,
1001
0000
0000
0000
,
0010
0010
0010
0000
,
1000
0000
1000
0000
,
0001
0000
0001
0000
,
2002
0000
3003
0000
,
0010
0000
0000
0000
,
0100
0000
0000
0000
,
0010
0000
0000
0000
,
0100
0000
0000
0000
,
0001
0000
0001
0000
,
0010
0000
0010
0000
,
1000
0000
1000
0000
,
0100
0000
0100
0000
,
0001
0000
0001
0000
,
1000
0000
1000
0000
,
0001
0000
1000
0000
,
0001
0000
1000
0000
,
0000
0000
0000
0000
;
#NOTES:
     dance-single:
     :
     Easy:
     4:
     :
0000
0000
0000
0000
,
0000
0000
0000
0000
,
0000
0000
0000
0000
,
0000
0000
0000
0000
,
0000
0000
0000
0000
,
0000
0000
0000
0000
,
0010
0001
1000
0000
,
0010
1000
0001
0000
,
0010
0001
0100
1000
,
0010
0010
0010
0010
,
0000
0000
0000
0010
,
0000
0000
0000
0001
,
0000
0000
0000
0100
,
0000
0000
0000
0001
,
0000
0000
0000
0010
,
0000
0000
0000
1000
,
0000
0000
0000
0100
,
0000
0000
0000
1000
,
0000
0010
0000
0010
,
0000
0001
0000
0001
,
0000
0100
0000
0100
,
0000
0001
0000
0001
,
0000
0010
0000
0010
,
0000
1000
0000
1000
,
0000
0100
0000
0100
,
0000
1000
0000
1000
,
0001
0001
0000
0020
,
0000
0000
0030
0000
,
1000
1000
0000
0020
,
0000
0000
0030
0000
,
1000
0000
1000
0000
,
0100
0000
0100
0000
,
0001
0000
1000
0000
,
0001
0000
1000
0000
,
0001
0001
1000
1000
,
2002
0000
3003
0000
,
0000
0001
0000
0010
,
0100
0010
0100
0010
,
0000
1000
0000
0100
,
0010
0100
0010
0100
,
0000
0001
0000
1000
,
0000
0001
0000
1000
,
0010
0001
0100
1000
,
1000
0100
0001
0010
,
0000
0001
0000
0010
,
0100
0010
0100
0010
,
0000
1000
0000
0100
,
0010
0100
0010
0100
,
0000
0001
0000
1000
,
0000
0001
0000
1000
,
2002
0000
3003
0000
,
1000
0000
0010
0000
,
0001
0000
0100
0000
,
1000
0000
0010
0000
,
0001
0000
0100
0000
,
0010
0100
0010
0000
,
1000
0001
1000
0000
,
0001
0010
0001
0000
,
1000
0010
1000
0000
,
0010
1000
0001
0000
,
0010
0001
1000
0000
,
0010
1000
0100
0001
,
0010
0010
0010
0010
,
0000
0000
0000
0000
;
#NOTES:
     dance-single:
     :
     Medium:
     7:
     :
0000
0000
0000
0000
,
0000
0000
0000
0000
,
0000
0000
0000
0000
,
0000
0000
0000
0000
,
0000
0000
0000
0000
,
0000
0000
0000
0000
,
1002
0000
0103
0000
0010
1000
0100
0000
,
2001
0000
3100
0000
0010
0001
0100
0000
,
1000
0010
0001
0100
,
1000
0100
1000
0100
1000
0000
0110
0000
,
0010
0001
0100
1000
,
0010
0001
0100
1000
,
0100
0001
0010
1000
,
0100
0001
0010
1000
,
0010
0001
0100
1000
,
0100
0001
0010
1000
,
0000
0000
0000
0000
,
0010
0100
0001
1000
,
0010
0000
0001
0000
1000
0100
1000
0000
,
0002
0010
1000
0103
,
0010
0000
1000
0000
0001
0100
0001
0000
,
2000
0010
0001
3100
,
1000
0010
0001
0010
,
1000
0010
0001
0010
,
1000
0100
0001
0100
,
1000
0100
0001
0100
,
1000
0010
1000
0001
1000
0000
1020
0000
,
0000
0000
0130
0000
,
0001
0010
0001
1000
0001
0000
0021
0000
,
0000
0000
0130
0000
,
1000
0100
0001
0100
,
1000
0100
1000
0100
,
0001
0100
0001
0100
,
0001
0010
1000
0100
,
0010
0001
0100
0000
0010
1000
0100
0000
,
0220
0000
0000
0330
,
1001
0000
0100
0000
0010
0001
0100
0000
,
2000
0010
0001
3010
,
1001
0000
0100
0000
0010
1000
0100
0000
,
0002
0010
1000
0013
,
1000
0001
0100
1000
,
0001
1000
0010
0001
,
0100
1000
0100
0000
0010
0001
0010
0000
,
0001
0100
0001
0000
1000
0010
1000
0000
,
0011
0000
1000
0000
0010
0100
0001
0000
,
0020
0001
0100
0031
,
1010
0000
0001
0000
0010
0100
1000
0000
,
0020
1000
0100
1030
,
0001
0100
0010
0000
1000
0100
0010
0000
,
0001
1000
0010
0000
0100
0001
1000
0000
,
0220
0000
0000
0330
,
1000
1000
0010
0010
,
0001
0001
0100
0100
,
1000
1000
0010
0010
,
0001
0001
0100
0100
,
0120
0000
1030
0000
1000
0100
0010
0000
,
2001
0000
3010
0000
0100
0001
1000
0000
,
0120
0000
0031
0000
0001
0100
0010
0000
,
1002
0000
0013
0000
0100
1000
0001
0000
,
2001
0000
3100
0000
0010
0001
0100
0000
,
1002
0000
0103
0000
0010
1000
0100
0000
,
0001
0010
1000
0100
,
0001
0100
0001
0100
0001
0000
0110
0000
,
0000
0000
0000
0000
;
#NOTES:
     dance-single:
     :
     Hard:
     11:
     :
0000
0000
0000
0000
,
0000
0000
0000
0000
,
0000
0000
0000
0000
,
0000
0000
0000
0000
,
0000
0000
0000
0000
,
0000
0000
0000
0000
,
0021
0000
0130
0000
0010
0001
0100
0001
,
1020
0000
0130
0000
0010
1000
0100
1000
,
0001
1000
0100
1000
0001
1000
0010
1000
,
0001
0100
1000
0100
0001
0010
0100
0000
,
1001
0000
0010
0000
0001
0100
1000
0000
,
0010
0000
0001
0000
0100
1000
0010
0000
,
0001
0000
0100
0000
1000
0010
0001
0000
,
0100
0000
1000
0000
0010
0001
0100
0000
,
1000
0000
0010
0000
0001
0100
1000
0000
,
0010
0000
0001
0000
0100
1000
0010
0000
,
0001
0000
0100
0000
1000
0010
0001
0000
,
0010
0010
0100
0000
1000
1000
0001
0000
,
1001
0000
0000
0010
0001
0000
0010
0000
0100
0000
0010
0000
0001
0000
0000
0000
,
0100
0000
0000
0010
0100
0000
0001
0000
1000
0000
0001
0000
0100
0000
0000
0000
,
0001
0000
0000
1000
0010
0000
0100
0000
0001
0000
0100
0000
0010
0000
0000
0000
,
0100
0000
0000
0001
0010
0000
1000
0000
0010
0000
0001
0000
1000
0000
0000
0000
,
0001
0010
1000
0000
0010
1000
0100
0000
,
1000
0100
0001
0000
0100
0001
0010
0000
,
0001
0010
1000
0000
0010
1000
0100
0000
,
0010
0010
0100
0010
0001
0001
1000
0000
,
2010
0010
3010
0010
0100
0000
0210
0000
,
0000
0000
0310
0000
0001
0010
0100
1000
,
0012
0010
0013
0010
0100
0000
0210
0000
,
0000
0000
0310
0000
0001
1000
0100
0000
,
0010
0001
0010
0000
0001
0100
0001
0000
,
0100
1000
0100
0000
1000
0010
1000
0000
,
0010
0001
0010
0000
0001
0100
0001
0000
,
0100
0001
0100
0000
1000
0100
1000
0000
,
0010
1000
0010
0100
0010
0001
0010
0100
,
0010
1000
0100
0001
0010
1000
0100
0000
,
1001
0000
0010
0001
0100
0001
0010
0001
,
1200
0001
1000
0301
,
1001
0000
0010
1000
0100
1000
0010
1000
,
0021
1000
0001
1030
,
0120
0000
0031
0100
0020
0000
1030
0100
,
0002
0000
0103
1000
0002
0000
0103
0010
,
0100
0001
0010
1000
,
0010
1000
0100
0000
0010
0001
0100
0000
,
1001
0000
0001
0100
1000
0100
0001
1000
,
1020
0001
1000
0031
,
0000
0000
1000
0100
0010
0001
1000
0001
,
0021
1000
0001
1030
,
0010
0001
1000
0100
0010
0001
0100
0010
,
1000
0100
1000
0010
1000
0001
0100
0010
,
2002
0000
0000
3003
,
0001
0100
1000
0010
,
0001
0100
1000
0010
,
1000
0100
0001
0010
,
1000
0100
0001
0010
,
0021
0000
0130
0000
0010
0001
0100
0001
,
1020
0000
0130
0000
0010
1000
0100
1000
,
1002
0000
0103
0000
0001
0010
0100
1000
,
2001
0000
3100
0000
1000
0010
0100
0001
,
1020
0000
0130
0000
0010
1000
0100
1000
,
0021
0000
0130
0000
0010
0001
0100
0001
,
1000
0001
0100
0001
1000
0001
0010
0001
,
1000
0100
0001
0100
1000
0010
0100
0000
,
0000
0000
0000
0000
;
#NOTES:
     dance-single:
     :
     Challenge:
     17:
     :
0000
0000
0000
0000
,
0000
0000
0000
0000
,
0000
0000
0000
0000
,
0000
0000
0000
0000
,
0000
0000
0000
0000
,
0000
0000
0000
0000
,
0001
0000
1000
0000
0010
0000
0100
0000
0001
0000
1000
0000
0100
0000
1000
0001
1000
0000
0010
0000
0100
0000
0001
0000
1000
0000
0100
0000
0010
0000
0001
1000
,
0001
0000
0100
0000
0010
0000
1000
0000
0001
0000
0010
0000
0100
0000
1000
0001
1000
0000
0010
0000
0100
0000
0001
0000
1000
0000
0100
0000
1000
0000
0001
0000
,
0100
0000
0010
0000
1000
0000
0001
0000
1000
0000
0100
0000
0010
0000
0001
1000
0001
0000
0100
0000
0010
0000
0100
0000
0001
0000
0010
0000
0100
0000
1000
0000
,
0001
0100
0001
0010
0100
1000
0010
0100
0001
0010
0100
0000
1001
0000
0000
0000
,
0001
0000
0000
0000
1000
0000
0000
0000
0010
0000
0000
0000
0100
0000
0000
0000
0002
0000
0000
0003
0020
0000
0000
0030
0002
0000
0000
0003
0200
0000
0000
0300
,
0010
0000
0000
0000
0100
0000
0000
0000
0002
0000
0000
0003
0020
0000
0000
0030
0100
0000
0000
0000
2000
0000
0000
3000
0200
0000
0000
0300
0010
0000
0000
0000
,
0001
0000
0000
0000
1000
0000
0000
0000
0010
0000
0000
0000
1000
0000
0000
0000
0002
0000
0000
0003
0010
0000
0000
0000
0002
0000
0000
0003
2000
0000
0000
3000
,
0100
0000
0000
0000
0020
0000
0000
0030
0001
0000
0000
0000
0100
0000
0000
0000
0020
0000
0000
0030
1000
0000
0000
0000
0020
0000
0000
0030
0200
0000
0000
0300
,
0001
0000
0000
0000
1000
0000
0000
0000
0100
0000
0000
0000
0010
0000
0000
0000
0100
0000
0000
0000
1000
0000
0000
0000
0020
0000
0000
0030
2000
0000
0000
3000
,
0001
0000
0000
0000
1000
0000
0000
0000
0100
0000
0000
0000
0010
0000
0000
0000
0001
0000
0000
0000
1000
0000
0000
0000
0002
0000
0000
0003
0010
0000
0000
0000
,
0100
0000
0000
0000
1000
0000
0000
0000
0002
0000
0000
0003
0100
0000
0000
0000
0001
0000
0000
0000
0010
0000
0000
0000
0001
0000
0000
0000
1000
0000
0000
0000
,
0100
1000
0010
1000
0100
0010
0001
0010
,
0100
0000
1000
0001
1000
0000
0010
0000
0100
0000
0001
0000
0010
0000
0001
0000
,
1000
0000
0010
0100
0010
0000
1000
0000
0001
0000
0010
0000
0100
0000
0010
0000
,
0001
0000
1000
0001
0100
0000
0010
0000
0100
0000
0001
0000
0010
0000
0100
0000
,
1000
0000
0010
1000
0001
0000
0010
0000
0100
0000
1000
0000
0001
0000
0100
0000
,
0010
0000
0100
0001
0010
0000
0001
0000
1000
0000
0100
0000
1000
0000
0010
0000
,
1000
0000
0001
0010
0100
0000
1000
0000
0001
0000
1000
0000
0010
0000
0100
0000
,
0001
0000
0010
0001
0100
0000
0001
0000
1000
0000
0001
0000
0010
0000
0001
0000
,
1000
0000
0100
1000
0010
0000
1000
0000
0001
0100
0001
0010
0100
1000
0010
1000
,
1001
0000
0101
0000
1001
0000
1100
0000
0110
0000
0000
0000
1002
0000
0000
0003
,
1000
0001
0100
0010
0200
0000
0000
0300
0001
0000
0010
0000
0100
0000
1000
0000
,
1001
0000
0011
0000
1001
0000
1010
0000
0110
0000
0000
0000
2001
0000
0000
3000
,
0001
0000
0000
1000
0000
0000
0010
0000
0000
0100
0000
0000
0002
0000
0000
0000
0000
0000
0000
0000
0000
0003
0000
0000
1000
0000
0100
0000
0010
0000
0001
0000
1000
0000
0010
0000
0100
0000
0001
0000
0010
0000
0100
0000
1000
0000
0001
0000
,
0100
0000
0001
0000
0010
0100
1000
0001
0100
0000
0001
0000
0010
0001
1000
0010
,
0100
0000
0001
0000
1000
0100
1000
0010
0100
0000
0001
0000
1000
0001
0010
0100
,
1000
0000
1010
0000
0010
0100
0001
1000
0100
0000
0110
0000
0010
0001
1000
0010
,
0100
0000
0101
0000
0001
1000
0100
1000
0010
0000
0100
0000
0001
0000
1000
0000
,
0001
0000
0010
0000
0100
0000
1000
0000
0001
0100
0001
0010
0100
1000
0010
0100
,
0002
0000
0000
0000
0000
0000
0000
0000
0000
0003
0000
0000
1000
0000
0100
0000
1000
0000
0001
0000
0100
0000
0010
0000
2000
0000
0000
0000
0000
0000
0000
0000
0000
0000
3000
0000
0010
0000
1000
0000
0001
0000
0010
0000
0100
0000
1000
0000
,
0001
1000
0010
0100
0001
1000
0001
0010
0100
1000
0001
0100
0010
0100
0001
0010
,
0100
1000
0001
0100
0010
1000
0001
1000
0010
0100
0001
1000
0100
1000
0010
0100
,
0001
0010
0001
1000
0010
0100
0001
1000
0100
0010
0100
1000
0001
0100
0010
1000
,
0100
1000
0010
0100
0001
0010
0100
1000
0001
1000
0010
0100
0001
1000
0001
0010
,
0100
1000
0100
1000
0001
0100
0010
0100
0001
1000
0100
1000
0010
0100
0001
1000
,
0100
1000
0001
0100
0001
0010
0100
1000
0001
0010
0001
0100
0001
1000
0100
1000
,
0010
0100
0001
0100
0010
1000
0001
0010
0100
1000
0001
1000
0100
0010
0001
1000
,
0010
0100
0001
1000
0001
0100
0010
1000
0001
0010
0100
1000
0001
0100
0001
0010
,
0100
0000
1000
0000
0001
0000
0100
0000
0001
1000
0001
0000
0100
0000
0001
0000
1000
0100
1000
0000
0001
0000
0100
0000
0001
1000
0001
0000
0010
0000
0100
0000
,
1000
0100
1000
0000
0001
0000
0100
0000
0010
0000
1000
0000
0010
0000
0100
0000
0001
0000
0010
0000
0001
0000
1000
0000
0100
0000
1000
0000
0010
0000
0100
0000
,
0001
0000
1000
0000
0100
0000
1000
0000
0001
0100
0001
0000
0010
0000
0100
0000
1000
0001
1000
0000
0010
0000
0100
0000
0001
1000
0001
0000
0010
0000
0100
0000
,
1000
0000
0010
0000
0100
0001
0100
0000
0010
0000
1000
0000
0010
0000
0100
0000
0001
0000
1000
0000
0100
0000
0010
0000
0001
0000
0100
0000
0010
0000
1000
0000
,
0001
0000
0010
0000
0100
0000
1000
0000
0001
0100
0010
0000
1000
0000
0001
0000
1000
0100
0010
0000
0001
0000
1000
0000
0010
0100
0001
0000
1000
0000
0100
0000
,
1000
0010
0100
0001
0010
0001
0100
0010
1000
0100
1000
0010
0100
0001
0010
0100
,
2000
0000
0000
3000
,
0002
0203
0302
2003
,
3200
2300
3020
0230
,
0302
0023
0230
2300
,
3020
0000
0000
0000
0230
0000
0000
0000
0301
1000
0100
1000
1001
0000
0000
0000
,
0001
0000
1000
0000
0010
0000
0100
0000
0001
0000
0010
0000
0100
0000
1000
0001
1000
0000
0010
0000
0100
0000
0001
0000
0010
0000
0001
0000
0100
0000
0010
0000
,
1000
0000
0001
0000
1000
0000
0100
0000
0010
0000
0001
0000
1000
0000
0010
0100
0010
0000
1000
0000
0001
0000
0100
0000
0001
0000
0010
0000
0100
0000
1000
0000
,
0010
0000
1000
0000
0001
0000
0010
0000
0100
0000
1000
0000
0001
0000
0100
0010
0100
0000
0001
0000
1000
0000
0100
0000
1000
0000
0010
0000
0100
0000
0001
0000
,
1000
0000
0100
0000
0010
0000
0001
0000
1000
0000
0010
0000
0100
0000
0001
1000
0001
0000
0010
0000
0100
0000
1000
0000
0001
0000
0100
0000
0001
0000
1000
0000
,
0001
0000
0000
0000
0010
0000
0000
0000
0100
0000
0000
0000
1000
0000
0000
0000
0010
0000
0000
0000
0100
0000
0000
0000
0001
0000
0000
0000
0000
0000
1000
0000
0000
0000
0000
0000
0100
0000
0000
0000
0000
0000
0010
0000
0000
0001
0000
0000
0010
0000
0000
0000
0000
0000
0100
0000
0000
0000
0000
0000
1000
0000
0000
0000
0000
0000
0001
0000
0000
0000
0000
0000
0100
0000
0000
0000
0000
0000
0001
0000
0000
0000
0000
0000
0010
0000
0000
0000
0000
0000
0100
0000
0000
0000
0000
0000
,
1000
0000
0010
0000
0100
0000
0010
0000
1000
0000
0001
0000
0010
0000
0100
1000
0100
0000
0010
0000
0001
0000
1000
0000
0010
0000
0100
0000
0001
0000
1000
0000
,
0100
1000
0010
0100
0001
0010
0001
1000
0100
1000
0010
0100
0001
0010
0001
1000
,
0010
0100
0001
0010
0100
1000
0001
0100
0010
1000
0001
0000
2002
0000
0000
0000
,
3003
0000
0000
0000
,
0000
0000
0000
0000
;
#NOTES:
     dance-double:
     :
     Easy:
     4:
     :
00000000
00000000
00000000
00000000
,
00000000
00000000
00000000
00000000
,
00000000
00000000
00000000
00000000
,
00000000
00000000
00000000
00000000
,
00000000
00000000
00000000
00000000
,
00000000
00000000
00000000
00000000
,
10000000
01000000
00010000
00000000
,
00001000
00000010
00000001
00000000
,
00000001
00000100
00001000
00010000
,
00100000
10000000
01000000
01000000
,
00000000
00010000
00000000
00010000
,
00000000
00001000
00000000
00001000
,
00000000
00001000
00000000
00000010
,
00000000
00010000
00000000
00100000
,
00000000
00010000
00000000
00001000
,
00000000
00000010
00000000
00000100
,
00000000
00000001
00000000
00000000
,
00000010
00001000
00010000
00100000
,
00000000
10000000
00000000
01000000
,
00000000
00100000
00000000
00010000
,
00000000
00001000
00000000
00000100
,
00000000
00000010
00000000
00000001
,
00000000
00000100
00000000
00000010
,
00000000
00000100
00000000
00001000
,
00000000
00010000
00000000
00000000
,
00001000
00010000
00100000
10000000
,
00010000
00010000
00000000
00200000
,
00000000
00000000
00300000
00000000
,
10000000
10000000
00000000
00200000
,
00000000
00000000
00300000
00000000
,
00010000
00100000
10000000
10000000
,
01000000
00010000
00001000
00000010
,
00000001
00000100
00000010
00000000
,
00001000
00000100
00000010
00000000
,
00000001
00000100
00001000
00010000
,
00011000
00000000
00000000
00000000
,
00000000
00100000
00000000
00100000
,
10000000
01000000
00010000
00001000
,
00000000
00010000
00000000
00010000
,
00001000
00000010
00000001
00000100
,
00000000
00000001
00000010
00001000
,
00000000
00000001
00000100
00001000
,
00000000
00000001
00000000
00001000
,
00000000
00010000
00000000
10000000
,
00000000
10000000
00000000
10000000
,
01000000
00010000
00001000
00000010
,
00000000
00000001
00000000
00000001
,
00000100
00001000
00010000
00100000
,
00000000
10000000
00100000
00010000
,
00000000
10000000
01000000
00010000
,
20020000
00000000
30030000
00000000
,
10000000
00000000
10000000
00000000
,
00010000
00000000
00010000
00000000
,
00001000
00000000
00001000
00000000
,
00000001
00000000
00000001
00000000
,
00000010
00000001
00000100
00000000
,
00000001
00000100
00001000
00000000
,
00000100
00001000
00010000
00000000
,
00001000
00010000
00100000
00000000
,
10000000
01000000
00010000
00000000
,
00001000
00000010
00000001
00000000
,
00000001
00000100
00001000
00010000
,
00100000
10000000
01000000
01000000
,
00000000
00000000
00000000
00000000
;
#NOTES:
     dance-double:
     :
     Medium:
     7:
     :
00000000
00000000
00000000
00000000
,
00000000
00000000
00000000
00000000
,
00000000
00000000
00000000
00000000
,
00000000
00000000
00000000
00000000
,
00000000
00000000
00000000
00000000
,
00000000
00000000
00000000
00000000
,
00000010
00000000
00000001
00000000
00000100
00000010
00000100
00000000
,
00001000
00000000
00010000
00000000
00001000
00010000
00001000
00000000
,
00010000
00100000
10000000
01000000
,
00100000
01000000
00100000
01000000
00100000
00000000
00001000
00000000
,
00011000
00000010
00000001
00000100
,
00001000
00010000
00100000
10000000
,
01000000
00010000
00001000
00000010
,
00000001
00000100
00001000
00010000
,
00100000
10000000
01000000
00010000
,
00001000
00000010
00000001
00000100
,
00001000
00010000
00100000
10000000
,
10000000
00010000
00010000
00000000
00010000
00001000
00001000
00000000
,
00001000
00000000
00000010
00000000
00000001
00001000
00000001
00000000
,
00000100
00001000
00010000
00001000
,
00010000
00000000
00100000
00000000
10000000
00010000
10000000
00000000
,
01000000
00010000
00001000
00010000
,
00001000
00000100
00000001
00000010
,
00000001
00000100
00001000
00010000
,
00010000
01000000
10000000
00100000
,
10000000
01000000
00010000
00001000
,
00100000
01000000
00100000
01000000
00100000
00000000
00102000
00000000
,
00000000
00000000
00013000
00000000
,
00000010
00000100
00000010
00000100
00000010
00000000
00020010
00000000
,
00000000
00000000
00031000
00000000
,
00000010
00010000
00100000
10000000
,
01000000
00010000
00001000
00010000
,
00100000
00001000
00000010
00000001
,
00000100
00001000
00010000
00001000
,
01000000
00010000
00100000
00000000
01000000
00010000
00001000
00000000
,
00022000
00000000
00000000
00033000
,
00000010
00000000
00001001
00000000
00000010
00000001
00000100
00000000
,
00000001
00001000
00010000
10000000
,
00100000
00000000
10010000
00000000
00100000
10000000
01000000
00000000
,
10000000
00010000
00001000
00000001
,
00002000
00000010
00003002
00000010
,
00002003
00000100
00003002
00000103
,
00001000
00010000
00100000
10000000
,
01000000
00010000
00001000
00000010
,
00000001
00000000
00000110
00000000
00001000
00000001
00000100
00000000
,
00000001
00001000
00010000
10000000
,
00010000
00000000
01100000
00000000
10000000
00010000
00100000
00000000
,
10000000
00010000
00001000
00000001
,
00000010
00000001
00000100
00000000
00000010
00001000
00000100
00000000
,
00010000
00001000
00100000
00000000
00010000
10000000
00100000
00000000
,
02200000
00000000
00000000
03300000
,
10000000
10000000
01000000
01000000
,
00010000
00010000
00001000
00001000
,
00000100
00000100
00000001
00000001
,
00000010
00000010
00001000
00001000
,
00010000
00000000
00001000
00000000
00000010
00000001
00000100
00000000
,
00001000
00000000
00010000
00000000
00100000
10000000
01000000
00000000
,
00010000
00000000
00001000
00000000
00000010
00000001
00000100
00000000
,
00001000
00000000
00010000
00000000
00100000
10000000
01000000
00000000
,
00100000
00000000
10000000
00000000
01000000
00100000
01000000
00000000
,
00010000
00000000
00001000
00000000
00010000
00001000
00010000
00000000
,
00001000
00000010
00000001
00000100
,
00000010
00000100
00000010
00000100
00000010
00000000
00011000
00000000
,
00000000
00000000
00000000
00000000
;
#NOTES:
     dance-double:
     :
     Hard:
     10:
     :
00000000
00000000
00000000
00000000
,
00000000
00000000
00000000
00000000
,
00000000
00000000
00000000
00000000
,
00000000
00000000
00000000
00000000
,
00000000
00000000
00000000
00000000
,
00000000
00000000
00000000
00000000
,
20100000
00000000
31000000
00000000
00100000
00010000
01000000
00000000
,
00120000
00000000
00031000
00000000
00100000
00010000
00001000
00000000
,
00000100
00000010
00000001
00000100
00000010
00010000
00000010
00001000
,
00000001
00000100
00001000
00010000
01000000
10000000
00100000
00000000
,
00010000
00000000
00010000
00000000
00100000
00001000
00000000
00000000
,
00010000
00000000
00010000
00000000
00000010
00001000
00000000
00000000
,
00000001
00000000
00000001
00000000
00000010
00000100
00000000
00000000
,
00010000
00000000
00010000
00000000
00001000
01000000
00000000
00000000
,
00100000
00000000
00100000
00000000
10000000
01000000
00000000
00000000
,
00100000
00000000
00100000
00000000
00001000
00010000
00000000
00000000
,
00000010
00000000
00000000
00000100
00000000
00000000
00000000
00000000
,
00000001
00001000
00000100
00010000
,
00011000
00000000
00000000
00100000
00010000
00000000
00100000
00000000
01000000
00000000
00100000
00000000
00010000
00000000
00000000
00000000
,
00011000
00000000
00000000
00000010
00001000
00000000
00000010
00000000
00000100
00000000
00000010
00000000
00001000
00000000
00000000
00000000
,
00011000
00000000
00000000
01000000
00010000
00000000
01000000
00000000
00100000
00000000
01000000
00000000
00010000
00000000
00000000
00000000
,
00011000
00000000
00000000
00000100
00001000
00000000
00000100
00000000
00000010
00000000
00000100
00000000
00001000
00000000
00000000
00000000
,
00000001
00000010
00001000
00000000
00000001
00000100
00001000
00000000
,
00000001
00000100
00001000
00000000
00010000
00001000
00010000
00000000
,
00010000
01000000
10000000
00000000
00010000
00100000
10000000
00000000
,
00100000
00010000
01000000
00100000
10000000
00010000
10000000
00000000
,
00100000
10000000
01000000
00010000
00001000
00000000
00010020
00000000
,
00000000
00000000
00000130
00000000
00000010
00001000
00000100
00000000
,
00000010
00000001
00000100
00001000
00010000
00000000
00201000
00000000
,
00000000
00000000
01300000
00000000
00100000
00010000
01000000
00000000
,
00100000
10000000
00100000
00000000
10000000
01000000
10000000
00000000
,
01000000
00010000
01000000
00000000
00010000
00001000
00010000
00000000
,
00001000
00000100
00001000
00000000
00000100
00000001
00000100
00000000
,
00000001
00000010
00000001
00000000
00000010
00001000
00000010
00000000
,
00001000
00100000
00010000
01000000
00100000
10000000
01000000
00100000
,
00001000
00010000
00000010
00001000
00000100
00010000
00001000
00000000
,
00012000
00000000
00003100
00000000
00000010
00010000
00000100
00000000
,
00000010
00000001
00001000
00000100
00010000
00001000
00100000
00000000
,
00021000
00000000
01030000
00000000
00100000
00001000
01000000
00000000
,
00100000
10000000
00010000
01000000
00001000
00010000
00000010
00000000
,
00001000
00000010
00000001
00000000
00001000
00010000
00001000
00000000
,
00010000
00100000
10000000
00000000
00010000
10000000
00010000
00000000
,
00110000
10010000
01010000
00011000
,
00001010
00001001
00001100
00011000
,
00021000
00000000
00130000
00000000
01000000
00100000
10000000
00000000
,
01000000
00100000
00001000
00010000
00000010
00001000
00000100
00000000
,
00012000
00000000
00003010
00000000
00000100
00000010
00000001
00000000
,
00000100
00000010
00010000
00001000
00100000
00010000
01000000
00000000
,
00010000
00100000
10000000
00000000
00010000
00001000
00010000
00000000
,
00001000
00000010
00000001
00001000
00000001
00000100
00000010
00000000
,
00002002
00000000
00000000
00003003
,
00000010
00000001
00001000
00010000
,
00001000
00010000
10000000
01000000
,
00100000
10000000
00010000
00001000
,
00010000
00001000
00000001
00000100
,
00000012
00000000
00000103
00000000
00000010
00001000
00000100
00000000
,
00020010
00000000
00031000
00000000
00000010
00001000
00010000
00000000
,
00210000
00000000
10300000
00000000
00010000
01000000
10000000
00000000
,
02010000
00000000
13000000
00000000
00010000
00100000
10000000
00000000
,
20100000
00000000
31000000
00000000
00100000
00010000
01000000
00000000
,
00120000
00000000
00031000
00000000
00100000
00010000
00001000
00000000
,
00000100
00000010
00000001
00000100
00000010
00010000
00000010
00001000
,
00000001
00000100
00001000
00010000
01000000
10000000
00100000
00000000
,
00000000
00000000
00000000
00000000
;
#NOTES:
     dance-double:
     :
     Challenge:
     17:
     :
00000000
00000000
00000000
00000000
,
00000000
00000000
00000000
00000000
,
00000000
00000000
00000000
00000000
,
00000000
00000000
00000000
00000000
,
00000000
00000000
00000000
00000000
,
00000000
00000000
00000000
00000000
,
00001000
00010000
00100000
00000000
01000000
10000000
00000000
01000000
00010000
00100000
10000000
00000000
00100000
00001000
00000000
00000000
,
00010000
00001000
00000100
00000000
00000010
00001000
00000000
00000100
00000001
00000100
00001000
00000000
00000010
00010000
00000000
00000000
,
00001000
01000000
00010000
10000000
01000000
00010000
00001000
00000010
00000001
00001000
00000010
00000100
00000001
00001000
00000100
00010000
,
00001000
00100000
00010000
01000000
00100000
00010000
00100000
10000000
01000000
00010000
00001000
00000100
00000010
00000000
00000000
00000000
,
00001000
00000001
00000100
00010000
00001000
00000010
00001000
00100000
,
00010000
00001000
00100000
10000000
00100000
00010000
01000000
10000000
,
01000000
00001000
00010000
01000000
00100000
00001000
00000010
00000100
,
00010000
00000010
00000001
00000010
00001000
00000100
00000010
00001000
,
00010000
00000010
00001000
00100000
00010000
00001000
01000000
00010000
,
00100000
10000000
00100000
00001000
00000010
00000100
00001000
00000010
,
00000001
00000010
00001000
00100000
10000000
01000000
00010000
01000000
,
10000000
00100000
00010000
00001000
00000100
00000001
00001000
00000000
,
00000010
00000000
00010000
00001000
00010000
00000000
00000100
00000000
00000010
00000000
00001000
00000000
00010000
00000000
00100000
00000000
,
01000000
00000000
00001000
00010000
00001000
00000000
00100000
00000000
01000000
00000000
00010000
00000000
00001000
00000000
00000010
00000000
,
00000100
00000000
00010000
00001000
00010000
00000000
00000010
00000000
00000100
00000000
00001000
00000000
00010000
00000000
01000000
00000000
,
00100000
00000000
00001000
00010000
00001000
00000000
01000000
00000000
00100000
00000000
00010000
00000000
00001000
00000000
00000100
00000000
,
00000010
00000000
00001000
00010000
00001000
00000000
00100000
00000000
00010000
00000000
00001000
00000000
00000010
00000000
00001000
00000000
,
00100000
00000000
00010000
00001000
00010000
00000000
00000010
00000000
00001000
00000000
00010000
00000000
01000000
00000000
00010000
00000000
,
00000100
00000000
00001000
00010000
00001000
00000000
01000000
00000000
00010000
00000000
00001000
00000000
00000100
00000000
00001000
00000000
,
01000000
00000000
00010000
00001000
00010000
00000000
00000100
00000000
00001000
00000000
00010000
00000000
01000000
00000000
00100000
00000000
,
01100000
00000000
00101000
00000000
00012000
00000000
00003200
00000000
00000310
00000000
00000000
00000000
00002001
00000000
00000000
00003000
,
00000010
00000100
00001000
00010000
00000200
00000000
00000000
00000300
00001000
00000000
00000010
00000000
00000100
00000000
00000010
00000000
,
00000110
00000000
00010010
00000000
00021000
00000000
02030000
00000000
03100000
00000000
00000000
00000000
10020000
00000000
00000000
00030000
,
10000000
00000000
00000000
00100000
00000000
00000000
01000000
00000000
00000000
00010000
00000000
00000000
00200000
00000000
00000000
00000000
00000000
00000000
00000000
00000000
00000000
00300000
00000000
00000000
00001000
00000000
00010000
00000000
00001000
00000000
00010000
00000000
00000100
00000000
00001000
00000000
00000100
00000000
00000010
00000000
00000001
00000000
00001000
00000000
00000010
00000000
00000100
00000000
,
00000001
00000000
00000010
00000000
00000100
00001000
00000010
00010000
00001000
00000000
01000000
00000000
00010000
00100000
01000000
10000000
,
00100000
00000000
01000000
00000000
00001000
00010000
00001000
00100000
00010000
00000000
01000000
00000000
00001000
00010000
00000100
00000010
,
00000001
00000000
00001000
00000000
00000010
00010000
00001000
01000000
00010000
00000000
00100000
00000000
10000000
00100000
00010000
01000000
,
00001000
00000000
00010000
00000000
00000010
00000100
00000001
00001000
00000100
00000000
00010000
00000000
00001000
01000000
00010000
00100000
,
00001000
00000000
00010000
00000000
00000100
00000000
00001000
00000000
00000010
00010000
00001000
01000000
00010000
00100000
00001000
00010000
,
00002000
00000000
00000000
00000000
00000000
00000000
00013000
00000000
00000000
00001000
00000000
00000000
00002000
00000000
00003000
00020000
00000000
00030000
00001000
00010000
00001000
00010000
00001000
00010000
,
00001000
00010000
00001000
00000010
00000100
00001000
00000001
00000100
00000010
00001000
00000100
00010000
00001000
00100000
00010000
01000000
,
10000000
01000000
00100000
10000000
01000000
00010000
00001000
00010000
00001000
00010000
00100000
10000000
00010000
10000000
01000000
00100000
,
00001000
00010000
00001000
00010000
00000100
00000010
00001000
00000010
00000001
00000010
00000100
00001000
00000001
00000010
00001000
00010000
,
00001000
00010000
00100000
10000000
01000000
00100000
00010000
01000000
00100000
00010000
00001000
00010000
00001000
00000010
00000001
00001000
,
00000001
00000100
00000010
00000100
00000001
00001000
00000010
00010000
00001000
01000000
00100000
00010000
00100000
10000000
01000000
00100000
,
10000000
00100000
00010000
00100000
00001000
00010000
00001000
00000010
00000001
00001000
00000100
00000010
00000001
00001000
00000001
00000100
,
00001000
00010000
00100000
10000000
00010000
10000000
01000000
00010000
00001000
00000010
00000001
00001000
00000001
00000100
00001000
00010000
,
00100000
01000000
10000000
01000000
00010000
00100000
10000000
00100000
00001000
00010000
00000010
00000100
00000001
00000000
00001000
00000000
,
00000001
00000010
00000100
00001000
00000001
00000100
00001000
00010000
00001000
00000100
00001000
00010000
00100000
00010000
00001000
00010000
,
00100000
10000000
00010000
10000000
01000000
00010000
00001000
00010000
00001000
00000100
00000001
00000010
00000100
00001000
00000010
00010000
,
00001000
00000100
00001000
00010000
01000000
00010000
00001000
00000100
00001000
00010000
01000000
10000000
00010000
00100000
01000000
10000000
,
01000000
00010000
00001000
00000010
00000001
00000010
00000001
00000010
00000100
00001000
00000001
00000100
00000010
00001000
00000100
00010000
,
00001000
01000000
10000000
01000000
10000000
01000000
00100000
00010000
00001000
00000010
00000100
00000001
00000100
00000001
00000100
00000010
,
00001000
00010000
00100000
10000000
00100000
10000000
01000000
00010000
00001000
00000010
00000001
00000100
00001000
00010000
01000000
10000000
,
00200000
00000000
00000000
00300000
,
20000000
32000000
03200000
00320000
,
02030000
03002000
00023000
00032000
,
00003200
00000320
00002030
00003002
,
00000023
00000230
00002300
00003001
,
00000001
00000010
00000100
00000000
00010000
00001000
00000000
00000100
00000010
00001000
00000100
00000000
00010000
00001000
00000000
00000000
,
00010000
00100000
01000000
00000000
00010000
00100000
00000000
01000000
10000000
00010000
01000000
00000000
00100000
00010000
00000000
00000000
,
00001000
00010000
00000100
00000000
00000001
00000100
00000000
00001000
00000010
00010000
00001000
00000000
00000100
00000001
00000000
00000000
,
00000010
00000100
00010000
00000000
00001000
01000000
00000000
10000000
01000000
00010000
00100000
00000000
00001000
00000010
00000000
00000000
,
00000001
00000000
00001000
00000000
00000010
00000000
00000100
00000000
00000010
00000000
00001000
00000000
00000001
00000000
00000000
00000000
00000000
00000000
00000000
00000000
00000000
00000010
00000000
00000000
00000100
00000000
00000000
00010000
00000000
00000000
00001000
00000000
00000000
00000000
00000000
00000000
01000000
00000000
00000000
00100000
00000000
00000000
00000000
00000000
00000000
00000000
00000000
00000000
,
00010000
00001000
00100000
00000000
10000000
00100000
00000000
00001000
00010000
00100000
01000000
00000000
00001000
00010000
00000000
00000000
,
00000100
00000010
00000001
00000100
00001000
00010000
01000000
10000000
,
00010000
10000000
00100000
01000000
00010000
10000000
01000000
00010000
00001000
00000010
00000001
00000000
00002002
00000000
00000000
00000000
,
00003003
00000000
00000000
00000000
,
00000000
00000000
00000000
00000000
;
