
//----- song ID: glit -----//
#TITLE:Glitch Angel;
#ARTIST:lapix;
#BANNER:Glitch Angel.png;
#BACKGROUND:Glitch Angel-bg.png;
#CDTITLE:./CDTitles/DDR A20.png;
#MUSIC:Glitch Angel.ogg;
#SAMPLESTART:82.92;
#SAMPLELENGTH:15;
#BPMS:0=165;
#STAGE:30;
#NOTES:
     dance-single:
     :
     Beginner:
     5:
     :
0000
0000
0000
0000
,
0000
0000
0000
0000
,
0000
0000
0000
0000
,
0000
0000
0000
0000
,
0000
0000
0000
0000
,
1000
0000
0000
0000
,
0001
0000
0000
0000
,
0020
0000
0000
0000
,
0030
0000
0000
0000
,
1000
0100
1000
0000
,
0001
0100
0001
0000
,
0010
0100
0010
0000
,
1000
0001
1000
0000
,
0001
0001
0001
0000
,
1000
1000
1000
0000
,
0020
0000
0000
0000
,
0030
0000
0000
0000
,
0200
0000
0000
0000
,
0000
0000
0000
0000
,
0000
0000
0000
0000
,
0000
0000
0300
0000
,
0010
0000
0010
0010
,
1000
0000
1000
1000
,
0001
0000
0010
0000
,
0100
0000
0010
0000
,
1000
0000
1001
0000
,
0010
0000
0100
0000
,
0010
0000
0110
0000
,
0001
0000
1000
0000
,
0010
0000
0110
0000
,
0001
0000
1000
0000
,
0001
0000
1001
0000
,
0100
0000
0010
0000
,
0100
0000
0110
0000
,
1000
0000
0001
0000
,
1000
0000
1001
0000
,
0020
0000
0030
0000
,
1001
0000
0110
0000
,
1000
0000
0001
0000
,
1001
0000
1001
0000
,
0001
0000
0100
0000
,
0010
0000
2000
0000
,
0000
0000
3000
0000
,
0001
0000
1000
0000
,
0010
0000
0100
0000
,
0010
0000
1001
0000
,
0100
0000
0010
0000
,
0110
0000
0110
0000
,
0020
0000
0000
0030
,
0200
0000
0000
0000
,
0000
0000
0000
0300
,
0020
0000
0000
0000
,
0000
0000
0000
0030
,
1000
0010
1000
0000
,
0001
0010
0001
0000
,
1000
0001
1000
0001
,
1001
0000
0000
0000
,
0010
0000
0010
0000
,
0100
0010
0100
0000
,
0002
0003
2000
3000
,
0002
0003
2000
3000
,
0020
0030
0200
0300
,
0020
0030
0200
0300
,
0002
0003
2000
3000
,
0002
0003
2000
3000
,
0001
1000
0001
0000
,
1000
0001
1000
0000
,
0001
0100
0010
0000
,
1000
0100
0010
0000
,
0100
1000
0010
0000
,
0100
0001
0010
0000
,
0010
0100
0010
0100
,
0020
0000
0030
0000
,
0110
0000
0000
0000
,
0000
0000
0000
0000
;
#NOTES:
     dance-single:
     :
     Easy:
     8:
     :
0000
0000
0000
0000
,
0000
0000
0000
0000
,
0000
0000
0000
0000
,
0000
0000
0000
0000
,
0000
0000
0000
0000
,
2002
0000
0000
3003
,
0010
0000
0000
0100
0000
0000
0000
0000
,
0220
0000
0000
0000
,
0000
0000
0000
0000
0330
0000
0010
0100
,
0010
1000
0100
0010
,
0001
0000
1000
0000
0001
0100
0001
0100
,
0001
0010
0100
1000
,
0010
0100
0001
1000
,
0002
0023
0230
1300
,
2000
3020
0230
0301
,
1001
0000
0000
0000
,
0110
0000
0000
0000
,
2002
0000
0000
0000
,
0000
0000
0000
0000
,
0000
0000
0000
0000
,
0000
0000
3003
0000
,
0010
1000
0001
1001
,
0010
0001
1000
1001
,
0110
1000
0001
0100
,
0010
0010
0200
0300
,
0010
0110
0100
0110
,
0001
0010
0100
1000
,
0010
0000
0000
0010
0000
0000
0010
0000
0000
0010
0000
0000
0010
0000
0100
0000
,
0010
1000
0020
0030
,
1000
1001
0001
1001
,
1000
0010
0100
0001
,
0010
0000
0000
0010
0000
0000
0010
0000
0000
0010
0000
0000
0010
0000
0100
0000
,
0010
0100
0020
0030
,
0100
1001
0010
1001
,
0001
1000
0010
0100
,
0010
0000
0000
0010
0000
0000
0010
0000
0000
0010
0000
0000
0010
0000
0100
0000
,
0002
0000
0000
0003
,
1000
0110
0001
0110
,
0010
0001
1000
0100
,
0010
0000
0000
0010
0000
0000
0010
0000
0000
0010
0000
0000
0010
0000
0100
0000
,
0020
0000
0000
0030
,
0100
0110
2000
3000
,
0002
0003
2000
3000
,
0010
0000
0000
0010
0000
0000
0010
0000
0000
0010
0000
0000
0010
0000
0100
0000
,
0020
0030
0200
0300
,
0001
1001
0010
0110
,
0001
0100
0010
1000
,
0010
0000
0000
0010
0000
0000
0010
0000
0000
0010
0000
0000
0010
0000
0100
0000
,
0010
0100
0020
0030
,
0200
0000
0000
0000
,
0000
0000
0000
0300
,
0020
0000
0000
0000
,
0000
0000
0000
0030
,
0001
0001
1000
1000
,
0010
0010
0100
0100
,
0001
0010
0100
1000
,
0002
0023
0230
2300
,
3001
1001
0010
0110
,
1000
0100
0020
0031
,
0011
0000
1100
0000
,
0101
0000
1010
0000
,
0110
0000
1100
0000
,
1001
0000
0101
0000
,
0110
0000
0011
0000
,
0110
0000
1010
0000
,
0110
0010
1000
0100
,
1000
0000
0100
0000
0010
0001
0010
0000
,
0100
1000
0001
0100
,
0010
0000
0100
0000
0010
0100
0010
0000
,
1000
0001
0100
0010
,
1000
0000
0001
0000
1000
0001
1000
0000
,
0010
0010
0100
0100
,
0020
0000
0000
0030
,
1001
0000
0000
0000
,
0000
0000
0000
0000
;
#NOTES:
     dance-single:
     :
     Medium:
     13:
     :
0000
0000
0000
0000
,
0000
0000
0000
0000
,
0000
0000
0000
0000
,
0000
0000
0000
0000
,
0000
0000
0000
0000
,
0002
0000
0000
0203
0000
0000
0000
0000
,
0320
0000
1030
0002
0000
0000
0003
0100
,
0010
0000
0000
0100
0000
0000
2002
0000
0000
0000
0000
0000
0000
0000
0000
0000
,
0000
0000
0000
0000
3003
0000
1000
0010
,
0100
0010
1000
0000
0001
0010
0100
0000
,
1000
0001
0100
0000
0001
1000
0010
0100
,
0010
1000
0001
0000
0010
0100
1000
0000
,
0010
0100
0001
0000
1000
0001
1000
0100
,
0010
0001
0010
0001
0100
0010
0100
0010
,
1000
0100
1000
0100
0001
0100
1000
0010
,
0200
0000
0000
0300
,
1001
0000
0000
0000
,
2002
0000
0000
0000
,
0000
0000
0000
0000
,
0000
0000
0000
0000
,
0000
0000
3003
0000
,
0010
0000
0110
0000
1000
0001
0100
0000
,
0100
0000
0110
0000
0001
1000
0010
0000
,
0100
0000
0010
0000
0100
0010
0100
0000
,
0020
0000
0000
0000
0000
0130
0010
1000
,
0100
0000
0000
0100
0000
0000
1100
0000
0010
0000
0000
0010
0000
0000
0011
0000
,
0001
0100
0010
1000
0100
0010
0001
1000
,
0010
0000
0000
0010
0000
0000
0100
0000
0000
0100
0000
0000
0010
0000
1001
0000
,
0001
0100
0010
1000
0100
0010
0001
1000
,
0001
0000
0000
0001
0000
0000
0011
0000
0100
0000
0000
0100
0000
0000
1100
0000
,
1000
0100
0010
0001
0100
0010
1000
0001
,
0100
0000
0000
0100
0000
0000
0010
0000
0000
0010
0000
0000
0100
0000
1001
0000
,
0001
0001
0010
0010
0100
0100
1000
1000
,
0010
0000
0000
0100
0000
0000
0110
0000
0001
0000
0000
1000
0000
0000
1001
0000
,
0001
0010
0100
1000
0010
0100
0001
0010
,
0100
0000
0000
1000
0000
0000
0010
0000
0000
0100
0000
0000
0001
0000
1001
0000
,
0200
0000
0000
0000
0000
0000
0000
0000
0000
0000
0000
0310
0000
0000
0000
0000
,
1000
0000
0000
0010
0000
0000
1010
0000
0100
0000
0000
0001
0000
0000
0101
0000
,
0001
0010
1000
0010
0001
1000
0100
0001
,
0100
0000
0000
1000
0000
0000
0010
0000
0000
0100
0000
0000
0001
0000
1001
0000
,
0001
0010
0100
0010
0001
1000
0100
0010
,
0100
0000
0000
0100
0000
0000
1100
0000
1000
0000
0000
0010
0000
0000
0001
0000
,
0000
0010
0000
0000
1000
0000
0000
0100
0000
0000
0001
0000
0000
0100
0000
0000
,
1100
0000
0000
1100
0000
0000
0110
0000
0000
0110
0000
0000
0011
0000
0001
0000
,
0010
0100
1000
0001
0100
0010
1000
0001
,
0100
0000
0000
0100
0000
0000
0110
0000
0000
0010
0000
0000
0010
0000
0110
0000
,
0100
0010
1000
0010
0100
0001
0010
1000
,
0010
0000
0000
1000
0000
0000
0010
0000
0000
0001
0000
0000
0010
0000
0100
0000
,
0010
0001
0100
0010
1000
0001
1000
0001
,
2000
0000
0000
0000
,
0000
0000
0000
0000
,
3002
0000
0000
0000
,
0000
0000
0000
0000
,
0013
0001
0010
0000
0100
1000
0100
0000
,
1000
0010
1000
0000
0001
0100
0001
0000
,
1000
0100
0010
0001
0100
0010
1000
0001
,
2000
3200
0320
0032
,
1003
0010
0100
0000
0001
1000
0100
0000
,
0010
0100
1000
0100
0110
0000
1001
0000
,
0110
0000
0000
0100
0000
0100
0010
0000
0000
1000
0000
1000
,
0001
0000
0000
0010
0000
0010
0100
0000
0000
0110
0000
0000
,
1001
0000
0000
0011
0000
0000
0001
0010
0100
1000
0000
0000
,
0001
0010
0100
1000
0000
0000
0010
0100
0010
0100
0000
0000
,
0101
0000
0000
1010
0000
0000
0001
0000
0001
0010
0000
0000
,
0010
0000
0010
0100
0000
0000
0100
0000
0100
1000
0000
0000
,
1100
0000
0001
0001
0010
0100
1000
0000
,
0010
0100
0001
0000
1000
0001
0100
0010
,
1000
0010
0100
0100
0010
1000
0100
0000
,
0010
0001
1000
0000
0010
1000
0010
0100
,
0001
0001
0100
0000
0001
0100
0010
0000
,
1000
0001
0100
0000
0001
1000
0010
0100
,
0001
0100
0001
0100
0010
0100
0010
0100
,
1000
0100
0001
0010
0100
1000
0010
0100
,
0110
0000
0000
0000
,
0000
0000
0000
0000
;
#NOTES:
     dance-single:
     :
     Hard:
     17:
     :
0000
0000
0000
0000
,
0000
0000
0000
0000
,
0000
0000
0000
0000
,
0000
0000
0000
0000
,
0000
0000
0000
0000
,
2200
0000
0000
3300
0000
0000
0202
0000
0000
0000
0000
0000
0303
0000
0000
0000
,
2000
0000
0000
0000
3010
0100
0002
0000
0000
0000
0000
0000
0000
0000
0103
0010
,
1000
0000
0000
0001
0000
0000
0220
0000
0000
0000
0000
0000
0000
0000
0000
0000
,
0000
0000
0000
0000
0000
0000
0000
0000
0330
0000
0000
0000
1000
0100
0010
0001
,
0200
0000
0000
0000
0310
1000
0001
0000
0100
0000
0010
0000
1000
0000
0100
0000
,
0001
0000
0100
0000
1000
0000
0010
0000
1000
0010
0001
0010
0100
0001
0010
0100
,
1000
0010
0100
0001
0100
0010
1000
0001
,
0010
0000
0100
0000
1000
0000
0010
0000
0001
0000
0010
0000
1000
0010
0100
0001
,
0010
0100
1000
0000
0010
0100
0001
0000
1000
0100
0010
0001
0100
0010
0001
0000
,
0020
0000
0031
0010
0100
0001
0010
0000
0001
0100
0010
1000
0001
0100
0010
1000
,
0002
0000
0000
0003
,
0100
0000
0000
0000
,
2002
0000
0000
0000
,
0000
0000
0000
0000
,
0000
0000
0000
0000
,
0000
0000
3003
0000
,
1000
0100
0010
0000
0001
0100
0010
0000
,
0010
1000
0001
0000
1000
0001
0100
0000
,
0110
0000
2002
3003
0010
0001
1000
0100
,
0010
0000
0001
0000
1000
0000
0001
0000
0100
0000
0001
0010
0001
0100
0010
1000
,
0100
1000
0000
0100
1000
0000
1100
0000
0001
0100
0000
0001
0100
0000
0101
0000
,
1000
0100
0010
0100
1000
0001
0100
0000
0001
0100
0010
0100
0001
1000
0100
0000
,
0110
0000
0000
0101
0000
0000
1100
0000
0000
0011
0000
0000
1100
0000
1000
0100
,
0010
0100
1000
0001
0100
0010
0100
0001
1000
0000
0001
0100
0010
1000
0100
0010
,
0001
0100
0000
0010
1000
0000
1010
0000
0010
1000
0000
0010
0100
0000
0101
0000
,
1000
0100
1000
0100
0010
0001
0010
0000
0001
0100
0001
0100
0010
1000
0010
0000
,
0110
0000
0000
1100
0000
0000
0110
0000
0000
0011
0000
0000
0110
0000
1001
0000
,
0020
0000
0032
0000
2003
0000
3200
0000
0302
0000
0103
0010
0100
0010
0100
0000
,
1000
0010
0000
1000
0010
0000
1010
0000
0100
0001
0000
0100
0001
0000
0101
0000
,
0010
1000
0010
0000
0100
0001
0100
0000
0001
0010
0001
0000
1000
0100
1000
0000
,
1010
0000
0000
0101
0000
0000
0011
0000
0000
1100
0000
0000
0110
0000
1001
0000
,
2000
0000
0000
0000
0000
0000
0000
0000
0000
0000
0000
3002
0000
0000
0000
0000
,
1003
0010
0000
1000
0010
0000
0110
0000
0100
0001
0000
0100
0001
0000
0100
0001
,
0010
0100
1000
0000
1000
0001
0100
0000
0010
1000
0001
0000
0001
0010
0100
0000
,
1000
0010
0000
0010
0001
0000
0001
0010
0000
0010
1000
0000
1100
0000
0101
0000
,
0020
0032
0203
0320
2030
3200
0302
0103
,
0010
0001
0000
0010
0001
0000
0011
0000
0100
1000
0000
0100
0010
0000
0001
1000
,
0000
0010
1000
0000
0001
0100
0000
1000
0100
0000
0001
0010
0000
0010
1000
0000
,
0011
0000
0000
0110
0000
0000
1100
0000
0000
0110
0000
0000
0011
0000
1000
0100
,
0010
0001
0020
0000
0031
0010
0100
2000
0000
0000
3100
1000
0100
1000
0010
0000
,
0010
1000
0000
0020
0000
0000
0130
0000
0100
0001
0000
0100
0001
0000
0101
0000
,
2000
3010
0002
0013
2000
3100
0002
0103
,
1000
0010
0000
1000
0100
0000
0010
0001
0000
0010
0100
0000
1000
0000
0001
0000
,
1000
0000
0010
0100
0010
0100
0010
0100
0010
0100
0010
0100
0020
0000
0000
0000
,
2030
0000
0000
0000
,
0000
0000
0000
0000
,
3002
0000
0000
0000
,
0000
0000
0000
0000
,
1003
0010
1000
0010
0100
0001
0100
0001
,
0010
0001
0010
0001
1000
0100
1000
0100
,
0010
0001
0010
1000
0010
0001
0100
1000
,
0100
0010
0100
0010
0100
0010
1000
0001
1000
0001
1000
0001
,
1000
0100
0010
0000
0001
0000
0100
0000
0001
0100
0010
0000
1000
0000
0001
0000
,
1000
0001
1000
0000
0100
0010
0100
0000
0020
0000
0000
0000
0130
0000
0000
0000
,
0101
0000
0000
0001
0001
0001
0100
0000
0000
0100
0100
0100
,
0010
0000
0000
0010
0010
0010
1001
0000
0000
2000
0000
0000
,
3002
0000
0000
2003
0000
0000
3001
0010
0100
0010
0010
0010
,
0100
1000
0010
0100
0100
0100
0001
0010
1000
0010
0001
0100
,
0020
0000
0000
0230
0000
0000
0301
0001
0010
0010
0100
0100
,
2000
0000
0000
3002
0000
0000
1003
1000
0010
0010
0100
0100
,
0002
0000
0003
0000
0110
0000
0000
0000
0001
0010
0100
0000
1000
0010
0100
0000
,
0010
1000
0001
0000
0100
0001
1000
0000
0010
1000
0100
0000
0010
0001
0100
0000
,
0001
1000
0010
0000
0100
0001
1000
0000
0010
0100
0001
0000
0010
0100
1000
0000
,
0001
1000
0100
0000
1000
0010
0100
0000
0001
0100
0010
0000
1000
0001
0100
0000
,
0001
0100
1000
0000
0100
0010
1000
0000
0001
0100
0010
0100
0001
0010
0100
0000
,
1000
0100
0001
0000
0100
0010
0001
0000
1000
0100
0010
0100
1000
0010
0100
0000
,
0010
1000
0010
0000
0100
0001
0100
0000
0001
0010
0001
0000
1000
0100
1000
0000
,
0010
1000
0010
1000
0001
0010
0001
0010
0100
1000
0100
1000
0010
0100
0001
0010
,
0100
0000
0000
0000
,
0000
0000
0000
0000
;
#NOTES:
     dance-single:
     :
     Challenge:
     18:
     :
0000
0000
0000
0000
,
0000
0000
0000
0000
,
0000
0000
0000
0000
,
0000
0000
0000
0000
,
0000
0000
0000
0000
,
0000
0000
0000
0000
,
0000
0000
0000
0000
,
0000
0000
0000
0000
,
0000
0000
0000
0000
,
0001
0010
0100
0000
0010
0001
0100
0000
0010
1000
0100
0000
0010
0100
1000
0000
,
0001
0100
0010
0000
1000
0001
0100
0000
0001
0010
0100
1000
0010
1000
0001
0100
,
0001
1000
0100
0000
1000
0010
0100
0000
0001
0010
0100
0000
0010
0001
1000
0000
,
0100
1000
0010
0000
0100
0001
0010
0000
0001
1000
0001
0000
1000
0100
0010
0001
,
1000
0010
0100
0000
0001
0010
0100
0000
1000
0010
0100
0000
0001
0010
0100
0000
,
1000
0010
0100
0001
1000
0010
0100
0001
1000
0100
0010
0001
1000
0100
0010
0002
,
2000
0000
0000
0000
,
3003
0000
0000
0000
,
0001
0000
0000
0010
0000
0000
1000
0000
0000
0010
0000
0000
0001
0000
0000
0100
0000
0000
1000
0000
0000
0100
0000
0000
0001
0000
0000
0000
0010
0000
0000
0000
1000
0000
0000
0000
0010
0000
0000
0000
0001
0000
0000
0000
0100
0000
0000
0000
,
1000
0000
0100
0000
0001
0000
0010
0000
1000
0000
0010
0000
0001
0000
0000
0100
0000
0000
1000
0000
0000
0100
0000
0000
,
0001
0010
1000
0010
0001
0100
,
2002
0000
0000
0000
,
0000
0000
0000
0000
,
0000
0000
0000
0000
,
0000
0000
0000
0000
,
0000
0000
0000
0000
0000
0000
0000
0000
3003
0000
0001
0010
0100
1000
0100
1000
,
0001
1000
0000
0001
1000
0000
0110
0000
0010
0100
0000
0010
0100
0000
0001
0010
,
0001
0100
0001
0100
0010
1000
0010
1000
0100
0010
0100
0100
1000
0001
1000
0000
,
0001
0010
0000
0010
1000
0000
1000
0100
0000
0100
0001
0000
0001
0010
0000
0010
,
0001
0100
1000
0100
0001
0010
1000
0010
0000
0010
0001
0010
0100
1000
0100
0000
,
1000
0010
0000
1000
0010
0000
0101
0000
0001
0100
0000
0001
0100
0000
0001
0010
,
0000
0010
0001
0100
1000
0100
0001
0010
1000
0010
0001
0000
1000
0001
1000
0000
,
0010
0100
0000
0010
0100
0000
0010
0100
0000
0010
0100
0000
0001
0010
0001
0001
,
0100
0010
1000
1000
0100
1000
0010
0010
0100
0001
0010
0001
0010
0100
1000
0000
,
0001
1000
0000
0100
1000
0000
0010
0010
0100
0001
0000
1000
0001
0000
0010
0100
,
1000
0001
1000
1000
0010
1000
1000
0100
0010
0001
0100
1000
0100
0001
1000
0000
,
0001
0100
0000
0100
1000
0000
1000
0010
0000
0010
0001
0000
0001
0100
0010
0100
,
0001
0010
0100
1000
0100
1000
0001
0010
0001
0010
0100
0200
0000
0000
0300
0000
,
1000
0010
0000
0100
0010
0000
1000
1000
0001
0100
0000
0001
1000
0000
0100
0010
,
0001
0100
0001
0001
1000
0001
0001
0010
0100
1000
0001
0100
1000
0100
0001
0000
,
1000
0001
0000
1000
0001
0000
1000
0001
0000
1000
0001
0000
1000
0010
0100
0010
,
1000
0010
1000
0010
0100
0001
0100
0001
1000
0100
0010
0100
1000
0001
1000
0000
,
0001
1000
0000
0001
1000
0000
1001
0000
0010
1000
0100
0010
0001
0010
0100
1000
,
0010
0100
0001
0100
0010
0100
0001
0100
0001
0010
0100
1000
0001
1000
0001
0000
,
1000
0010
0100
0001
1000
0100
1000
0000
1010
0000
1001
0000
0100
0010
0100
0010
,
0100
0001
0010
0000
0100
1000
0100
1000
0000
1000
0001
0010
0100
1000
0001
0000
,
1000
0100
0000
2002
0000
0000
3003
0000
1000
0010
0000
0001
0010
0000
1000
0001
,
0000
0100
0001
1000
0001
0100
0010
1000
0100
0010
0001
0010
0100
0010
0001
0000
,
1000
0100
0000
0010
0001
0000
0001
0010
0000
0100
1000
0000
0001
1000
0001
0001
,
1000
0000
0000
0010
0000
0000
0001
0000
0000
0010
0000
0000
1000
0000
0000
0100
0000
0000
0001
0000
0000
0100
0000
0000
1000
0000
0000
0001
0000
0000
1000
0000
0000
0001
0000
0000
1000
0000
0001
0000
1000
0000
0001
0000
1000
0000
0001
0000
,
2000
0000
0000
0000
,
0000
0000
0000
3000
,
0002
0000
0000
0000
,
0000
0000
0000
0003
,
1000
0100
1000
0100
1000
0001
1000
0001
,
0010
0001
0010
0001
0100
0010
0100
0010
1000
0100
1000
0100
0010
0100
0010
0000
,
0220
0000
0000
0330
,
0000
0100
0100
1000
0100
0100
0001
0100
0100
1000
0100
0100
,
0001
1000
0100
0000
0010
0001
0100
0000
0010
1000
0001
0000
0010
0100
1000
0000
,
0010
1000
0100
0000
1000
0001
0100
0000
0010
2000
0000
0000
3001
0100
0001
0100
,
0010
1000
1000
0100
1000
1000
0001
0010
0010
0001
0100
0100
,
0010
1000
0100
0010
0001
0100
1001
0000
0000
0110
0000
0000
,
2000
0000
0000
3002
0000
0000
1003
0010
0100
0001
0001
0001
,
1000
0100
0010
0001
0001
0001
0100
0100
0100
0010
0010
0010
,
2000
0000
0000
0010
0000
0000
3100
0000
0000
0000
0000
0000
0001
0000
1000
0000
0001
0000
1000
0000
0001
0000
1000
0000
,
0001
0000
0000
0010
0000
0000
1001
0000
0000
0000
0000
0000
0100
0000
0010
0000
0100
0000
0010
0000
0100
0000
0010
0000
,
0100
0001
0010
0000
0002
0000
1003
0000
0001
0100
0010
1000
0100
1000
0001
0000
,
0010
0100
1000
0001
1000
0100
0010
0000
0001
0100
1000
0100
0001
1000
0100
0000
,
0010
0001
0010
0100
1000
0001
1000
1000
0010
0100
0001
1000
0100
0010
0001
0001
,
0100
0010
1000
0001
0010
0100
0010
0010
0001
1000
0100
1000
0001
0010
0100
0000
,
1000
0100
0100
0000
0010
0001
0001
0000
0100
0010
0010
0000
1000
0001
0001
0000
,
0001
1000
1000
0000
0010
0100
0100
0000
0010
1000
1000
0000
0100
0010
0010
0000
,
0001
0010
0001
0100
0010
1000
0100
1000
0010
0100
0001
0010
0100
1000
0001
1000
,
0100
0010
0001
0100
1000
0100
0001
1000
0100
0010
0001
0010
1000
0010
0001
1000
,
1001
0000
0000
0000
,
0000
0000
0000
0000
;
#NOTES:
     dance-double:
     :
     Easy:
     8:
     :
00000000
00000000
00000000
00000000
,
00000000
00000000
00000000
00000000
,
00000000
00000000
00000000
00000000
,
00000000
00000000
00000000
00000000
,
00000000
00000000
00000000
00000000
,
00002002
00000000
00000000
00003003
,
00000001
00000000
00000000
00001000
00000000
00000000
00000000
00000000
,
00022000
00000000
00000000
00000000
,
00000000
00000000
00000000
00000000
00033000
00000000
00001000
00010000
,
00001000
00010000
00100000
10000000
,
01000000
00000000
00100000
00000000
00010000
00001000
00010000
00001000
,
00010000
00001000
00000010
00000001
,
00000100
00000010
00001000
00000100
,
00002000
00003200
00020300
00031000
,
00020000
02030000
23000000
30010000
,
01100000
00000000
00000000
00000000
,
10010000
00000000
00000000
00000000
,
20020000
00000000
00000000
00000000
,
00000000
00000000
00000000
00000000
,
00000000
00000000
00000000
00000000
,
00000000
00000000
30030000
00000000
,
00100000
10000000
01000000
10010000
,
00100000
00010000
00001000
00011000
,
00001000
00000100
00000001
00000010
,
00000100
00000100
00000020
00000030
,
00000001
00001001
00000100
00011000
,
00001000
00010000
00100000
10000000
,
01000000
00000000
00000000
01000000
00000000
00000000
01000000
00000000
00000000
01000000
00000000
00000000
01000000
00000000
00100000
00000000
,
00010000
00100000
02000000
03000000
,
10000000
10010000
01000000
00011000
,
00010000
00001000
00000010
00000001
,
00000100
00000000
00000000
00000100
00000000
00000000
00000100
00000000
00000000
00000100
00000000
00000000
00000100
00000000
00000010
00000000
,
00001000
00000010
00000200
00000300
,
00000010
00000110
00001000
00011000
,
00010000
01000000
10000000
00100000
,
10000000
00000000
00000000
10000000
00000000
00000000
10000000
00000000
00000000
10000000
00000000
00000000
10000000
00000000
00010000
00000000
,
00200000
00000000
00000000
00300000
,
00100000
01100000
00010000
00011000
,
00001000
00000100
00000001
00000010
,
00000001
00000000
00000000
00000001
00000000
00000000
00000001
00000000
00000000
00000001
00000000
00000000
00000001
00000000
00001000
00000000
,
00000020
00000000
00000000
00000030
,
00000100
00000110
00000020
00000030
,
00020000
00030000
00002000
00003000
,
00010000
00000000
00000000
00010000
00000000
00000000
00010000
00000000
00000000
00010000
00000000
00000000
00010000
00000000
00001000
00000000
,
00020000
00030000
00002000
00003000
,
00010000
00011000
01000000
01100000
,
10000000
00010000
01000000
00100000
,
10000000
00000000
00000000
10000000
00000000
00000000
00010000
00000000
00000000
00010000
00000000
00000000
10000000
00000000
00010000
00000000
,
10000000
00100000
02000000
03000000
,
00002000
00000000
00000000
00000000
,
00000000
00000000
00000000
00003000
,
00020000
00000000
00000000
00000000
,
00000000
00000000
00000000
00030000
,
00001000
00001000
00000100
00000100
,
00000001
00000001
00000010
00000010
,
00000100
00010000
00001000
00100000
,
00020000
00230000
02300000
23000000
,
30010000
01100000
00100000
00011000
,
00001000
00000100
00000002
00000013
,
00000110
00000000
00001100
00000000
,
00011000
00000000
00110000
00000000
,
01100000
00000000
11000000
00000000
,
01100000
00000000
00110000
00000000
,
00011000
00000000
00001100
00000000
,
00000101
00000000
00000011
00000000
,
00000110
00000010
00000001
00000100
,
00000010
00000000
00001000
00000000
00000100
00010000
00001000
00000000
,
00010000
00001000
00100000
00010000
,
01000000
00000000
00100000
00000000
10000000
01000000
10000000
00000000
,
01000000
00100000
00001000
00010000
,
00001000
00000000
00000100
00000000
00000010
00000100
00000010
00000000
,
00000100
00000100
00001000
00001000
,
00020000
00000000
00000000
00000000
,
00031000
00000000
00000000
00000000
,
00000000
00000000
00000000
00000000
;
#NOTES:
     dance-double:
     :
     Medium:
     13:
     :
00000000
00000000
00000000
00000000
,
00000000
00000000
00000000
00000000
,
00000000
00000000
00000000
00000000
,
00000000
00000000
00000000
00000000
,
00000000
00000000
00000000
00000000
,
20000000
00000000
00000000
32000000
00000000
00000000
00000000
00000000
,
03200000
00000000
00301000
00020000
00000000
00000000
00000000
00031000
,
00000100
00000000
00000000
00000010
00000000
00000000
00002002
00000000
00000000
00000000
00000000
00000000
00000000
00000000
00000000
00000000
,
00000000
00000000
00000000
00000000
00003003
00000000
00000001
00000100
,
00000010
00000000
00001000
00000100
00010000
00000000
00001000
00100000
,
00010000
00000000
10000000
00100000
01000000
00100000
01000000
00010000
,
00100000
00000000
00001000
00010000
00100000
00000000
10000000
01000000
,
00100000
00000000
00010000
00001000
00000100
00000000
00000010
00000001
,
00000100
00000001
00000100
00000001
00001000
00000010
00001000
00000010
,
00010000
00001000
00010000
00001000
01000000
00100000
10000000
00010000
,
02000000
00000000
00000000
03000000
,
01100000
00000000
00000000
00000000
,
00022000
00000000
00000000
00000000
,
00000000
00000000
00000000
00000000
,
00000000
00000000
00000000
00000000
,
00000000
00000000
00033000
00000000
,
00001000
00000000
00011000
00000000
00001000
00010000
01000000
00000000
,
00010000
00000000
00011000
00000000
00010000
00001000
00000100
00000000
,
00000010
00000000
00001000
00000000
00000100
00010000
00001000
00000000
,
00022000
00000000
00000000
00000000
00033000
00100000
00010000
01000000
,
00010000
00000000
00000000
00010000
00000000
00000000
01010000
00000000
01000000
00000000
00000000
01000000
00000000
00000000
01001000
00000000
,
00001000
00010000
00000100
00000000
00000010
00000001
00000100
00000000
,
00000001
00000000
00000000
00001000
00000000
00000000
00000010
00000000
00000000
00000100
00000000
00000000
00000010
00000000
00001000
00000000
,
00000100
00010000
00001000
00010000
00100000
00010000
00001000
00010000
,
00000100
00000000
00000000
00000100
00000000
00000000
00010100
00000000
00001000
00000000
00000000
00001000
00000000
00000000
00001100
00000000
,
00000100
00010000
00001000
00100000
00001000
00010000
01000000
10000000
,
00100000
00000000
00000000
10000000
00000000
00000000
00010000
00000000
00000000
01000000
00000000
00000000
00100000
00000000
01000000
00000000
,
00010000
00010000
00100000
00100000
00001000
00001000
00010000
00010000
,
00000100
00000000
00000000
00000010
00000000
00000000
00000011
00000000
00000001
00000000
00000000
00001000
00000000
00000000
00001100
00000000
,
00001000
00000100
00010000
00001000
00100000
00010000
01000000
00100000
,
10000000
00000000
00000000
01000000
00000000
00000000
00100000
00000000
00000000
00010000
00000000
00000000
10000000
00000000
10010000
00000000
,
20000000
00000000
00000000
00000000
00000000
00000000
00000000
00000000
00000000
00000000
00000000
30100000
00000000
00000000
00000000
00000000
,
01000000
00000000
00000000
00100000
00000000
00000000
01100000
00000000
01000000
00000000
00000000
00001000
00000000
00000000
01001000
00000000
,
00010000
00001000
00000100
00000001
00000100
00001000
00010000
00100000
,
10000000
00000000
00000000
00010000
00000000
00000000
00100000
00000000
00000000
01000000
00000000
00000000
10000000
00000000
10010000
00000000
,
00010000
00100000
00001000
00010000
00000100
00001000
00000100
00000000
,
00000010
00000000
00000000
00000010
00000000
00000000
00000010
00000000
00000001
00000000
00000000
00000100
00000000
00000000
00001000
00000000
,
00000000
00010000
00000000
00000000
00100000
00000000
00000000
00010000
00000000
00000000
00001000
00000000
00000000
00010000
00000000
00000000
,
01000000
00000000
00000000
10000000
00000000
00000000
00100000
00000000
00000000
00010000
00000000
00000000
00001000
00000000
00000100
00000000
,
00000001
00000010
00000100
00001000
00000010
00000100
00000001
00000010
,
00000100
00000000
00000000
00000100
00000000
00000000
00000110
00000000
00000000
00000010
00000000
00000000
00000010
00000000
00000110
00000000
,
00000010
00000001
00000100
00001000
00010000
00001000
00010000
00100000
,
10000000
00000000
00000000
00100000
00000000
00000000
00010000
00000000
00000000
00001000
00000000
00000000
00000100
00000000
00000001
00000000
,
00000010
00001000
00010000
00100000
01000000
01000000
01000000
01000000
,
00200000
00000000
00000000
00000000
,
00000000
00000000
00000000
00000000
,
02300000
00000000
00000000
00000000
,
00000000
00000000
00000000
00000000
,
03100000
10000000
01000000
00000000
00010000
00001000
00000100
00000000
,
00000001
00000010
00000100
00000000
00001000
00000100
00010000
00000000
,
00001000
00100000
00010000
01000000
00100000
10000000
01000000
00010000
,
00021000
00030200
00002300
00003020
,
00000130
00000010
00001000
00000000
00000100
00001000
00010000
00000000
,
00100000
00001000
00100000
00010000
00220000
00000000
00330000
00000000
,
01100000
00000000
00000000
10000000
00000000
10000000
00100000
00000000
00000000
01000000
00000000
01000000
,
00001000
00000000
00000000
00010000
00000000
00010000
00000100
00000000
00000000
00000110
00000000
00000000
,
00001100
00000000
00000000
00000101
00000000
00000000
00000001
00000100
00000010
00001000
00000000
00000000
,
00000100
00010000
00001000
00100000
00000000
00000000
00001000
00010000
00001000
00010000
00000000
00000000
,
00011000
00000000
00000000
00110000
00000000
00000000
01000000
00000000
01000000
00001000
00000000
00000000
,
00010000
00000000
00010000
00000100
00000000
00000000
00000010
00000000
00000010
00000100
00000000
00000000
,
00000110
00000000
00001001
00000000
00000001
00000100
00000010
00000000
,
00001000
00000100
00010000
00000000
00001000
00100000
01000000
00000000
,
10000000
00100000
01000000
00000000
00010000
01000000
00100000
00000000
,
01000000
00010000
00001000
00000000
00000010
00001000
00000001
00000000
,
00000001
00000010
00001000
00000010
00000001
00000100
00000001
00000000
,
00001000
00000010
00000001
00000010
00001000
00000100
00010000
00000000
,
00001000
00010000
00001000
00010000
00100000
10000000
01000000
00010000
,
00001000
00000100
00001000
00000100
00000001
00000010
00001000
00010000
,
00011000
00000000
00000000
00000000
,
00000000
00000000
00000000
00000000
;
#NOTES:
     dance-double:
     :
     Hard:
     17:
     :
00000000
00000000
00000000
00000000
,
00000000
00000000
00000000
00000000
,
00000000
00000000
00000000
00000000
,
00000000
00000000
00000000
00000000
,
00000000
00000000
00000000
00000000
,
00000202
00000000
00000000
00000303
00000000
00000000
00002002
00000000
00000000
00000000
00000000
00000000
00003003
00000000
00000000
00000000
,
00000200
00000000
00000000
00000000
00010300
00001000
00000200
00000000
00000000
00000000
00000000
00000000
00000000
00000000
00001300
00000100
,
00000010
00000000
00000000
00001000
00000000
00000000
00022000
00000000
00000000
00000000
00000000
00000000
00000000
00000000
00000000
00000000
,
00000000
00000000
00000000
00000000
00000000
00000000
00000000
00000000
00033000
00000000
00000000
00000000
00001000
00010000
00001000
00000010
,
00000200
00000000
00000000
00000000
00000310
00000001
00001000
00000000
00000001
00000000
00000010
00000000
00001000
00000000
00010000
00000000
,
00001000
00000000
00010000
00000000
01000000
00000000
10000000
00000000
00100000
00010000
00100000
00000000
00010000
00001000
00000100
00000000
,
00000010
00001000
00000100
00000010
00000001
00000100
00001000
00010000
,
00100000
00000000
10000000
00000000
01000000
00000000
00010000
00000000
00001000
00000000
00010000
00000000
00001000
00000100
00000001
00000010
,
00000100
00001000
00000100
00000000
00000010
00000100
00001000
00000000
00000100
00010000
00001000
00010000
00001000
00100000
01000000
00000000
,
00200000
00000000
00301000
00010000
00001000
00000100
00000010
00000000
00001000
00000100
00000010
00000001
00000010
00000100
00001000
00000010
,
00000200
00000000
00000000
00000000
,
00000020
00000000
00000000
00000330
,
00002002
00000000
00000000
00000000
,
00000000
00000000
00000000
00000000
,
00000000
00000000
00000000
00000000
,
00000000
00000000
00003003
00000000
,
00000001
00000100
00000010
00000000
00001000
00000100
00010000
00000000
,
00001000
00100000
01000000
00000000
10000000
00010000
01000000
00000000
,
00110000
00000000
00022000
00033000
00001000
00000100
00000001
00000100
,
00001000
00000000
00010000
00000000
01000000
00000000
00010000
00000000
00001000
00000000
00010000
00001000
00010000
00000100
00001000
00000100
,
00000010
00000100
00000000
00000010
00000100
00000000
00001100
00000000
00000100
00010000
00000000
00000100
00010000
00000000
00010100
00000000
,
00000100
00010000
00001000
00000000
00010000
00001000
01000000
00000000
00100000
01000000
00010000
00000000
00100000
01000000
10000000
00000000
,
11000000
00000000
00000000
00110000
00000000
00000000
10010000
00000000
00000000
00110000
00000000
00000000
00011000
00000000
00001000
00010000
,
00001000
00000000
00000100
00000010
00000100
00000000
00000001
00001000
00000100
00000000
00000010
00000001
00000010
00000001
00001000
00000100
,
00010000
00000100
00000000
00010000
00000100
00000000
00010100
00000000
00001000
01000000
00000000
00001000
01000000
00000000
01001000
00000000
,
00010000
00100000
00010000
00000000
00100000
01000000
00100000
00000000
01000000
10000000
01000000
10000000
00010000
00100000
00010000
00000000
,
00110000
00000000
00000000
01010000
00000000
00000000
00011000
00000000
00000000
00001100
00000000
00000000
00001001
00000000
00000110
00000000
,
00000020
00000000
00000230
00000000
00002300
00000000
00023000
00000000
00230000
00000000
10300000
01000000
10000000
01000000
10000000
00000000
,
01000000
00100000
00000000
01000000
00100000
00000000
01100000
00000000
00010000
00001000
00000000
00010000
00001000
00000000
00011000
00000000
,
00001000
00000100
00000001
00000010
00001000
00010000
01000000
10000000
,
10100000
00000000
00000000
01010000
00000000
00000000
00110000
00000000
00000000
00011000
00000000
00000000
00001100
00000000
00001001
00000000
,
00000002
00000000
00000000
00000000
00000000
00000000
00000000
00000000
00000000
00000000
00000000
00002003
00000000
00000000
00000000
00000000
,
00003001
00000010
00000000
00000001
00000100
00000000
00001001
00000000
00001000
00000100
00000000
00001000
00000010
00000000
00010010
00000000
,
00001000
00010000
00001000
00000000
00100000
00010000
00100000
00000000
01000000
10000000
00010000
00000000
10000000
00100000
01000000
00000000
,
00100000
10000000
00000000
00100000
00010000
00000000
00001000
00000100
00000000
00000100
00000001
00000000
00000010
00000000
00000100
00000000
,
00000020
00000032
00000203
00002300
00023000
00230000
20300000
30010000
,
10000000
01000000
00000000
00100000
00010000
00000000
00110000
00000000
00100000
00001000
00000000
00010000
00000100
00000000
00000010
00000100
,
00000000
00010000
00001000
00000000
00000100
00000010
00000000
00000001
00000010
00000000
00000100
00000010
00000000
00010000
00001000
00000000
,
00011000
00000000
00000000
00110000
00000000
00000000
00011000
00000000
00000000
00001010
00000000
00000000
00011000
00000000
00001000
00010000
,
00001000
00100000
00020000
00000000
00130000
01000000
10000000
00020000
00000000
00000000
00130000
00001000
00100000
00001000
00010000
00000000
,
00001000
00010000
00000000
00002000
00000000
00000000
00013000
00000000
00001000
00000100
00000000
00000100
00000010
00000000
00000110
00000000
,
00000002
00000013
00000200
00001300
00020000
00130000
02000000
13000000
,
10000000
00100000
00000000
01000000
00100000
00000000
00010000
00100000
00000000
00010000
00001000
00000000
00010000
00000000
00000100
00000000
,
00000010
00000000
00000001
00001000
00000001
00001000
00000001
00001000
00000001
00001000
00000001
00001000
00000002
00000000
00000000
00000000
,
00000023
00000000
00000000
00000000
,
00000000
00000000
00000000
00000000
,
00000230
00000000
00000000
00000000
,
00000000
00000000
00000000
00000000
,
00000310
00000001
00000010
00000001
00000100
00001000
00000100
00001000
,
00010000
01000000
00010000
01000000
10000000
00100000
10000000
00100000
,
01000000
00010000
00100000
00001000
00010000
00000100
00000010
00000001
,
00002000
00000000
00003002
00000000
,
00001003
00000010
00000100
00000000
00000001
00000000
00000100
00000000
00000010
00010000
00001000
00000000
00010000
00000000
00001000
00000000
,
00010000
01000000
00010000
00000000
01000000
00100000
01000000
00000000
20000000
00000000
00000000
00000000
30010000
00000000
00000000
00000000
,
01001000
00000000
00000000
00010000
00010000
00010000
00001000
00000000
00000000
00000100
00000100
00000100
,
00000010
00000000
00000000
00001000
00001000
00001000
00001001
00000000
00000000
00002000
00000000
00000000
,
00003020
00000000
00000000
00000230
00000000
00000000
00000301
00000100
00001000
00010000
00010000
00010000
,
00001000
00010000
00100000
10000000
10000000
10000000
00100000
00010000
00001000
00000100
00000001
00000010
,
00000200
00000000
00000000
00000320
00000000
00000000
00000130
00000100
00010000
00010000
00001000
00001000
,
00020000
00000000
00000000
00032000
00000000
00000000
00013000
00010000
00001000
00001000
00100000
00100000
,
02000000
00000000
03000000
00000000
01100000
00000000
00000000
00000000
10000000
00010000
01000000
00000000
00100000
01000000
00010000
00000000
,
00100000
00001000
00010000
00000000
00001000
00010000
00000010
00000000
00000100
00000010
00001000
00000000
00000100
00000010
00000001
00000000
,
00001000
00000001
00000100
00000000
00000010
00000100
00001000
00000000
00010000
00001000
00010000
00000000
00001000
00010000
01000000
00000000
,
00100000
01000000
00100000
00000000
01000000
10000000
00010000
00000000
00100000
00010000
10000000
00000000
00100000
01000000
00001000
00000000
,
00010000
00001000
00000100
00000000
00000010
00001000
00000001
00000000
00000010
00000001
00000010
00000001
00001000
00000100
00001000
00000000
,
00000100
00010000
00001000
00000000
00100000
00010000
10000000
00000000
00100000
10000000
00100000
10000000
00010000
01000000
00010000
00000000
,
10000000
01000000
00100000
00000000
00001000
01000000
00010000
00000000
00100000
00001000
00010000
00000000
00000010
00001000
00000001
00000000
,
00000010
00000001
00000100
00000010
00001000
00000100
00000010
00000000
00000100
00010000
00001000
00100000
00010000
10000000
00100000
01000000
,
00010000
00000000
00000000
00000000
,
00000000
00000000
00000000
00000000
;
#NOTES:
     dance-double:
     :
     Challenge:
     18:
     :
00000000
00000000
00000000
00000000
,
00000000
00000000
00000000
00000000
,
00000000
00000000
00000000
00000000
,
00000000
00000000
00000000
00000000
,
00000000
00000000
00000000
00000000
,
00000000
00000000
00000000
00000000
,
00000000
00000000
00000000
00000000
,
00000000
00000000
00000000
00000000
,
00000000
00000000
00000000
00000000
,
00001000
00000000
00000010
00000000
00000100
00000001
00000010
00000000
00000100
00000000
00000001
00000000
00000100
00001000
00000010
00000000
,
00000100
00000000
00001000
00000000
00010000
00000000
00100000
00000000
10000000
00100000
01000000
00010000
00100000
00010000
10000000
00000000
,
01000000
00000000
00100000
00000000
00010000
10000000
01000000
00000000
00100000
00000000
00010000
00000000
10000000
01000000
00010000
00000000
,
00001000
00000000
00000010
00000000
00000001
00001000
00000001
00000000
00001000
00000001
00001000
00000000
00000010
00000100
00000001
00000010
,
00000100
00001000
00000010
00000000
00000100
00001000
00010000
00000000
00100000
01000000
00010000
00000000
00100000
01000000
10000000
00000000
,
01000000
10000000
00100000
01000000
00010000
00100000
00001000
00010000
00000100
00001000
00000010
00000100
00000001
00000010
00000001
00000000
,
00002002
00000000
00000000
00000000
,
00003003
00000000
00000000
00000000
,
00000001
00000000
00000000
00000100
00000000
00000000
00001000
00000000
00000000
00010000
00000000
00000000
00100000
00000000
00000000
10000000
00000000
00000000
01000000
00000000
00000000
00010000
00000000
00000000
00001000
00000000
00000000
00000000
00000010
00000000
00000000
00000000
00000001
00000000
00000000
00000000
00000100
00000000
00000000
00000000
00001000
00000000
00000000
00000000
00010000
00000000
00000000
00000000
,
00100000
00000000
10000000
00000000
01000000
00000000
00010000
00000000
00001000
00000000
00000010
00000000
00000001
00000000
00000000
00000100
00000000
00000000
00001000
00000000
00000000
00010000
00000000
00000000
,
00100000
10000000
01000000
00010000
00001000
00000010
,
00000002
00000000
00000000
00000000
,
00000000
00000000
00000000
00000000
,
00000000
00000000
00000000
00000000
,
00000000
00000000
00000000
00000000
,
00000000
00000000
00000000
00000000
00000000
00000000
00000000
00000000
00000003
00000000
00000001
00000100
00000010
00001000
00000010
00001000
,
00000100
00010000
00000000
00000100
00010000
00000000
00011000
00000000
00100000
00001000
00000000
00100000
00001000
00000000
01000000
00010000
,
00100000
00010000
00100000
00000000
01000000
10000000
01000000
00000000
00100000
00010000
00100000
00100000
00001000
00010000
00001000
00000000
,
00010000
00010000
00000000
00000100
00000100
00000000
00001000
00001000
00000000
00000010
00000010
00000000
00000100
00000100
00000000
00000001
,
00000001
00000010
00000001
00000010
00000100
00001000
00000100
00001000
00000010
00000100
00000010
00000100
00001000
00010000
00001000
00000000
,
00100000
00001000
00000000
00100000
00001000
00000000
00011000
00000000
00010000
00000100
00000000
00010000
00000100
00000000
00001000
00000010
,
00000000
00001000
00000010
00000100
00000010
00001000
00000010
00000100
00000010
00001000
00000001
00000000
00000100
00000010
00000100
00000000
,
00001000
00010000
00000000
00001000
00010000
00000000
00001000
00001000
00000000
00010000
00010000
00000000
00001000
01000000
00010000
00010000
,
00100000
01000000
00100000
01000000
10000000
00100000
10000000
00100000
01000000
00010000
01000000
00000000
00001000
00010000
00001000
00000000
,
00010000
00000100
00000000
00001000
00000001
00000000
00000100
00000100
00000001
00001000
00000000
00000001
00000010
00000000
00000100
00010000
,
00001000
00100000
00010000
01000000
00001000
00100000
00010000
01000000
00100000
10000000
01000000
00100000
01000000
10000000
00100000
00000000
,
10000000
10000000
00000000
00010000
00010000
00000000
01000000
01000000
00000000
00001000
00001000
00000000
00010000
00000100
00001000
00000010
,
00000100
00000001
00000010
00000100
00001000
00000100
00000010
00000100
00010000
00001000
00010000
00020000
00000000
00000000
00030000
00000000
,
00001000
01000000
00000000
00010000
01000000
00000000
00100000
10000000
01000000
00100000
00000000
00010000
00100000
00000000
01000000
00010000
,
00001000
00010000
00001000
00010000
00001000
00100000
00001000
00100000
00001000
00010000
00000010
00001000
00000001
00000100
00000001
00000000
,
00000010
00000010
00000000
00001000
00001000
00000000
00010000
00010000
00000000
01000000
01000000
00000000
10000000
00010000
00100000
01000000
,
10000000
00100000
10000000
00100000
01000000
00010000
01000000
00010000
00100000
00001000
00100000
00001000
00010000
00000100
00001000
00000000
,
00000100
00000010
00000000
00000100
00000010
00000000
00000110
00000000
00000001
00000010
00000100
00001000
00000010
00000100
00001000
00010000
,
00001000
00010000
00000100
00010000
00001000
00100000
00001000
00010000
00100000
10000000
00100000
01000000
00010000
10000000
00010000
00000000
,
10000000
01000000
00010000
00000000
00001000
00000010
00000001
00000000
00000011
00000000
00001001
00000000
00000001
00000100
00000001
00000100
,
00001000
00010000
00001000
00000000
00010000
00001000
01000000
00010000
00000000
10000000
01000000
00100000
00001000
00010000
00001000
00000000
,
00000010
00000100
00000000
00002002
00000000
00000000
00003003
00000000
00000001
00000100
00000000
00000100
00001000
00000000
00010000
00010000
,
00000000
00100000
00100000
00000000
10000000
01000000
10000000
00010000
10000000
01000000
00100000
00010000
00100000
01000000
00010000
00000000
,
00001000
00000010
00000000
00000010
00000001
00000000
00000100
00000100
00000000
00001000
00001000
00000000
00010000
00001000
00010000
00010000
,
00100000
00000000
00000000
10000000
00000000
00000000
00100000
00000000
00000000
10000000
00000000
00000000
01000000
00000000
00000000
00100000
00000000
00000000
01000000
00000000
00000000
00100000
00000000
00000000
00001000
00000000
00000000
00010000
00000000
00000000
00001000
00000000
00000000
00010000
00000000
00000000
00001000
00000000
00010000
00000000
00001000
00000000
00010000
00000000
00001000
00000000
00010000
00000000
,
00002000
00000000
00000000
00000000
,
00000000
00000000
00000000
00003000
,
20000000
00000000
00000000
00000000
,
00000000
00000000
00000000
30000000
,
10000000
01000000
00100000
00010000
00001000
00000100
00000010
00000001
,
00000010
00000100
00000010
00000100
00010000
00001000
00010000
00001000
00100000
00010000
00100000
00010000
01000000
00100000
01000000
00000000
,
02200000
00000000
00000000
03300000
,
00000000
00100000
01000000
10000000
01000000
00100000
00001000
00010000
00001000
00100000
00001000
00010000
,
00000010
00001000
00000100
00000000
00000010
00000001
00000100
00000000
00000010
00000001
00000010
00000000
00001000
00000100
00010000
00000000
,
00001000
00010000
00001000
00000000
01000000
00010000
00100000
00000000
01000000
20000000
00000000
00000000
30100000
01000000
00100000
01000000
,
00100000
10000000
10000000
00010000
01000000
00100000
00010000
00001000
00001000
00010000
00000010
00001000
,
00000100
00000010
00000010
00000001
00000100
00001000
00000100
00000000
00000000
00001001
00000000
00000000
,
00000020
00000000
00000000
00000230
00000000
00000000
00000301
00000010
00000100
00001000
00001000
00001000
,
00000010
00000100
00001000
00010000
00010000
00010000
00100000
00100000
00100000
10000000
10000000
10000000
,
00020000
00000000
00000000
01030000
00000000
00000000
10000000
00010000
10000000
00010000
10000000
00010000
,
10000000
00000000
00000000
01000000
00000000
00000000
00010000
00000000
00000000
00000000
00000000
00000000
00001000
00000000
00010000
00000000
00001000
00000000
00010000
00000000
00001000
00000000
00010000
00000000
,
00001000
00010000
00000010
00000000
00000200
00000000
00000301
00000000
00000010
00000001
00000100
00000000
00000010
00001000
00000100
00000000
,
00001000
00000100
00010000
00001000
00100000
00001000
00010000
00000000
00001000
01000000
00010000
00100000
01000000
10000000
01000000
00000000
,
10000000
00100000
10000000
00000000
00100000
01000000
00100000
00000000
01000000
00001000
00010000
00001000
00010000
00000100
00001000
00000000
,
00000010
00000100
00000001
00001000
00000100
00000010
00000001
00000000
00000010
00000100
00001000
00000010
00000100
00001000
00010000
00000000
,
00100000
01000000
00010000
00000000
10000000
01000000
00100000
00000000
00010000
00100000
01000000
00000000
00010000
00001000
00000010
00000000
,
00000100
00001000
00000010
00000000
00000100
00000001
00001000
00000000
00000100
00000001
00000100
00000000
00001000
00000010
00001000
00000000
,
00000001
00000010
00000100
00001000
00000001
00000100
00001000
00010000
00100000
10000000
00010000
00100000
01000000
00000000
00010000
00001000
,
00000010
00000001
00000010
00000001
00000100
00001000
00000100
00001000
00010000
00100000
01000000
00010000
00100000
01000000
00100000
00001000
,
00011000
00000000
00000000
00000000
,
00000000
00000000
00000000
00000000
;
